Сегодня идет свободное скачивание без начисления Download

Владимир Сковородников | Фундаментальный курс по основам фотографии (2016) PCRec

Ответить на тему
 
Автор
Сообщение

XP1971 ®

Пол:

Стаж: 5 лет 8 месяцев

Сообщений: 8177

Торрент-статистика

Пост 31-Июл-2017 23:15

[Цитировать]

Владимир Сковородников | Фундаментальный курс по основам фотографии (2016) PCRec - Автор (режиссер): Владимир Сковородников
Жанр: Съемка фото, обработка, ретушь
Описание:
Фундаментальный курс для тех, кто хочет улучшить свои навыки фотосъёмки. Начиная с основных понятий - как устроена камера, как разобраться в основных её параметрах и закачивая тонкостями профессиональной обработки фотографий.
Курс подготовил член союза фотохудожников России Владимир Сковородников.
Продолжительность: 10:33:26
Качество видео: PCRec
Видео: AVC/H.264, 1920x1080, ~865 kb/s
Аудио: AAC, 2 ch, 144 kb/s

Mediainfo:

General
Complete name : F:Владимир Сковородников - Фундаментальный курс по основам фотографии (2016)\Занятие 1.mp4
Format : MPEG-4
Format profile : Base Media / Version 2
Codec ID : mp42 (isom/iso2/avc1/mp41)
File size : 155 MiB
Duration : 21 min 19 s
Overall bit rate mode : Variable
Overall bit rate : 1 018 kb/s
Encoded date : UTC 2016-10-30 16:09:07
Tagged date : UTC 2016-10-30 16:09:07
Writing application : HandBrake 0.10.5 2016021100
Video
ID : 1
Format : AVC
Format/Info : Advanced Video Codec
Format profile : [email protected]
Format settings, CABAC : Yes
Format settings, ReFrames : 4 frames
Codec ID : avc1
Codec ID/Info : Advanced Video Coding
Duration : 21 min 19 s
Bit rate : 865 kb/s
Width : 1 920 pixels
Height : 1 080 pixels
Display aspect ratio : 16:9
Frame rate mode : Variable
Frame rate : 30.000 FPS
Minimum frame rate : 10.000 FPS
Maximum frame rate : 30.010 FPS
Color space : YUV
Chroma subsampling : 4:2:0
Bit depth : 8 bits
Scan type : Progressive
Bits/(Pixel*Frame) : 0.014
Stream size : 132 MiB (85%)
Writing library : x264 core 142 r2479 dd79a61
Encoding settings : cabac=1 / ref=1 / deblock=1:0:0 / analyse=0x1:0x111 / me=hex / subme=2 / psy=1 / psy_rd=1.00:0.00 / mixed_ref=0 / me_range=16 / chroma_me=1 / trellis=0 / 8x8dct=0 / cqm=0 / deadzone=21,11 / fast_pskip=1 / chroma_qp_offset=0 / threads=12 / lookahead_threads=4 / sliced_threads=0 / nr=0 / decimate=1 / interlaced=0 / bluray_compat=0 / constrained_intra=0 / bframes=3 / b_pyramid=2 / b_adapt=1 / b_bias=0 / direct=1 / weightb=1 / open_gop=0 / weightp=1 / keyint=300 / keyint_min=30 / scenecut=40 / intra_refresh=0 / rc_lookahead=10 / rc=crf / mbtree=1 / crf=20.0 / qcomp=0.60 / qpmin=0 / qpmax=69 / qpstep=4 / vbv_maxrate=20000 / vbv_bufsize=25000 / crf_max=0.0 / nal_hrd=none / filler=0 / ip_ratio=1.40 / aq=1:1.00
Encoded date : UTC 2016-10-30 16:09:07
Tagged date : UTC 2016-10-30 16:09:07
Color range : Limited
Color primaries : BT.709
Transfer characteristics : BT.709
Matrix coefficients : BT.709
Audio
ID : 2
Format : AAC
Format/Info : Advanced Audio Codec
Format profile : LC
Codec ID : 40
Duration : 21 min 19 s
Bit rate mode : Variable
Bit rate : 144 kb/s
Channel(s) : 2 channels
Channel positions : Front: L R
Sampling rate : 44.1 kHz
Frame rate : 43.066 FPS (1024 spf)
Compression mode : Lossy
Stream size : 22.0 MiB (14%)
Title : Stereo / Stereo
Language : English
Default : Yes
Alternate group : 1
Скриншоты:
       
Вне форума [Профиль] [ЛС]
Похожие темы
Форум Тема Автор Торрент Отв. Посл. сообщение
./templates/default/images/folder_dl.gif Фантастика, фэнтези, ужасы, мистика Лев Прозоров - Евпатий Коловрат [Владимир Князев, 2012] [MP3] Omen
1 | 0

0 | 883

9

2012-04-03 23:47
Omen Последнее
./templates/default/images/folder_dl.gif Художественная литература Мигель де Сервантес Сааведра - Дон Кихот [Владимир Шевяков] [2010] [MP3] Omen
1 | 0

0 | 1426

3

2012-10-03 10:56
Omen Последнее
./templates/default/images/folder_dl.gif Обучающее видео Владимир Бутримов | Лечебно-Оздоровительный цигун. Успокоение сердца и выравнивание давления [2009] DVDRip Omen
1 | 0

0 | 791

3

2013-01-14 21:01
Omen Последнее
./templates/default/images/folder_dl.gif Фильмы до 2000 года Фанат 2 ( Владимир Феоктистов)[1990.,Боевик] DVDRip sashau
1 | 0

0 | 2166

1

2014-02-10 12:54
sashau Последнее
./templates/default/images/folder_dl.gif Отечественные cериалы Операция «Горгона» / Серии: 1-4 из 4 (Владимир Котт) [2011, боевик, драма, военный, WEBRip (1080p)] Omen
1 | 0

0 | 1125

8

2016-08-18 01:00
Omen Последнее
./templates/default/images/folder_dl.gif Зарубежное кино Тарас Бульба (Владимир Бортко) [2008, Россия, боевик, драма, военный, история, Blu-ray disc] [RUS] + Sub Ukr + Original Rus Omen
1 | 0

0 | 222

1

2016-10-28 01:00
Omen Последнее
./templates/default/images/folder_dl.gif Фантастика, фэнтези, ужасы, мистика Владимир Стрельников | Опасные тропы. Рядовой срочной службы (2017) [MP3] }{@R0N
1 | 0

0 | 602

5

2018-01-14 16:42
}{@R0N Последнее
./templates/default/images/folder_dl.gif Фантастика, фэнтези, ужасы, мистика Владимир Стрельников | Простые Оружные Парни (2017) [MP3] }{@R0N
1 | 0

0 | 549

4

2018-01-14 16:43
}{@R0N Последнее
Показать сообщения:    
Ответить на тему

Текущее время: Сегодня 15:00

Часовой пояс: GMT + 3



Вы не можете начинать темы
Вы не можете отвечать на сообщения
Вы не можете редактировать свои сообщения
Вы не можете удалять свои сообщения
Вы не можете голосовать в опросах
Вы не можете прикреплять файлы к сообщениям
Вы не можете скачивать файлы