Сегодня идет свободное скачивание без начисления Download

Юрьева О.В. | Работа на машине SILVER REED SK - 280/SRP 60N (2009) [ISO]

Ответить на тему
 
Автор
Сообщение

XP1971 ®

Пол:

Стаж: 5 лет

Сообщений: 5956

Торрент-статистика

Пост 05-Авг-2017 19:08

[Цитировать]

Юрьева О.В. | Работа на машине SILVER REED SK - 280/SRP 60N (2009) [ISO] - Автор (издатель): Юрьева О.В.
Жанр: Интерактивный видеокурс
Системные требования:
Windows XP - 10
Формат: ISO
Видео: VC-1, WMV3, 640x480 (4:3), 15.000 fps, 793 Kbps (0.172 bit/pixel)
Аудио: WMA Voice, 22.05 KHz, 1 ch, 20.0 Kbps, CBR (English (US))Общий битрейт: 836 Kbps
Описание:
Информация изложена в формате видеоуроков.
Затронуты все важные темы обучения, а также множество моментов, не прописанных в инструкции.
Все это поможет Вам сделать вязание приятным и плодотворным занятием.
Используя мои знания и многолетний опыт вязания на разных машинах, Вы сможете в короткие сроки добиться высоких результатов, одеть в уютные вещи свою семью и, конечно же в наше непростое время пополнить Ваш бюджет! Это не сказка! Это реальный опыт обучения!

Дополнительная информация:

Более 7 часов обучения помогут Вам освоить Вашу вязальную машину.
В видеокурсе рассмотрены следующие темы:
УРОК 1 Устройство машины
1 Устройство машины и принадлежности
2 Установка машины
3 Основная каретка
4 Доп. каретка
5 Р- каретка
6 Заправка нити
УРОК 2 Однофонтурный набор петель
1 Начало вязания с вивинговой нитью(стандартный)
2 Набор петель обвитием
3 Набор на вспомогательную нить
4 Набор "косичка" на вспомогательную нить
5 Набор с ручным выдвижением игл
6 Просмотр образцов
УРОК 3 Вязание ластика на 2-хфонтурной машине
1 Работа рычагов
2 Полный ластик
3 Полный ластик с отделкой крючком
4 Резинка 2х2 через 1 иглы и полупатентная резинка
5 Резинка 2х2 через 2 иглы
6 Резинка 3х3 через 2 иглы
УРОК 4 Узоры на основе кулирной глади
1 Гофре - изменение плотности вязания
2 Вязание полос (ручная смена нити)
3 Вязание полос со сменником цвета
4 Вивинг с ручной прокладкой нити
5 Платинг на кулирной глади
УРОК 5 Узоры на основе ластика
1 Полупатентная (жемчужная) резинка
2 Английская (рыбацкая) резинка
3 "Кукурузка"
4 Рисунки со сдвигом игольницы
5 Репс на основе полного ластика
6 Круговое вязание
7 Валики
8 Косы, араны
9 Платинг
10 Просмотр образцов
УРОК 6 Вязание по перфокарте на одной фонтуре
1 Механизм работы с перфокартой и вязание жаккарда
2 Прессовый узор
3 Слип-узор
4 Вивинг
5 Мотив, связанный вивингом
6 Жаккардовый мотив
7 Цветной пресс
8 Цветной слип с использованием сменника цвета
9 Панчлейс
10 Пресс на выставе
11 Просмотр образцов

УРОК 7 Вязание по перфокарте на 2-х фонтурах

1 Изготовление перфокарты для 2-хфонтурного жаккарда
2 Вязание 2-хфонтурного жаккарда
3 2-хфонтурный прессовый узор
4 2-фонтурный слип (валики)
5 Сетчатый узор
6 Махровое вязание
7 Тисненый ажур
8 Просмотр образцов
УРОК 8 Работа ажурной кареткой
1 Вязание простого ажура
2 Вязание сложного ажура
3 Просмотр образцов
УРОК 9 Каретка - интарсия
УРОК 10 Работа с жаккардовой кареткой
1Рычаги жаккардовой каретки. Репс -"пико".
2 Интерлок (джерси)
3 Узорный репс -"пико"
4 2-хфонт. жаккард с функцией "пико"
5 Использование "пико" в разных видах резинки
6 Просмотр образцов
УРОК 11 Создание перфокарт
1 Прессовый узор
2 Слип - узор
3 Панчлейс
4 2-хфонтурный жаккард
5 Ажур
6 Сетчатый и тисненый узор
7 Махровое вязание
8 Валики
УРОК 12 Расчет петельной пробы по образцу
УРОК 13 Узоры со сдвигом
1 Узор на основе английской резинки
2 Имитация кос
3 Полуажурное полотно
4 Имитация ажурного полотна
Урок 14 Работа с программой КnittStyler.
1 Рисование
2 Выкройки и галереи
3 Модели
4 Конвертер
МАЛЕНЬКИЕ ХИТРОСТИ
1 Наборный край "косичка" на передней игольнице
2 Снятие каретки с игольницы
3 Замена игл
4 Перенос петель
5 Бонусы
Предупреждение: Данный материал предназначен только для серьёзных людей, которые действительно готовы учиться и применять полученные знания на практике. Информации в курсе достаточно много и большая её часть имеет практическую направленность, поэтому требует тщательной проработки и обязательного практического применения.

Mediainfo

Общее
Код:
[size=14]Полное имя                               : E:\media\работа на машине silver reed sk280srp60n\AutoPlay\Videos\1_2.wmv
Формат                                   : Windows Media
Размер файла                             : 67,8 Мбайт
Продолжительность                        : 11 м. 20 с.
Режим общего битрейта                    : Переменный
Общий поток                              : 836 Кбит/сек
Максимальный общий битрейт               : 1077 Кбит/сек
Дата кодирования                         : UTC 2009-03-25 17:21:28.125
Видео
Идентификатор                            : 2
Формат                                   : VC-1
Профиль формата                          : [email protected]
Идентификатор кодека                     : WMV3
Идентификатор кодека/Информация          : Windows Media Video 9
Идентификатор кодека/Подсказка           : WMV3
Описание кодека                          : Windows Media Video 9
Продолжительность                        : 11 м. 20 с.
Вид битрейта                             : Переменный
Битрейт                                  : 793 Кбит/сек
Ширина                                   : 640 пикселей
Высота                                   : 480 пикселей
Соотношение сторон                       : 4:3
Частота кадров                           : 14,980 кадров/сек
Номинальная частота кадров               : 15,000 кадров/сек
Цветовое пространство                    : YUV
Субдискретизация насыщенности            : 4:2:0
Битовая глубина                          : 8 бит
Тип развёртки                            : Прогрессивная
Метод сжатия                             : С потерями
Бит/(Пиксели*Кадры)                      : 0.172
Размер потока                            : 64,3 Мбайт (95%)
Язык                                     : English (United States)
Аудио
Идентификатор                            : 1
Формат                                   : WMA
Профиль формата                          : Voice
Идентификатор кодека                     : A
Идентификатор кодека/Информация          : Windows Media Audio
Описание кодека                          : Windows Media Audio Voice 9 - 20 kbps, 22.05 kHz, mono
Продолжительность                        : 11 м. 20 с.
Вид битрейта                             : Постоянный
Битрейт                                  : 20,0 Кбит/сек
Каналы                                   : 1 канал
Частота                                  : 22,05 КГц
Битовая глубина                          : 16 бит
Размер потока                            : 1,62 Мбайт (2%)
Язык                                     : English (United States)[/size]
Скриншоты:

Дополнительные скриншоты:


_________________
На форуме [Профиль] [ЛС]
Похожие темы
Форум Тема Автор Торрент Отв. Посл. сообщение
./templates/default/images/folder_dl.gif Обучающая и научно-популярная литература Редькина Тамара Юрьевна - Трэвел-медиатест: способы и приёмы речепорождения [Иван Калинин, (ЛИ), 2013 г., 192 kbps, MP3] Omen
1 | 0

0 | 427

3

2015-11-10 15:00
Omen Последнее
Показать сообщения:    
Ответить на тему

Текущее время: Сегодня 14:40

Часовой пояс: GMT + 3



Вы не можете начинать темы
Вы не можете отвечать на сообщения
Вы не можете редактировать свои сообщения
Вы не можете удалять свои сообщения
Вы не можете голосовать в опросах
Вы не можете прикреплять файлы к сообщениям
Вы не можете скачивать файлы