Сегодня идет свободное скачивание без начисления Download

(Pop, rock, alternative rock, folk rock, dance-rock) Imagine Dragons - Discography (2009-2017), FLAC, lossless

Ответить на тему
 
Автор
Сообщение

Theseus ®

Пол:

Стаж: 7 лет 5 месяцев

Сообщений: 1993

Торрент-статистика

Пост 13-Авг-2017 13:25

[Цитировать]

Imagine Dragons - Discography- Страна: США
Жанр: Pop, rock, alternative rock, folk rock, dance-rock
Год выпуска: 2009-2017
Формат: FLAC (image/tracks +.cue)
Битрейт аудио: lossless
Продолжительность: 05:07:21
-

Трэклист:

Альбомы

2012 - Night Visions (Deluxe Edition/Re-Issue)

Продолжительность: 01:18:07
Треклист:
01 Radioactive (03:07)
02 Tiptoe (03:14)
03 It's Time (04:00)
04 Demons (02:58)
05 On Top of the World (03:12)
06 Amsterdam (04:01)
07 Hear Me (03:55)
08 Every Night (03:37)
09 Bleeding Out (03:43)
10 Underdog (03:29)
11 Nothing Left to Say , Rocks (08:57)
12 Cha-Ching (Till We Grow Older) (04:09)
13 Working Man (03:55)
14 My Fault (02:56)
15 Round and Round (03:18)
16 The River (03:25)
17 America (04:33)
18 Selene (04:01)
19 Cover Up (04:19)
20 I Don't Mind (03:18)

2015 - Smoke + Mirrors (Super Deluxe Edition)

Диск 1
Продолжительность: 00:50:58
Треклист:
01 Shots (03:52)
02 Gold (03:37)
03 Smoke And Mirrors (04:21)
04 I'm So Sorry (03:50)
05 I Bet My Life (03:14)
06 Polaroid (03:51)
07 Friction (03:22)
08 It Comes Back To You (03:37)
09 Dream (04:19)
10 Trouble (03:13)
11 Summer (03:38)
12 Hopeless Opus (04:02)
13 The Fall (06:02)-Диск 2
Продолжительность: 00:29:06
Треклист:
01 Thief (03:48)
02 The Unknown (03:25)
03 Second Chances (03:38)
04 Release (02:29)
05 Warriors (02:51)
06 Battle Cry (04:34)
07 Monster (04:11)
08 Who We Are (04:10)

2017 - Evolve (Deluxe Edition)

Продолжительность: 00:50:08
Треклист:
01 I Don't Know Why (03:10)
02 Whatever It Takes (03:21)
03 Believer (03:24)
04 Walking the Wire (03:53)
05 Rise Up (03:52)
06 I'll Make It Up to You (04:23)
07 Yesterday (03:25)
08 Mouth of the River (03:42)
09 Thunder (03:07)
10 Start Over (03:06)
11 Dancing in the Dark (03:55)
12 Levitate (03:18)
13 Not Today (04:21)
14 Believer (Kaskade Remix) (03:11)
-Мини альбомы

2009 - Imagine Dragons - EP

Продолжительность: 00:19:50
Треклист:
01 I Need a Minute (03:28)
02 Uptight (03:44)
03 Cover Up (04:20)
04 Curse (03:46)
05 Drive (04:32)

2010 - Hell And Silence - EP

Продолжительность: 00:17:50
Треклист:
01 All Eyes (02:59)
02 Don't Mind (03:18)
03 Hear Me (03:55)
04 Selene (04:06)
05 Emma (03:32)

2011 - It's Time - EP

Продолжительность: 00:32:01
Треклист:
01 It's Time (04:00)
02 Amsterdam (04:05)
03 Tokyo (03:17)
04 The River (03:25)
05 Leave Me (03:31)
06 Pantomime (05:02)
07 Look How Far We've Come (04:08)
08 America (04:33)

2012 - Continued Silence - EP

Продолжительность: 00:19:28
Треклист:
01 Radioactive (03:08)
02 Demons (02:56)
03 On Top Of The World (03:11)
04 Round And Round (03:18)
05 It's Time (04:00)
06 My Fault (02:55)
-Ремиксы

2014 - Demons (Remixes)

Продолжительность: 00:09:45
Треклист:
01 Demons (Imagine Dragons Remix) (03:17)
02 Demons (KIDinaKORNER Remix) (03:20)
03 Demons (Acoustic Live In London) (03:08)

2014 - Radioactive (Remix)

Треклист:
01 Radioactive (ft. Kendrick Lamar) (04:36)

2015 - I Bet My Life (Remixes)

Продолжительность: 00:16:04
Треклист:
01 I Bet My Life (Alex Adair Remix) (03:10)
02 I Bet My Life (Bastille Remix) (03:56)
03 I Bet My Life (Lost Kings Remix) (03:59)
04 I Bet My Life (Imagine Dragons Remix) (04:59)

2015 - Shots - EP

Продолжительность: 00:15:52
Треклист:
01 Shots (Broiler Remix) (03:12)
02 Shots (Astrolith Remix) (03:30)
03 Shots (Acoustic (Piano) / Live From The Smith Center / Las Vegas / 2015) (04:22)
04 Shots (Broiler Extended Club Remix) (04:48)
-Синглы

2015 - Roots

Продолжительность: 00:02:55
Треклист:
01 Roots (02:55)

2016 - Sucker for Pain

Продолжительность: 00:04:04
Треклист:
01 Sucker for Pain (with Logic, Ty Dolla $ign & X Ambassadors) (04:04)
-

Логи, Cue

2009 - Imagine Dragons - EP

Лог создания рипа:

Exact Audio Copy V0.99 prebeta 5 from 4. May 2009
EAC extraction logfile from 12. April 2010, 5:37
Imagine Dragons / Ep
Used drive : MATSHITADVD-RAM UJ-842 Adapter: 1 ID: 0
Read mode : Secure
Utilize accurate stream : Yes
Defeat audio cache : Yes
Make use of C2 pointers : No
Read offset correction : 102
Overread into Lead-In and Lead-Out : No
Fill up missing offset samples with silence : Yes
Delete leading and trailing silent blocks : No
Null samples used in CRC calculations : Yes
Used interface : Native Win32 interface for Win NT & 2000
Gap handling : Appended to previous track
Used output format : User Defined Encoder
Selected bitrate : 128 kBit/s
Quality : High
Add ID3 tag : No
Command line compressor : C:\Program Files\Exact Audio Copy\Flac\flac.exe
Additional command line options : -V -8 -T "artist=%a" -T "title=%t" -T "album=%g" -T "date=%y" -T "tracknumber=%n" -T "genre=%m" %s
TOC of the extracted CD
Track | Start | Length | Start sector | End sector
---------------------------------------------------------
1 | 0:00.00 | 3:28.00 | 0 | 15599
2 | 3:28.00 | 3:44.00 | 15600 | 32399
3 | 7:12.00 | 4:20.00 | 32400 | 51899
4 | 11:32.00 | 3:46.19 | 51900 | 68868
5 | 15:18.19 | 4:32.00 | 68869 | 89268
Track 1
Filename C:\EAC\Imagine Dragons\Ep\01 I Need a Minute.wav
Pre-gap length 0:00:02.00
Peak level 100.0 %
Track quality 100.0 %
Test CRC 75BAED1A
Copy CRC 75BAED1A
Track not present in AccurateRip database
Copy OK
Track 2
Filename C:\EAC\Imagine Dragons\Ep\02 Uptight.wav
Pre-gap length 0:00:02.00
Peak level 100.0 %
Track quality 100.0 %
Test CRC EC91F95A
Copy CRC EC91F95A
Track not present in AccurateRip database
Copy OK
Track 3
Filename C:\EAC\Imagine Dragons\Ep\03 Cover Up.wav
Pre-gap length 0:00:02.00
Peak level 100.0 %
Track quality 99.9 %
Test CRC 217DCA8F
Copy CRC 217DCA8F
Track not present in AccurateRip database
Copy OK
Track 4
Filename C:\EAC\Imagine Dragons\Ep\04 Curse.wav
Pre-gap length 0:00:02.00
Peak level 100.0 %
Track quality 100.0 %
Test CRC 1BCBC67E
Copy CRC 1BCBC67E
Track not present in AccurateRip database
Copy OK
Track 5
Filename C:\EAC\Imagine Dragons\Ep\05 Drive.wav
Pre-gap length 0:00:02.00
Peak level 100.0 %
Track quality 100.0 %
Test CRC 8DFF45EB
Copy CRC 8DFF45EB
Track not present in AccurateRip database
Copy OK
None of the tracks are present in the AccurateRip database
No errors occurred
End of status report

Содержание индексной карты (.CUE):

REM GENRE Rock
REM DATE 2010
REM DISCID 2E04A605
REM COMMENT "ExactAudioCopy v0.99pb5"
PERFORMER "Imagine Dragons"
TITLE "Ep"
FILE "01 I Need a Minute.flac" WAVE
TRACK 01 AUDIO
TITLE "I Need a Minute"
PERFORMER "Imagine Dragons"
INDEX 01 00:00:00
TRACK 02 AUDIO
TITLE "Uptight"
PERFORMER "Imagine Dragons"
INDEX 00 03:26:00
FILE "02 Uptight.flac" WAVE
INDEX 01 00:00:00
TRACK 03 AUDIO
TITLE "Cover Up"
PERFORMER "Imagine Dragons"
INDEX 00 03:42:00
FILE "03 Cover Up.flac" WAVE
INDEX 01 00:00:00
TRACK 04 AUDIO
TITLE "Curse"
PERFORMER "Imagine Dragons"
INDEX 00 04:18:00
FILE "04 Curse.flac" WAVE
INDEX 01 00:00:00
TRACK 05 AUDIO
TITLE "Drive"
PERFORMER "Imagine Dragons"
INDEX 00 03:44:19
FILE "05 Drive.flac" WAVE
INDEX 01 00:00:00

2010 - Hell And Silence

Лог создания рипа:

Exact Audio Copy V1.0 beta 2 from 29. April 2011
EAC extraction logfile from 21. April 2012, 22:27
Imagine Dragons / Hell And Silence
Used drive : HL-DT-STDVDRAM GT30N Adapter: 1 ID: 0
Read mode : Secure
Utilize accurate stream : Yes
Defeat audio cache : Yes
Make use of C2 pointers : No
Read offset correction : 103
Overread into Lead-In and Lead-Out : No
Fill up missing offset samples with silence : Yes
Delete leading and trailing silent blocks : No
Null samples used in CRC calculations : Yes
Used interface : Native Win32 interface for Win NT & 2000
Gap handling : Appended to previous track
Used output format : User Defined Encoder
Selected bitrate : 320 kBit/s
Quality : High
Add ID3 tag : No
Command line compressor : C:\Program Files\Exact Audio Copy\Flac\flac.exe
Additional command line options : -8 -V -T "ARTIST=%artist%" -T "TITLE=%title%" -T "ALBUM=%albumtitle%" -T "DATE=%year%" -T "TRACKNUMBER=%tracknr%" -T "GENRE=%genre%" -T "PERFORMER=%albuminterpret%" -T "COMPOSER=%composer%" %haslyrics%--tag-from-file=LYRICS
TOC of the extracted CD
Track | Start | Length | Start sector | End sector
---------------------------------------------------------
1 | 0:00.00 | 2:59.17 | 0 | 13441
2 | 2:59.17 | 3:18.13 | 13442 | 28304
3 | 6:17.30 | 3:54.47 | 28305 | 45901
4 | 10:12.02 | 4:05.43 | 45902 | 64319
5 | 14:17.45 | 3:32.02 | 64320 | 80221
Track 1
Filename C:\EAC Rips\Imagine Dragons - Hell And Silence [FLAC]\01 - All Eyes.wav
Pre-gap length 0:00:02.00
Peak level 98.8 %
Extraction speed 1.1 X
Track quality 100.0 %
Test CRC EAF7E85F
Copy CRC EAF7E85F
Accurately ripped (confidence 1) [F0EAA62A] (AR v1)
Copy OK
Track 2
Filename C:\EAC Rips\Imagine Dragons - Hell And Silence [FLAC]\02 - Don't Mind.wav
Peak level 98.8 %
Extraction speed 1.1 X
Track quality 99.9 %
Test CRC 6040AA3B
Copy CRC 6040AA3B
Accurately ripped (confidence 1) [F2FCFE25] (AR v1)
Copy OK
Track 3
Filename C:\EAC Rips\Imagine Dragons - Hell And Silence [FLAC]\03 - Hear Me.wav
Peak level 98.8 %
Extraction speed 1.4 X
Track quality 100.0 %
Test CRC 01C5017B
Copy CRC 01C5017B
Accurately ripped (confidence 1) [1947AF0E] (AR v1)
Copy OK
Track 4
Filename C:\EAC Rips\Imagine Dragons - Hell And Silence [FLAC]\04 - Selene.wav
Peak level 98.8 %
Extraction speed 1.5 X
Track quality 100.0 %
Test CRC 8491CC16
Copy CRC 8491CC16
Accurately ripped (confidence 1) [6C60762C] (AR v1)
Copy OK
Track 5
Filename C:\EAC Rips\Imagine Dragons - Hell And Silence [FLAC]\05 - Emma.wav
Peak level 98.8 %
Extraction speed 1.6 X
Track quality 100.0 %
Test CRC 0828AB9C
Copy CRC 0828AB9C
Accurately ripped (confidence 1) [B60CB43D] (AR v1)
Copy OK
All tracks accurately ripped
No errors occurred
End of status report
==== Log checksum 72D42F33687EB059F13B9DC2CA4C149963D600C1770CA6EC2FB3207EB011CCE6 ====

Содержание индексной карты (.CUE):

REM DATE 2010
REM DISCID 40042D05
REM COMMENT "ExactAudioCopy v1.0b2"
PERFORMER "Imagine Dragons"
TITLE "Hell And Silence"
FILE "01 All Eyes.flac" WAVE
TRACK 01 AUDIO
TITLE "All Eyes"
PERFORMER "Imagine Dragons"
FLAGS DCP
INDEX 01 00:00:00
FILE "02 Don't Mind.flac" WAVE
TRACK 02 AUDIO
TITLE "Don't Mind"
PERFORMER "Imagine Dragons"
FLAGS DCP
INDEX 01 00:00:00
FILE "03 Hear Me.flac" WAVE
TRACK 03 AUDIO
TITLE "Hear Me"
PERFORMER "Imagine Dragons"
FLAGS DCP
INDEX 01 00:00:00
FILE "04 Selene.flac" WAVE
TRACK 04 AUDIO
TITLE "Selene"
PERFORMER "Imagine Dragons"
FLAGS DCP
INDEX 01 00:00:00
FILE "05 Emma.flac" WAVE
TRACK 05 AUDIO
TITLE "Emma"
PERFORMER "Imagine Dragons"
FLAGS DCP
INDEX 01 00:00:00

2011 - It's Time - EP

Лог проверки качества:

AUDIOCHECKER v2.0 beta (build 457) - by Dester - [email protected]
~~~~~~~~~~~~~~~~~~~~~~~~~~~~~~~~~~
-=== DO NOT EDIT THIS FILE! ===-
Путь: ...\2011 - It's Time - EP
1 -=- 01 It's Time.flac -=- CDDA (100%)
2 -=- 02 Amsterdam.flac -=- CDDA (100%)
3 -=- 03 Tokyo.flac -=- CDDA (99%)
4 -=- 04 The River.flac -=- CDDA (100%)
5 -=- 05 Leave Me.flac -=- CDDA (99%)
6 -=- 06 Pantomime.flac -=- CDDA (100%)
7 -=- 07 Look How Far We've Come.flac -=- CDDA (100%)
8 -=- 08 America.flac -=- CDDA (100%)
Сводка 99,75% CDDA
11961780

2012 - Continued Silence - EP

Лог создания рипа:

X Lossless Decoder version 20120226 (139.1)
XLD extraction logfile from 2012-03-15 19:06:02 +0000
Imagine Dragons / Continued Silence [EP]
Used drive : MATSHITA DVD-R UJ-898 (revision HC10)
Ripper mode : XLD Secure Ripper
Disable audio cache : OK for the drive with a cache less than 1375KiB
Make use of C2 pointers : NO
Read offset correction : 102
Max retry count : 100
Gap status : Analyzed, Appended (except HTOA)
TOC of the extracted CD
Track | Start | Length | Start sector | End sector
---------------------------------------------------------
1 | 00:00:00 | 03:08:00 | 0 | 14099
2 | 03:08:00 | 02:56:22 | 14100 | 27321
3 | 06:04:22 | 03:11:35 | 27322 | 41681
4 | 09:15:57 | 03:17:65 | 41682 | 56521
5 | 12:33:47 | 03:59:42 | 56522 | 74488
6 | 16:33:14 | 02:55:24 | 74489 | 87637
AccurateRip Summary
Disc not found in AccurateRip DB.
All Tracks
Album gain : -11.28 dB
Peak : 1.000000
Statistics
Read error : 0
Jitter error (maybe fixed) : 0
Retry sector count : 0
Damaged sector count : 0
Track 01
Filename : /Users/Kevin/Music/Imagine Dragons - Continued Silence [EP] (2012) - [FLAC]/01 - Radioactive.flac
Pre-gap length : 00:02:00
Track gain : -11.82 dB
Peak : 0.966034
CRC32 hash (test run) : FDDA0376
CRC32 hash : FDDA0376
CRC32 hash (skip zero) : D5ECBB97
AccurateRip signature : 223C5A81
->Track not present in AccurateRip database.
Statistics
Read error : 0
Jitter error (maybe fixed) : 0
Retry sector count : 0
Damaged sector count : 0
Track 02
Filename : /Users/Kevin/Music/Imagine Dragons - Continued Silence [EP] (2012) - [FLAC]/02 - Demons.flac
Track gain : -11.91 dB
Peak : 1.000000
CRC32 hash (test run) : 014A570E
CRC32 hash : 014A570E
CRC32 hash (skip zero) : 39D3CD0A
AccurateRip signature : 0EB34663
->Track not present in AccurateRip database.
Statistics
Read error : 0
Jitter error (maybe fixed) : 0
Retry sector count : 0
Damaged sector count : 0
Track 03
Filename : /Users/Kevin/Music/Imagine Dragons - Continued Silence [EP] (2012) - [FLAC]/03 - On Top Of The World.flac
Pre-gap length : 00:00:48
Track gain : -10.11 dB
Peak : 0.966034
CRC32 hash (test run) : AC860878
CRC32 hash : AC860878
CRC32 hash (skip zero) : AB6F4980
AccurateRip signature : D1F765F3
->Track not present in AccurateRip database.
Statistics
Read error : 0
Jitter error (maybe fixed) : 0
Retry sector count : 0
Damaged sector count : 0
Track 04
Filename : /Users/Kevin/Music/Imagine Dragons - Continued Silence [EP] (2012) - [FLAC]/04 - Round And Round.flac
Pre-gap length : 00:01:23
Track gain : -11.43 dB
Peak : 0.966034
CRC32 hash (test run) : 35605131
CRC32 hash : 35605131
CRC32 hash (skip zero) : A5C3F032
AccurateRip signature : 1143E094
->Track not present in AccurateRip database.
Statistics
Read error : 0
Jitter error (maybe fixed) : 0
Retry sector count : 0
Damaged sector count : 0
Track 05
Filename : /Users/Kevin/Music/Imagine Dragons - Continued Silence [EP] (2012) - [FLAC]/05 - It's Time.flac
Pre-gap length : 00:01:03
Track gain : -10.62 dB
Peak : 0.966034
CRC32 hash (test run) : 06658C4D
CRC32 hash : 06658C4D
CRC32 hash (skip zero) : B55048F3
AccurateRip signature : 69602517
->Track not present in AccurateRip database.
Statistics
Read error : 0
Jitter error (maybe fixed) : 0
Retry sector count : 0
Damaged sector count : 0
Track 06
Filename : /Users/Kevin/Music/Imagine Dragons - Continued Silence [EP] (2012) - [FLAC]/06 - My Fault.flac
Pre-gap length : 00:01:07
Track gain : -9.98 dB
Peak : 0.966034
CRC32 hash (test run) : 022F110A
CRC32 hash : 022F110A
CRC32 hash (skip zero) : B8D76CF4
AccurateRip signature : 27AE67B2
->Track not present in AccurateRip database.
Statistics
Read error : 0
Jitter error (maybe fixed) : 0
Retry sector count : 0
Damaged sector count : 0
No errors occurred
End of status report

Содержание индексной карты (.CUE):

TITLE "Continued Silence [EP]"
PERFORMER "Imagine Dragons"
CATALOG 0602527962320
REM GENRE "Rock"
REM DATE "2012"
REM DISCID 54049006
REM REPLAYGAIN_ALBUM_GAIN -11.28 dB
REM REPLAYGAIN_ALBUM_PEAK 1.000000
FILE "01 Radioactive.flac" WAVE
TRACK 01 AUDIO
TITLE "Radioactive"
ISRC USUM71201074
REM REPLAYGAIN_TRACK_GAIN -11.82 dB
REM REPLAYGAIN_TRACK_PEAK 0.966034
INDEX 01 00:00:00
FILE "02 Demons.flac" WAVE
TRACK 02 AUDIO
TITLE "Demons"
ISRC USUM71201071
REM REPLAYGAIN_TRACK_GAIN -11.91 dB
REM REPLAYGAIN_TRACK_PEAK 1.000000
INDEX 01 00:00:00
TRACK 03 AUDIO
TITLE "On Top Of The World"
ISRC USUM71201073
REM REPLAYGAIN_TRACK_GAIN -10.11 dB
REM REPLAYGAIN_TRACK_PEAK 0.966034
INDEX 00 02:55:49
FILE "03 On Top Of The World.flac" WAVE
INDEX 01 00:00:00
TRACK 04 AUDIO
TITLE "Round And Round"
ISRC USUM71201075
REM REPLAYGAIN_TRACK_GAIN -11.43 dB
REM REPLAYGAIN_TRACK_PEAK 0.966034
INDEX 00 03:10:12
FILE "04 Round And Round.flac" WAVE
INDEX 01 00:00:00
TRACK 05 AUDIO
TITLE "It's Time"
ISRC USUM71200987
REM REPLAYGAIN_TRACK_GAIN -10.62 dB
REM REPLAYGAIN_TRACK_PEAK 0.966034
INDEX 00 03:16:62
FILE "05 It's Time.flac" WAVE
INDEX 01 00:00:00
TRACK 06 AUDIO
TITLE "My Fault"
ISRC USUM71201072
REM REPLAYGAIN_TRACK_GAIN -9.98 dB
REM REPLAYGAIN_TRACK_PEAK 0.966034
INDEX 00 03:58:35
FILE "06 My Fault.flac" WAVE
INDEX 01 00:00:00

2012 - Night Visions

Лог создания рипа:

Exact Audio Copy V1.0 beta 4 from 7. December 2014
EAC extraction logfile from 2. April 2015, 2:36
Imagine Dragons / Night Visions
Used drive : HL-DT-STDVDRAM GH22NS50 Adapter: 1 ID: 0
Read mode : Secure
Utilize accurate stream : Yes
Defeat audio cache : Yes
Make use of C2 pointers : No
Read offset correction : 667
Overread into Lead-In and Lead-Out : No
Fill up missing offset samples with silence : Yes
Delete leading and trailing silent blocks : No
Null samples used in CRC calculations : Yes
Used interface : Native Win32 interface for Win NT & 2000
Gap handling : Appended to previous track
Used output format : User Defined Encoder
Selected bitrate : 128 kBit/s
Quality : High
Add ID3 tag : Yes
Command line compressor : C:\Program Files (x86)\Exact Audio Copy\Flac\flac.exe
Additional command line options : -V -8 -T "Date=%year%" -T "Genre=%genre%" %source%
TOC of the extracted CD
Track | Start | Length | Start sector | End sector
---------------------------------------------------------
1 | 0:00.00 | 3:06.61 | 0 | 14010
2 | 3:06.61 | 3:14.15 | 14011 | 28575
3 | 6:21.01 | 4:00.23 | 28576 | 46598
4 | 10:21.24 | 2:57.38 | 46599 | 59911
5 | 13:18.62 | 3:12.21 | 59912 | 74332
6 | 16:31.08 | 4:01.32 | 74333 | 92439
7 | 20:32.40 | 3:55.29 | 92440 | 110093
8 | 24:27.69 | 3:37.26 | 110094 | 126394
9 | 28:05.20 | 3:43.08 | 126395 | 143127
10 | 31:48.28 | 3:29.33 | 143128 | 158835
11 | 35:17.61 | 8:57.06 | 158836 | 199116
12 | 44:14.67 | 4:09.35 | 199117 | 217826
13 | 48:24.27 | 3:55.06 | 217827 | 235457
14 | 52:19.33 | 2:56.19 | 235458 | 248676
15 | 55:15.52 | 3:18.14 | 248677 | 263540
16 | 58:33.66 | 3:24.62 | 263541 | 278902
17 | 61:58.53 | 4:33.33 | 278903 | 299410
18 | 66:32.11 | 4:00.53 | 299411 | 317463
19 | 70:32.64 | 4:19.02 | 317464 | 336890
20 | 74:51.66 | 3:18.13 | 336891 | 351753
Track 1
Filename D:\!рипы\01 Radioactive.wav
Pre-gap length 0:00:02.00
Peak level 94.4 %
Extraction speed 1.1 X
Track quality 100.0 %
Test CRC AECD2804
Copy CRC AECD2804
Copy OK
Track 2
Filename D:\!рипы\02 Tiptoe.wav
Peak level 96.6 %
Extraction speed 1.0 X
Track quality 99.9 %
Test CRC 8C1D687D
Copy CRC 8C1D687D
Copy OK
Track 3
Filename D:\!рипы\03 It's Time.wav
Pre-gap length 0:00:01.15
Peak level 96.6 %
Extraction speed 1.3 X
Track quality 100.0 %
Test CRC 94801AAD
Copy CRC 94801AAD
Copy OK
Track 4
Filename D:\!рипы\04 Demons.wav
Pre-gap length 0:00:02.24
Peak level 100.0 %
Extraction speed 1.3 X
Track quality 100.0 %
Test CRC C943F415
Copy CRC C943F415
Copy OK
Track 5
Filename D:\!рипы\05 On Top of the World.wav
Pre-gap length 0:00:02.23
Peak level 96.6 %
Extraction speed 1.5 X
Track quality 100.0 %
Test CRC B20233FB
Copy CRC B20233FB
Copy OK
Track 6
Filename D:\!рипы\06 Amsterdam.wav
Pre-gap length 0:00:02.33
Peak level 96.6 %
Extraction speed 1.6 X
Track quality 100.0 %
Test CRC 46DB8A95
Copy CRC 46DB8A95
Copy OK
Track 7
Filename D:\!рипы\07 Hear Me.wav
Peak level 96.6 %
Extraction speed 1.4 X
Track quality 99.9 %
Test CRC E7EB8AB4
Copy CRC E7EB8AB4
Copy OK
Track 8
Filename D:\!рипы\08 Every Night.wav
Pre-gap length 0:00:03.11
Peak level 96.6 %
Extraction speed 1.7 X
Track quality 100.0 %
Test CRC 315572B1
Copy CRC 315572B1
Copy OK
Track 9
Filename D:\!рипы\09 Bleeding Out.wav
Pre-gap length 0:00:01.61
Peak level 100.0 %
Extraction speed 1.5 X
Track quality 99.9 %
Test CRC CF4074C2
Copy CRC CF4074C2
Copy OK
Track 10
Filename D:\!рипы\10 Underdog.wav
Pre-gap length 0:00:02.04
Peak level 94.0 %
Extraction speed 1.8 X
Track quality 100.0 %
Test CRC 0AD79665
Copy CRC 0AD79665
Copy OK
Track 11
Filename D:\!рипы\11 Nothing Left to Say , Rocks.wav
Pre-gap length 0:00:02.55
Peak level 100.0 %
Extraction speed 2.1 X
Track quality 100.0 %
Test CRC 3CBB1E1C
Copy CRC 3CBB1E1C
Copy OK
Track 12
Filename D:\!рипы\12 Cha-Ching (Till We Grow Older).wav
Pre-gap length 0:00:01.02
Peak level 96.6 %
Extraction speed 2.1 X
Track quality 100.0 %
Test CRC 3B58EDA1
Copy CRC 3B58EDA1
Copy OK
Track 13
Filename D:\!рипы\13 Working Man.wav
Peak level 96.6 %
Extraction speed 2.2 X
Track quality 100.0 %
Test CRC AAB9AF6D
Copy CRC AAB9AF6D
Copy OK
Track 14
Filename D:\!рипы\14 My Fault.wav
Peak level 96.6 %
Extraction speed 1.8 X
Track quality 99.9 %
Test CRC 4396EA1E
Copy CRC 4396EA1E
Copy OK
Track 15
Filename D:\!рипы\15 Round and Round.wav
Pre-gap length 0:00:00.69
Peak level 96.6 %
Extraction speed 1.9 X
Track quality 99.9 %
Test CRC 8445206F
Copy CRC 8445206F
Copy OK
Track 16
Filename D:\!рипы\16 The River.wav
Pre-gap length 0:00:01.19
Peak level 96.6 %
Extraction speed 1.9 X
Track quality 99.9 %
Test CRC 82360DA9
Copy CRC 82360DA9
Copy OK
Track 17
Filename D:\!рипы\17 America.wav
Pre-gap length 0:00:00.60
Peak level 96.6 %
Extraction speed 2.4 X
Track quality 100.0 %
Test CRC 0928B2C4
Copy CRC 0928B2C4
Copy OK
Track 18
Filename D:\!рипы\18 Selene.wav
Pre-gap length 0:00:00.57
Peak level 96.6 %
Extraction speed 2.1 X
Track quality 99.9 %
Test CRC 562FBBBE
Copy CRC 562FBBBE
Copy OK
Track 19
Filename D:\!рипы\19 Cover Up.wav
Pre-gap length 0:00:00.67
Peak level 99.9 %
Extraction speed 2.6 X
Track quality 100.0 %
Test CRC DD789AF1
Copy CRC DD789AF1
Copy OK
Track 20
Filename D:\!рипы\20 I Don't Mind.wav
Pre-gap length 0:00:00.35
Peak level 96.6 %
Extraction speed 2.5 X
Track quality 100.0 %
Test CRC 27BCD854
Copy CRC 27BCD854
Copy OK
No errors occurred
End of status report
==== Log checksum E4E9EBF39D3CBDD5C301253BAFB0C599F6A570F1C0049C0D0DEDCB0B45A5D316 ====

Содержание индексной карты (.CUE):

REM GENRE Rock
REM DATE 2012
REM DISCID 25125214
REM COMMENT "ExactAudioCopy v1.0b4"
PERFORMER "Imagine Dragons"
TITLE "Night Visions"
FILE "01 Radioactive.wav" WAVE
TRACK 01 AUDIO
TITLE "Radioactive"
PERFORMER "Imagine Dragons"
INDEX 01 00:00:00
FILE "02 Tiptoe.wav" WAVE
TRACK 02 AUDIO
TITLE "Tiptoe"
PERFORMER "Imagine Dragons"
INDEX 01 00:00:00
TRACK 03 AUDIO
TITLE "It's Time"
PERFORMER "Imagine Dragons"
INDEX 00 03:13:00
FILE "03 It's Time.wav" WAVE
INDEX 01 00:00:00
TRACK 04 AUDIO
TITLE "Demons"
PERFORMER "Imagine Dragons"
INDEX 00 03:57:74
FILE "04 Demons.wav" WAVE
INDEX 01 00:00:00
TRACK 05 AUDIO
TITLE "On Top of the World"
PERFORMER "Imagine Dragons"
INDEX 00 02:55:15
FILE "05 On Top of the World.wav" WAVE
INDEX 01 00:00:00
TRACK 06 AUDIO
TITLE "Amsterdam"
PERFORMER "Imagine Dragons"
INDEX 00 03:09:63
FILE "06 Amsterdam.wav" WAVE
INDEX 01 00:00:00
FILE "07 Hear Me.wav" WAVE
TRACK 07 AUDIO
TITLE "Hear Me"
PERFORMER "Imagine Dragons"
INDEX 01 00:00:00
TRACK 08 AUDIO
TITLE "Every Night"
PERFORMER "Imagine Dragons"
INDEX 00 03:52:18
FILE "08 Every Night.wav" WAVE
INDEX 01 00:00:00
TRACK 09 AUDIO
TITLE "Bleeding Out"
PERFORMER "Imagine Dragons"
INDEX 00 03:35:40
FILE "09 Bleeding Out.wav" WAVE
INDEX 01 00:00:00
TRACK 10 AUDIO
TITLE "Underdog"
PERFORMER "Imagine Dragons"
INDEX 00 03:41:04
FILE "10 Underdog.wav" WAVE
INDEX 01 00:00:00
TRACK 11 AUDIO
TITLE "Nothing Left to Say / Rocks"
PERFORMER "Imagine Dragons"
INDEX 00 03:26:53
FILE "11 Nothing Left to Say , Rocks.wav" WAVE
INDEX 01 00:00:00
TRACK 12 AUDIO
TITLE "Cha-Ching (Till We Grow Older)"
PERFORMER "Imagine Dragons"
INDEX 00 08:56:04
FILE "12 Cha-Ching (Till We Grow Older).wav" WAVE
INDEX 01 00:00:00
FILE "13 Working Man.wav" WAVE
TRACK 13 AUDIO
TITLE "Working Man"
PERFORMER "Imagine Dragons"
INDEX 01 00:00:00
FILE "14 My Fault.wav" WAVE
TRACK 14 AUDIO
TITLE "My Fault"
PERFORMER "Imagine Dragons"
INDEX 01 00:00:00
TRACK 15 AUDIO
TITLE "Round and Round"
PERFORMER "Imagine Dragons"
INDEX 00 02:55:25
FILE "15 Round and Round.wav" WAVE
INDEX 01 00:00:00
TRACK 16 AUDIO
TITLE "The River"
PERFORMER "Imagine Dragons"
INDEX 00 03:16:70
FILE "16 The River.wav" WAVE
INDEX 01 00:00:00
TRACK 17 AUDIO
TITLE "America"
PERFORMER "Imagine Dragons"
INDEX 00 03:24:02
FILE "17 America.wav" WAVE
INDEX 01 00:00:00
TRACK 18 AUDIO
TITLE "Selene"
PERFORMER "Imagine Dragons"
INDEX 00 04:32:51
FILE "18 Selene.wav" WAVE
INDEX 01 00:00:00
TRACK 19 AUDIO
TITLE "Cover Up"
PERFORMER "Imagine Dragons"
INDEX 00 03:59:61
FILE "19 Cover Up.wav" WAVE
INDEX 01 00:00:00
TRACK 20 AUDIO
TITLE "I Don't Mind"
PERFORMER "Imagine Dragons"
INDEX 00 04:18:42
FILE "20 I Don't Mind.wav" WAVE
INDEX 01 00:00:00

2014 - Demons (Remixes)

Лог проверки качества:

AUDIOCHECKER v2.0 beta (build 457) - by Dester - [email protected]
~~~~~~~~~~~~~~~~~~~~~~~~~~~~~~~~~~
-=== DO NOT EDIT THIS FILE! ===-
Путь: ...\2014 - Demons (Remixes)
1 -=- 01 Demons (Imagine Dragons Remix).flac -=- CDDA (100%)
2 -=- 02 Demons (KIDinaKORNER Remix).flac -=- CDDA (100%)
3 -=- 03 Demons (Acoustic Live In London).flac -=- CDDA (100%)
Сводка 100,00% CDDA
61303956

2014 - Radioactive (Remix)

Лог проверки качества:

AUDIOCHECKER v2.0 beta (build 457) - by Dester - [email protected]
~~~~~~~~~~~~~~~~~~~~~~~~~~~~~~~~~~
-=== DO NOT EDIT THIS FILE! ===-
Путь: ...\2014 - Radioactive - Remix
1 -=- 01 Radioactive ft. Kendrick Lamar.flac -=- CDDA (100%)
183581748

2015 - I Bet My Life (Remixes)

Лог проверки качества:

AUDIOCHECKER v2.0 beta (build 457) - by Dester - [email protected]
~~~~~~~~~~~~~~~~~~~~~~~~~~~~~~~~~~
-=== DO NOT EDIT THIS FILE! ===-
Путь: ...\2015 - I Bet My Life (Remixes)
1 -=- 01 I Bet My Life (Alex Adair Remix).flac -=- CDDA (100%)
2 -=- 02 I Bet My Life (Bastille Remix).flac -=- CDDA (100%)
3 -=- 03 I Bet My Life (Lost Kings Remix).flac -=- CDDA (100%)
4 -=- 04 I Bet My Life (Imagine Dragons Remix).flac -=- CDDA (100%)
Сводка 100,00% CDDA
180703636

2015 - Roots

Лог проверки качества:

AUDIOCHECKER v2.0 beta (build 457) - by Dester - [email protected]
~~~~~~~~~~~~~~~~~~~~~~~~~~~~~~~~~~
-=== НЕ РЕДАКТИРУЙТЕ ЭТОТ ФАЙЛ! ===-
Путь: ...\2015 - Roots - Single
1 -=- 01 Roots.flac -=- CDDA (100%)
210071812

2015 - Shots - EP

Лог проверки качества:

AUDIOCHECKER v2.0 beta (build 457) - by Dester - [email protected]
~~~~~~~~~~~~~~~~~~~~~~~~~~~~~~~~~~
-=== НЕ РЕДАКТИРУЙТЕ ЭТОТ ФАЙЛ! ===-
Путь: ...\2015 - Shots - EP
1 -=- 01 Shots (feat. Broiler).flac -=- CDDA (100%)
2 -=- 02 Shots (Astrolith Remix).flac -=- CDDA (99%)
3 -=- 03 Shots (Acoustic (Piano) Live From The Smith Center Las Vegas 2015).flac -=- CDDA (99%)
4 -=- 04 Shots (Broiler Extended Club Remix).flac -=- CDDA (100%)
Сводка 99,50% CDDA
250290548

2015 - Smoke + Mirrors

Диск 1

Лог создания рипа:

Exact Audio Copy V1.0 beta 3 from 29. August 2011
EAC extraction logfile from 27. February 2015, 21:11
Imagine Dragons / Smoke + Mirrors
Used drive : Optiarc DVD RW AD-7700H Adapter: 2 ID: 0
Read mode : Secure
Utilize accurate stream : Yes
Defeat audio cache : Yes
Make use of C2 pointers : No
Read offset correction : 48
Overread into Lead-In and Lead-Out : No
Fill up missing offset samples with silence : Yes
Delete leading and trailing silent blocks : No
Null samples used in CRC calculations : Yes
Used interface : Native Win32 interface for Win NT & 2000
Gap handling : Appended to previous track
Used output format : User Defined Encoder
Selected bitrate : 1024 kBit/s
Quality : High
Add ID3 tag : No
Command line compressor : D:\Exact Audio Copy\flac.exe
Additional command line options : -8 -V -T "ARTIST=%artist%" -T "TITLE=%title%" -T "ALBUM=%albumtitle%" -T "DATE=%year%" -T "TRACKNUMBER=%tracknr%" -T "GENRE=%genre%" -T "PERFORMER=%albuminterpret%" -T "COMPOSER=%composer%" %haslyrics%--tag-from-file=LYRICS="%lyricsfile%"%haslyrics% -T "ALBUMARTIST=%albumartist%" -T "DISCNUMBER=%cdnumber%" -T "TOTALDISCS=%totalcds%" -T "TOTALTRACKS=%numtracks%" -T "COMMENT=%comment%" %source% -o %dest%
TOC of the extracted CD
Track | Start | Length | Start sector | End sector
---------------------------------------------------------
1 | 0:00.00 | 3:52.25 | 0 | 17424
2 | 3:52.25 | 3:36.61 | 17425 | 33685
3 | 7:29.11 | 4:20.68 | 33686 | 53253
4 | 11:50.04 | 3:50.26 | 53254 | 70529
5 | 15:40.30 | 3:14.15 | 70530 | 85094
6 | 18:54.45 | 3:51.10 | 85095 | 102429
7 | 22:45.55 | 3:21.60 | 102430 | 117564
8 | 26:07.40 | 3:37.30 | 117565 | 133869
9 | 29:44.70 | 4:18.74 | 133870 | 153293
10 | 34:03.69 | 3:12.56 | 153294 | 167749
11 | 37:16.50 | 3:38.21 | 167750 | 184120
12 | 40:54.71 | 4:01.61 | 184121 | 202256
13 | 44:56.57 | 6:02.35 | 202257 | 229441
Track 1
Filename D:\Imagine Dragons - Smoke And Mirrors (2015) [FLAC]\Disc1\01 - Shots.wav
Pre-gap length 0:00:02.00
Peak level 98.8 %
Extraction speed 2.3 X
Track quality 100.0 %
Test CRC 20520B22
Copy CRC 20520B22
Track not present in AccurateRip database
Copy OK
Track 2
Filename D:\Imagine Dragons - Smoke And Mirrors (2015) [FLAC]\Disc1\02 - Gold.wav
Peak level 98.8 %
Extraction speed 1.7 X
Track quality 99.9 %
Test CRC 56BD4294
Copy CRC 56BD4294
Track not present in AccurateRip database
Copy OK
Track 3
Filename D:\Imagine Dragons - Smoke And Mirrors (2015) [FLAC]\Disc1\03 - Smoke And Mirrors.wav
Peak level 98.8 %
Extraction speed 2.0 X
Track quality 99.9 %
Test CRC 3A2EDF08
Copy CRC 3A2EDF08
Track not present in AccurateRip database
Copy OK
Track 4
Filename D:\Imagine Dragons - Smoke And Mirrors (2015) [FLAC]\Disc1\04 - I'm So Sorry.wav
Peak level 98.8 %
Extraction speed 2.9 X
Track quality 100.0 %
Test CRC F0592F48
Copy CRC F0592F48
Track not present in AccurateRip database
Copy OK
Track 5
Filename D:\Imagine Dragons - Smoke And Mirrors (2015) [FLAC]\Disc1\05 - I Bet My Life.wav
Peak level 98.8 %
Extraction speed 2.0 X
Track quality 99.9 %
Test CRC 8E9EE4EC
Copy CRC 8E9EE4EC
Track not present in AccurateRip database
Copy OK
Track 6
Filename D:\Imagine Dragons - Smoke And Mirrors (2015) [FLAC]\Disc1\06 - Polaroid.wav
Pre-gap length 0:00:01.50
Peak level 98.8 %
Extraction speed 3.2 X
Track quality 100.0 %
Test CRC 70D64628
Copy CRC 70D64628
Track not present in AccurateRip database
Copy OK
Track 7
Filename D:\Imagine Dragons - Smoke And Mirrors (2015) [FLAC]\Disc1\07 - Friction.wav
Pre-gap length 0:00:01.13
Peak level 98.8 %
Extraction speed 3.3 X
Track quality 100.0 %
Test CRC 6AF634E6
Copy CRC 6AF634E6
Track not present in AccurateRip database
Copy OK
Track 8
Filename D:\Imagine Dragons - Smoke And Mirrors (2015) [FLAC]\Disc1\08 - It Comes Back To You.wav
Peak level 98.8 %
Extraction speed 3.4 X
Track quality 100.0 %
Test CRC C9D56374
Copy CRC C9D56374
Track not present in AccurateRip database
Copy OK
Track 9
Filename D:\Imagine Dragons - Smoke And Mirrors (2015) [FLAC]\Disc1\09 - Dream.wav
Peak level 98.8 %
Extraction speed 3.7 X
Track quality 100.0 %
Test CRC FA120851
Copy CRC FA120851
Track not present in AccurateRip database
Copy OK
Track 10
Filename D:\Imagine Dragons - Smoke And Mirrors (2015) [FLAC]\Disc1\10 - Trouble.wav
Pre-gap length 0:00:01.00
Peak level 98.8 %
Extraction speed 3.7 X
Track quality 100.0 %
Test CRC 94AF912E
Copy CRC 94AF912E
Track not present in AccurateRip database
Copy OK
Track 11
Filename D:\Imagine Dragons - Smoke And Mirrors (2015) [FLAC]\Disc1\11 - Summer.wav
Pre-gap length 0:00:01.36
Peak level 98.8 %
Extraction speed 3.9 X
Track quality 100.0 %
Test CRC 67821E48
Copy CRC 67821E48
Track not present in AccurateRip database
Copy OK
Track 12
Filename D:\Imagine Dragons - Smoke And Mirrors (2015) [FLAC]\Disc1\12 - Hopeless Opus.wav
Peak level 98.8 %
Extraction speed 4.0 X
Track quality 100.0 %
Test CRC B31C90F2
Copy CRC B31C90F2
Track not present in AccurateRip database
Copy OK
Track 13
Filename D:\Imagine Dragons - Smoke And Mirrors (2015) [FLAC]\Disc1\13 - The Fall.wav
Pre-gap length 0:00:03.02
Peak level 98.8 %
Extraction speed 4.4 X
Track quality 100.0 %
Test CRC 2639D047
Copy CRC 2639D047
Track not present in AccurateRip database
Copy OK
None of the tracks are present in the AccurateRip database
No errors occurred
End of status report
---- CUETools DB Plugin V2.1.3
[CTDB TOCID: rob3M8dC9lu2QAY05YgWZG4F6BQ-] found, Submit result: database access error: 操作超时
[1735008f] (57/58) Accurately ripped
[51aaa5c9] (01/58) No match
==== Log checksum 2EF32B6C5F4820CD4C9D446D6E25BAFDA02110137E9CF9DC16795B26EA35685A ====

Содержание индексной карты (.CUE):

REM GENRE "Indie Rock"
REM DATE 2015
REM DISCID B90BF30D
REM COMMENT "ExactAudioCopy v1.0b3"
CATALOG 0602547161697
PERFORMER "Imagine Dragons"
TITLE "Smoke + Mirrors"
FILE "01 Shots.flac" WAVE
TRACK 01 AUDIO
TITLE "Shots"
PERFORMER "Imagine Dragons"
ISRC USUM71417944
INDEX 01 00:00:00
FILE "02 Gold.flac" WAVE
TRACK 02 AUDIO
TITLE "Gold"
PERFORMER "Imagine Dragons"
ISRC USUM71417914
INDEX 01 00:00:00
FILE "03 Smoke And Mirrors.flac" WAVE
TRACK 03 AUDIO
TITLE "Smoke And Mirrors"
PERFORMER "Imagine Dragons"
ISRC USUM71417930
INDEX 01 00:00:00
FILE "04 I'm So Sorry.flac" WAVE
TRACK 04 AUDIO
TITLE "I'm So Sorry"
PERFORMER "Imagine Dragons"
ISRC USUM71417931
INDEX 01 00:00:00
FILE "05 I Bet My Life.flac" WAVE
TRACK 05 AUDIO
TITLE "I Bet My Life"
PERFORMER "Imagine Dragons"
ISRC USUM71415785
INDEX 01 00:00:00
TRACK 06 AUDIO
TITLE "Polaroid"
PERFORMER "Imagine Dragons"
ISRC USUM71417932
INDEX 00 03:12:52
FILE "06 Polaroid.flac" WAVE
INDEX 01 00:00:00
TRACK 07 AUDIO
TITLE "Friction"
PERFORMER "Imagine Dragons"
ISRC USUM71417933
INDEX 00 03:50:00
FILE "07 Friction.flac" WAVE
INDEX 01 00:00:00
FILE "08 It Comes Back To You.flac" WAVE
TRACK 08 AUDIO
TITLE "It Comes Back To You"
PERFORMER "Imagine Dragons"
ISRC USUM71417934
INDEX 01 00:00:00
FILE "09 Dream.flac" WAVE
TRACK 09 AUDIO
TITLE "Dream"
PERFORMER "Imagine Dragons"
ISRC USUM71417935
INDEX 01 00:00:00
TRACK 10 AUDIO
TITLE "Trouble"
PERFORMER "Imagine Dragons"
ISRC USUM71417937
INDEX 00 04:17:74
FILE "10 Trouble.flac" WAVE
INDEX 01 00:00:00
TRACK 11 AUDIO
TITLE "Summer"
PERFORMER "Imagine Dragons"
ISRC USUM71417936
INDEX 00 03:11:29
FILE "11 Summer.flac" WAVE
INDEX 01 00:00:00
FILE "12 Hopeless Opus.flac" WAVE
TRACK 12 AUDIO
TITLE "Hopeless Opus"
PERFORMER "Imagine Dragons"
ISRC USUM71417938
INDEX 01 00:00:00
TRACK 13 AUDIO
TITLE "The Fall"
PERFORMER "Imagine Dragons"
ISRC USUM71417939
INDEX 00 03:58:59
FILE "13 The Fall.flac" WAVE
INDEX 01 00:00:00
Диск 2

Лог создания рипа:

Exact Audio Copy V1.0 beta 3 from 29. August 2011
EAC extraction logfile from 27. February 2015, 21:39
Imagine Dragons / Smoke + Mirrors
Used drive : Optiarc DVD RW AD-7700H Adapter: 2 ID: 0
Read mode : Secure
Utilize accurate stream : Yes
Defeat audio cache : Yes
Make use of C2 pointers : No
Read offset correction : 48
Overread into Lead-In and Lead-Out : No
Fill up missing offset samples with silence : Yes
Delete leading and trailing silent blocks : No
Null samples used in CRC calculations : Yes
Used interface : Native Win32 interface for Win NT & 2000
Gap handling : Appended to previous track
Used output format : User Defined Encoder
Selected bitrate : 1024 kBit/s
Quality : High
Add ID3 tag : No
Command line compressor : D:\Exact Audio Copy\flac.exe
Additional command line options : -8 -V -T "ARTIST=%artist%" -T "TITLE=%title%" -T "ALBUM=%albumtitle%" -T "DATE=%year%" -T "TRACKNUMBER=%tracknr%" -T "GENRE=%genre%" -T "PERFORMER=%albuminterpret%" -T "COMPOSER=%composer%" %haslyrics%--tag-from-file=LYRICS="%lyricsfile%"%haslyrics% -T "ALBUMARTIST=%albumartist%" -T "DISCNUMBER=%cdnumber%" -T "TOTALDISCS=%totalcds%" -T "TOTALTRACKS=%numtracks%" -T "COMMENT=%comment%" %source% -o %dest%
TOC of the extracted CD
Track | Start | Length | Start sector | End sector
---------------------------------------------------------
1 | 0:00.00 | 3:47.47 | 0 | 17071
2 | 3:47.47 | 3:24.53 | 17072 | 32424
3 | 7:12.25 | 3:37.70 | 32425 | 48769
4 | 10:50.20 | 2:29.17 | 48770 | 59961
5 | 13:19.37 | 2:51.06 | 59962 | 72792
6 | 16:10.43 | 4:34.23 | 72793 | 93365
7 | 20:44.66 | 4:10.38 | 93366 | 112153
8 | 24:55.29 | 4:09.44 | 112154 | 130872
Track 1
Filename D:\Imagine Dragons - Smoke And Mirrors (2015) [FLAC]\Disc2\01 - Thief.wav
Pre-gap length 0:00:02.00
Peak level 98.8 %
Extraction speed 2.2 X
Track quality 100.0 %
Test CRC 4681ECC3
Copy CRC 4681ECC3
Track not present in AccurateRip database
Copy OK
Track 2
Filename D:\Imagine Dragons - Smoke And Mirrors (2015) [FLAC]\Disc2\02 - The Unknown.wav
Peak level 98.8 %
Extraction speed 2.4 X
Track quality 100.0 %
Test CRC 1D19678D
Copy CRC 1D19678D
Track not present in AccurateRip database
Copy OK
Track 3
Filename D:\Imagine Dragons - Smoke And Mirrors (2015) [FLAC]\Disc2\03 - Second Chances.wav
Peak level 98.8 %
Extraction speed 2.7 X
Track quality 100.0 %
Test CRC F78DF155
Copy CRC F78DF155
Track not present in AccurateRip database
Copy OK
Track 4
Filename D:\Imagine Dragons - Smoke And Mirrors (2015) [FLAC]\Disc2\04 - Release.wav
Peak level 85.1 %
Extraction speed 2.6 X
Track quality 100.0 %
Test CRC 03276BE7
Copy CRC 03276BE7
Track not present in AccurateRip database
Copy OK
Track 5
Filename D:\Imagine Dragons - Smoke And Mirrors (2015) [FLAC]\Disc2\05 - Warriors.wav
Peak level 100.0 %
Extraction speed 2.8 X
Track quality 100.0 %
Test CRC A0C10ACE
Copy CRC A0C10ACE
Track not present in AccurateRip database
Copy OK
Track 6
Filename D:\Imagine Dragons - Smoke And Mirrors (2015) [FLAC]\Disc2\06 - Battle Cry.wav
Peak level 98.8 %
Extraction speed 3.2 X
Track quality 100.0 %
Test CRC 7AF6E7CF
Copy CRC 7AF6E7CF
Track not present in AccurateRip database
Copy OK
Track 7
Filename D:\Imagine Dragons - Smoke And Mirrors (2015) [FLAC]\Disc2\07 - Monster.wav
Peak level 98.8 %
Extraction speed 3.4 X
Track quality 100.0 %
Test CRC 6C63E94F
Copy CRC 6C63E94F
Track not present in AccurateRip database
Copy OK
Track 8
Filename D:\Imagine Dragons - Smoke And Mirrors (2015) [FLAC]\Disc2\08 - Who We Are.wav
Peak level 100.0 %
Extraction speed 3.5 X
Track quality 100.0 %
Test CRC 21D3CB45
Copy CRC 21D3CB45
Track not present in AccurateRip database
Copy OK
None of the tracks are present in the AccurateRip database
No errors occurred
End of status report
---- CUETools DB Plugin V2.1.3
[CTDB TOCID: EEtaPSlvDWukB_lHR5iRo38Q9ZA-] found, Submit result: EEtaPSlvDWukB_lHR5iRo38Q9ZA- has been confirmed
[6439a5ea] (18/18) Accurately ripped
==== Log checksum ACA13F117FC36635C05662265060082EF0DA812D6BC52785FE40F026DACC5A19 ====

Содержание индексной карты (.CUE):

REM GENRE "Indie Rock"
REM DATE 2015
REM DISCID 6406D008
REM COMMENT "ExactAudioCopy v1.0b3"
CATALOG 0602547186683
PERFORMER "Imagine Dragons"
TITLE "Smoke + Mirrors"
FILE "01 Thief.flac" WAVE
TRACK 01 AUDIO
TITLE "Thief"
PERFORMER "Imagine Dragons"
ISRC USUM71417941
INDEX 01 00:00:00
FILE "02 The Unknown.flac" WAVE
TRACK 02 AUDIO
TITLE "The Unknown"
PERFORMER "Imagine Dragons"
ISRC USUM71417940
INDEX 01 00:00:00
FILE "03 Second Chances.flac" WAVE
TRACK 03 AUDIO
TITLE "Second Chances"
PERFORMER "Imagine Dragons"
ISRC USUM71417943
INDEX 01 00:00:00
FILE "04 Release.flac" WAVE
TRACK 04 AUDIO
TITLE "Release"
PERFORMER "Imagine Dragons"
ISRC USUM71417942
INDEX 01 00:00:00
FILE "05 Warriors.flac" WAVE
TRACK 05 AUDIO
TITLE "Warriors"
PERFORMER "Imagine Dragons"
ISRC USUM71414163
INDEX 01 00:00:00
FILE "06 Battle Cry.flac" WAVE
TRACK 06 AUDIO
TITLE "Battle Cry"
PERFORMER "Imagine Dragons"
ISRC USUM71406333
INDEX 01 00:00:00
INDEX 02 04:34:23
FILE "07 Monster.flac" WAVE
TRACK 07 AUDIO
TITLE "Monster"
PERFORMER "Imagine Dragons"
ISRC USUM71311709
INDEX 01 00:00:00
FILE "08 Who We Are.flac" WAVE
TRACK 08 AUDIO
TITLE "Who We Are"
PERFORMER "Imagine Dragons"
ISRC USUM71312917
INDEX 01 00:00:00

2016 - Sucker for Pain - Single

Лог проверка качества:

AUDIOCHECKER v2.0 beta (build 457) - by Dester - [email protected]
~~~~~~~~~~~~~~~~~~~~~~~~~~~~~~~~~~
-=== DO NOT EDIT THIS FILE! ===-
Path: ...\2016 - Sucker for Pain - Single
1 -=- 01 Sucker for Pain (with Logic, Ty Dolla $ign & X Ambassadors).flac -=- CDDA (99%)
265353076

2017 - Evolve (Deluxe Edition)

Лог создания рипа:

Exact Audio Copy V1.3 from 2. September 2016
EAC extraction logfile from 27. June 2017, 11:00
Imagine Dragons / Evolve
Used drive : HL-DT-STDVDRAM GH24NSD1 Adapter: 1 ID: 0
Read mode : Secure
Utilize accurate stream : Yes
Defeat audio cache : Yes
Make use of C2 pointers : No
Read offset correction : 6
Overread into Lead-In and Lead-Out : No
Fill up missing offset samples with silence : Yes
Delete leading and trailing silent blocks : No
Null samples used in CRC calculations : Yes
Used interface : Native Win32 interface for Win NT & 2000
Gap handling : Appended to previous track
Used output format : User Defined Encoder
Selected bitrate : 1024 kBit/s
Quality : High
Add ID3 tag : No
Command line compressor : C:\Program Files (x86)\Exact Audio Copy\Flac\flac.exe
Additional command line options : -8 -e -p -V -T "ARTIST=%artist%" -T "TITLE=%title%" -T "ALBUM=%albumtitle%" -T "DATE=%year%" -T "TRACKNUMBER=%tracknr%" -T "GENRE=%genre%" -T "PERFORMER=%albuminterpret%" -T "COMPOSER=%composer%" %haslyrics%--tag-from-file=LYRICS="%lyricsfile%"%haslyrics% -T "ALBUMARTIST=%albumartist%" -T "DISCNUMBER=%cdnumber%" -T "TOTALDISCS=%totalcds%" -T "TOTALTRACKS=%numtracks%" -T "COMMENT=%comment%" %source% -o %dest%
TOC of the extracted CD
Track | Start | Length | Start sector | End sector
---------------------------------------------------------
1 | 0:00.00 | 3:10.09 | 0 | 14258
2 | 3:10.09 | 3:21.18 | 14259 | 29351
3 | 6:31.27 | 3:24.26 | 29352 | 44677
4 | 9:55.53 | 3:52.68 | 44678 | 62145
5 | 13:48.46 | 3:51.54 | 62146 | 79524
6 | 17:40.25 | 4:22.45 | 79525 | 99219
7 | 22:02.70 | 3:25.09 | 99220 | 114603
8 | 25:28.04 | 3:41.42 | 114604 | 131220
9 | 29:09.46 | 3:07.11 | 131221 | 145256
10 | 32:16.57 | 3:06.06 | 145257 | 159212
11 | 35:22.63 | 3:55.32 | 159213 | 176869
12 | 39:18.20 | 3:18.13 | 176870 | 191732
13 | 42:36.33 | 4:20.47 | 191733 | 211279
14 | 46:57.05 | 3:10.67 | 211280 | 225596
Track 1
Filename D:\Incoming\Extraction\01 - I Don't Know Why.wav
Pre-gap length 0:00:02.00
Peak level 99.8 %
Extraction speed 4.5 X
Track quality 100.0 %
Test CRC D7E54400
Copy CRC D7E54400
Track not present in AccurateRip database
Copy OK
Track 2
Filename D:\Incoming\Extraction\02 - Whatever It Takes.wav
Peak level 99.8 %
Extraction speed 4.9 X
Track quality 100.0 %
Test CRC F68E3CAF
Copy CRC F68E3CAF
Track not present in AccurateRip database
Copy OK
Track 3
Filename D:\Incoming\Extraction\03 - Believer.wav
Peak level 99.8 %
Extraction speed 5.2 X
Track quality 100.0 %
Test CRC 6FF9479A
Copy CRC 6FF9479A
Track not present in AccurateRip database
Copy OK
Track 4
Filename D:\Incoming\Extraction\04 - Walking the Wire.wav
Peak level 99.8 %
Extraction speed 5.6 X
Track quality 100.0 %
Test CRC D63291FC
Copy CRC D63291FC
Track not present in AccurateRip database
Copy OK
Track 5
Filename D:\Incoming\Extraction\05 - Rise Up.wav
Peak level 99.8 %
Extraction speed 5.3 X
Track quality 99.9 %
Test CRC CE584470
Copy CRC CE584470
Track not present in AccurateRip database
Copy OK
Track 6
Filename D:\Incoming\Extraction\06 - I'll Make It Up to You.wav
Peak level 94.4 %
Extraction speed 5.8 X
Track quality 99.9 %
Test CRC B66282EB
Copy CRC B66282EB
Track not present in AccurateRip database
Copy OK
Track 7
Filename D:\Incoming\Extraction\07 - Yesterday.wav
Peak level 99.8 %
Extraction speed 6.6 X
Track quality 100.0 %
Test CRC 7B382CDD
Copy CRC 7B382CDD
Track not present in AccurateRip database
Copy OK
Track 8
Filename D:\Incoming\Extraction\08 - Mouth of the River.wav
Peak level 98.9 %
Extraction speed 6.9 X
Track quality 100.0 %
Test CRC A346D632
Copy CRC A346D632
Track not present in AccurateRip database
Copy OK
Track 9
Filename D:\Incoming\Extraction\09 - Thunder.wav
Peak level 89.9 %
Extraction speed 6.8 X
Track quality 100.0 %
Test CRC 903C072A
Copy CRC 903C072A
Track not present in AccurateRip database
Copy OK
Track 10
Filename D:\Incoming\Extraction\10 - Start Over.wav
Peak level 99.8 %
Extraction speed 7.1 X
Track quality 100.0 %
Test CRC A459CEDC
Copy CRC A459CEDC
Track not present in AccurateRip database
Copy OK
Track 11
Filename D:\Incoming\Extraction\11 - Dancing in the Dark.wav
Peak level 89.3 %
Extraction speed 7.4 X
Track quality 100.0 %
Test CRC 12E36181
Copy CRC 12E36181
Track not present in AccurateRip database
Copy OK
Track 12
Filename D:\Incoming\Extraction\12 - Levitate.wav
Peak level 100.0 %
Extraction speed 6.5 X
Track quality 99.9 %
Test CRC D38DEDAB
Copy CRC D38DEDAB
Track not present in AccurateRip database
Copy OK
Track 13
Filename D:\Incoming\Extraction\13 - Not Today.wav
Peak level 94.3 %
Extraction speed 7.1 X
Track quality 99.9 %
Test CRC FF351153
Copy CRC FF351153
Track not present in AccurateRip database
Copy OK
Track 14
Filename D:\Incoming\Extraction\14 - Believer (Kaskade Remix).wav
Peak level 100.0 %
Extraction speed 6.7 X
Track quality 99.9 %
Test CRC B2ADC8F7
Copy CRC B2ADC8F7
Track not present in AccurateRip database
Copy OK
None of the tracks are present in the AccurateRip database
No errors occurred
End of status report
---- CUETools DB Plugin V2.1.6
[CTDB TOCID: 1aSrdTBOaKPUnApgUjgk4N98EEU-] found
Submit result: 1aSrdTBOaKPUnApgUjgk4N98EEU- has been confirmed
Track | CTDB Status
1 | (18/18) Accurately ripped
2 | (18/18) Accurately ripped
3 | (18/18) Accurately ripped
4 | (18/18) Accurately ripped
5 | (18/18) Accurately ripped
6 | (18/18) Accurately ripped
7 | (17/18) Accurately ripped
8 | (17/18) Accurately ripped
9 | (17/18) Accurately ripped
10 | (17/18) Accurately ripped
11 | (17/18) Accurately ripped
12 | (17/18) Accurately ripped
13 | (17/18) Accurately ripped
14 | (17/18) Accurately ripped
==== Log checksum AD29E035159458327FA61F3B90EE669AADF9F9A7E1EC60B65319DB8557A95BC7 ====

Содержание индексной карты (.CUE):

REM DATE 2017
REM DISCID B80BBF0E
PERFORMER "Imagine Dragons"
TITLE "Evolve (Deluxe Edition)"
REM COMPOSER ""
REM DISCNUMBER 1
REM TOTALDISCS 1
FILE "01 I Don't Know Why.flac" WAVE
TRACK 01 AUDIO
TITLE "I Don't Know Why"
PERFORMER "Imagine Dragons"
REM COMPOSER ""
INDEX 01 00:00:00
FILE "02 Whatever It Takes.flac" WAVE
TRACK 02 AUDIO
TITLE "Whatever It Takes"
PERFORMER "Imagine Dragons"
REM COMPOSER ""
INDEX 01 00:00:00
FILE "03 Believer.flac" WAVE
TRACK 03 AUDIO
TITLE "Believer"
PERFORMER "Imagine Dragons"
REM COMPOSER ""
INDEX 01 00:00:00
FILE "04 Walking the Wire.flac" WAVE
TRACK 04 AUDIO
TITLE "Walking the Wire"
PERFORMER "Imagine Dragons"
REM COMPOSER ""
INDEX 01 00:00:00
FILE "05 Rise Up.flac" WAVE
TRACK 05 AUDIO
TITLE "Rise Up"
PERFORMER "Imagine Dragons"
REM COMPOSER ""
INDEX 01 00:00:00
FILE "06 I'll Make It Up to You.flac" WAVE
TRACK 06 AUDIO
TITLE "I'll Make It Up to You"
PERFORMER "Imagine Dragons"
REM COMPOSER ""
INDEX 01 00:00:00
FILE "07 Yesterday.flac" WAVE
TRACK 07 AUDIO
TITLE "Yesterday"
PERFORMER "Imagine Dragons"
REM COMPOSER ""
INDEX 01 00:00:00
FILE "08 Mouth of the River.flac" WAVE
TRACK 08 AUDIO
TITLE "Mouth of the River"
PERFORMER "Imagine Dragons"
REM COMPOSER ""
INDEX 01 00:00:00
FILE "09 Thunder.flac" WAVE
TRACK 09 AUDIO
TITLE "Thunder"
PERFORMER "Imagine Dragons"
REM COMPOSER ""
INDEX 01 00:00:00
FILE "10 Start Over.flac" WAVE
TRACK 10 AUDIO
TITLE "Start Over"
PERFORMER "Imagine Dragons"
REM COMPOSER ""
INDEX 01 00:00:00
FILE "11 Dancing in the Dark.flac" WAVE
TRACK 11 AUDIO
TITLE "Dancing in the Dark"
PERFORMER "Imagine Dragons"
REM COMPOSER ""
INDEX 01 00:00:00
FILE "12 Levitate.flac" WAVE
TRACK 12 AUDIO
TITLE "Levitate"
PERFORMER "Imagine Dragons"
REM COMPOSER ""
INDEX 01 00:00:00
FILE "13 Not Today.flac" WAVE
TRACK 13 AUDIO
TITLE "Not Today"
PERFORMER "Imagine Dragons"
REM COMPOSER ""
INDEX 01 00:00:00
FILE "14 Believer (Kaskade Remix).flac" WAVE
TRACK 14 AUDIO
TITLE "Believer (Kaskade Remix)"
PERFORMER "Imagine Dragons"
REM COMPOSER ""
INDEX 01 00:00:00

Доп.информация

Imagine Dragons — американская инди-рок-группа, образованная в Лас-Вегасе, штат Невада в 2008 году. Стали известны после выпуска дебютного студийного альбома Night Visions в сентябре 2012 года. Американский журнал Billboard назвал их самыми яркими новыми звёздами 2013 года, а журнал Rolling Stone назвал их сингл «Radioactive» самым большим рок-хитом года
Формирование группы (2008—2012)
Imagine Dragons — инди-рок-группа, в состав которой входят четыре человека. Была основана в Лас-Вегасе в 2008 году. Название группы представляет собой анаграмму, значение которой знают лишь Дэн, Бен, Уэйн и Дэниэл. История группы началась с того, что Дэн Рейнольдс привлёк для участия в собственной группе своего друга Уэйна Сермона, который отлично играл на гитаре. Группа быстро набирала популярность. А уже в Лас-Вегасе к Дэну и Уэйну присоединились басист Бен МакКи и барабанщик Дэниэл Платцман, друзья Сермона.
В начале 2009-го ребята приступают к работе в студии. И уже 1 февраля выпускают свой первый EP Imagine Dragons. А 1 апреля следующего года свет увидел их EP Hell and Silence (в записи участвовал номинант «Грэмми» Марк Нидхэм). Оба EP были записаны в звукозаписывающей студии Battle Born Studios. Вскоре им было предложено выступить на ежегодном фестивале Bite of Las Vegas, как «Самая востребованная группа 2010» на местном 107.9FM. Они были выбраны хедлайнерами на фестивале Vegas Music Summit, а Лас Вегас CityLife назвал их «Группой, которую необходимо увидеть вживую», они стали «Лучшей инди группой 2010 года» по мнению Las Vegas Weekly, и были удостоены премии «Лучшая пластинка 2011 года» от журнала Vegas Seven. В ноябре 2011 года Imagine Dragons подписали контракт с американским звукозаписывающим лейблом Interscope Records. Они тесно сотрудничали с продюсером Алексом Да Кидом, с которым они и записали свой первый диск в Уэст-Голливуде. Их EP был назван Continued Silence и выпущен 14 февраля 2012 года. К выпуску своего дебютного альбома Imagine Dragons готовились очень тщательно.
«Выпуская серию EP, мы прощупывали почву. Нам хотелось, чтобы наш дебютный альбом был удачным», — признался в одном интервью Уэйн.
Night Visions (2012—2014)
4 сентября 2012 года вышел первый полноценный альбом группы — Night Visions. Он достиг 2 позиции в чарте Billboard 200. Сингл «It’s Time» занял 22-ю строчку в Billboard Hot 100, 4-ю в Billboard Alternative и в Billboard Rock, а позднее стал платиновым.
В преддверии выхода альбома группа выпустила ряд синглов для других проектов, включая саундтреки «Who We Are» к фильму «Голодные игры: И вспыхнет пламя» и «Battle Cry» к фильму «Трансформеры: Эпоха истребления», а также песню «Warriors», приуроченную к Чемпионату мира по игре League of Legends. В фильме «Трансформеры: Эпоха истребления» прозвучала также демозапись «All for You».
Smoke + Mirrors (2015—2016)
В сентябре 2014 года группа выпустила сингл «I Bet My Life», а в ноябре сняла на него клип. В декабре вышел второй сингл — «Gold». Вскоре состоялся анонс альбома, который был выпущен 17 февраля 2015 года. Он был назван «Smoke + Mirrors». В поддержку альбома состоялся мировой тур Smoke and Mirrors World Tour, в котором группа посетила Россию. 24 января 2016 года Imagine Dragons выступили в СК Олимпийский в Москве, а 26 января в Ледовом дворце Санкт Петербурга. Помимо этого, группа записала фильм Smoke+Mirrors Live, который был показан 2 марта 2016 года в кинотеатрах по всему миру.
В ноябре 2016 года группа подтвердила слухи о написании третьего студийного альбома, также выпустив сингл «Levitate», который вошел в список саундтреков фильма «Пассажиры».
Evolve (2017—настоящее время)
8 мая 2017 года группа анонсировала выход нового альбома. Релиз альбома Evolve (название стилизовано как ƎVOLVE) состоялся 23 июня 2017 года.
Состав
Текущие участники
Дэн Рейнольдс — вокал, кахон, бас-барабан, малый барабан, акустическая гитара (2008 — настоящее время)
Бен МакКи — бас-гитара, бэк-вокал, клавишные, акустическая бас-гитара, электрическая мандолина, бас-барабан (2009 — настоящее время)
Уэйн Сермон — гитара, электрическая мандолина, альт, бэк-вокал, том-том, акустическая гитара, бас-барабан (2009— настоящее время)
Дэн Платцман[en] — ударные, виолончель, альт, бэк-вокал, кахон, акустическая гитара, малый барабан, скрипка (2011 — настоящее время)
Бывшие участники
Эндрю Толмэн — Ударная установка, вокал (2008—2011)
Бриттани Толмэн — пианино, вокал (2009—2011)
Тереза Фламинио[en] — клавишные (2011—2012)
Аврора Флоренс — клавишные, вокал, скрипка (2008)
Дэйв Лэмк — бас-гитара, вокал (2008—2009)
Эндрю Бэк — электро-гитара, вокал (2008)
Участники турне
Райан Уокер — клавиши, электрогитара, малый барабан, бэк-вокал, акустическая гитара, электрическая мандолина, синтезатор, бас-барабан, цимбалы (2011—2015)
Уильям Уэллс (2015—2017)
Эллиот Шварцман (2017—н. в.)
- -

_________________
Вне форума [Профиль] [ЛС]
Показать сообщения:    
Ответить на тему

Текущее время: Сегодня 03:20

Часовой пояс: GMT + 3



Вы не можете начинать темы
Вы не можете отвечать на сообщения
Вы не можете редактировать свои сообщения
Вы не можете удалять свои сообщения
Вы не можете голосовать в опросах
Вы не можете прикреплять файлы к сообщениям
Вы не можете скачивать файлы