Today is a free download without charge Download

Сергей Лапко | Колодец - своими руками (2016) WEB-DLRip [H.264/720p-LQ]

Reply to topic
 
Author
Message

}{@R0N ®

Longevity: 4 years 10 months

Posts: 7662

Торрент-статистика

Post 20-Sep-2017 14:28

[Quote]

Колодец - своими руками - Автор (режиссер): Сергей Лапко
Жанр: строительство
Описание:
В курсе описана технология копки колодца c постепенным погружением бетонной опалубки. Существенное отличие описанного способа от стандартных методик заключается в том, что для колодца не используются недешёвые промышленные бетонные кольца.
Эта технология позволяет получить бесшовную бетонную трубу, что исключает любые протечки верховых вод и предохраняет колодец от загрязнения.
По сути, колодец делается с помощью минимального и доступного набора средств. На все материалы для изготовления колодца глубиной 4,5 метра вы потратите не более 5000 р.
Продолжительность: 01:41:59
Качество видео: WEB-DLRip
Видео: AVC/H.264, 1280х720, ~1965 Kbps
Аудио: AAC, 2 ch, 53,6 Kbps

Mediainfo:

Общее
Полное имя : \Video\2. Делаем хомуты.mp4
Формат : MPEG-4
Профиль формата : Base Media / Version 2
Идентификатор кодека : mp42 (M4V /mp42/isom)
Размер файла : 98,8 Мбайт
Продолжительность : 6 м. 49 с.
Общий поток : 2021 Кбит/сек
Дата кодирования : UTC 2016-09-21 07:29:18
Дата пометки : UTC 2016-09-21 07:29:18
Видео
Идентификатор : 1
Формат : AVC
Формат/Информация : Advanced Video Codec
Профиль формата : [url=mailto:[email protected]][email protected][/url]
Параметр CABAC формата : Да
Параметр ReFrames формата : 4 кадра
Параметр GOP формата : M=1, N=125
Идентификатор кодека : avc1
Идентификатор кодека/Информация : Advanced Video Coding
Продолжительность : 6 м. 49 с.
Продолжительность оригинала : 6 м. 49 с.
Битрейт : 1965 Кбит/сек
Ширина : 1280 пикселей
Высота : 720 пикселей
Соотношение сторон : 16:9
Режим частоты кадров : Постоянный
Частота кадров : 25,000 кадров/сек
Стандарт вещания : PAL
Цветовое пространство : YUV
Субдискретизация насыщенности : 4:2:0
Битовая глубина : 8 бит
Тип развёртки : Прогрессивная
Бит/(Пиксели*Кадры) : 0.085
Размер потока : 96,0 Мбайт (97%)
Размер потока оригинала : 96,0 Мбайт (97%)
Язык : English
Дата кодирования : UTC 2016-09-21 07:29:18
Дата пометки : UTC 2016-09-21 07:29:18
Цветовой диапазон : Limited
Основные цвета : BT.709
Характеристики трансфера : BT.709
Коэффициенты матрицы : BT.709
mdhd_Duration : 409934
Аудио
Идентификатор : 2
Формат : AAC
Формат/Информация : Advanced Audio Codec
Профиль формата : LC
Идентификатор кодека : 40
Продолжительность : 6 м. 49 с.
Продолжительность оригинала : 6 м. 49 с.
Вид битрейта : Постоянный
Битрейт : 53,6 Кбит/сек
Каналы : 2 канала
Расположение каналов : Front: L R
Частота : 44,1 КГц
Частота кадров : 43,066 кадра/сек (1024 spf)
Метод сжатия : С потерями
Размер потока : 2,62 Мбайт (3%)
Размер потока оригинала : 2,62 Мбайт (3%)
Язык : English
Дата кодирования : UTC 2016-09-21 07:29:18
Дата пометки : UTC 2016-09-21 07:29:18
mdhd_Duration : 409963

Дополнительная информация:

В курс включены:
-14 видео, на которых последовательно показан процесс сооружения колодца;
-Текстовый файл в формате pdf с необходимыми чертежами и пояснениями.
Скриншоты:
       
Other forum [Profile] [PM]
Similar theme
Forum Topic Author Torrent Replies Last Post
./templates/default/images/folder_dl.gif Приключения, детектив, боевик, триллер Сергей Макаров | Полигон призрак (2015) [MP3] Omen
0 | 1

0 | 2027

9

2015-08-31 22:57
Omen Latest
./templates/default/images/folder_dl.gif Медицина и Здоровье Сергей Макеев | Остеохондроз и боль в спине. Йога бытовых движений (2017) [FB2, EPUB] }{@R0N
1 | 0

0 | 11010

10

2017-10-05 21:26
}{@R0N Latest
./templates/default/images/folder_dl.gif Медицина и Здоровье Сергей Бубновский | Здоровье без лекарств: о чем молчат врачи. Перезагрузка: как повысить качество жизни (2018) [PDF] }{@R0N
1 | 0

0 | 1523

17

2018-05-01 19:19
}{@R0N Latest
./templates/default/images/folder_dl.gif Медицина и Здоровье Сергей Бубновский | Атлас здоровья позвоночника и суставов (2018) [PDF] }{@R0N
1 | 0

0 | 1066

2

2019-03-28 22:34
}{@R0N Latest
./templates/default/images/folder_dl.gif Фантастика, фэнтези, ужасы, мистика Сергей Лукьяненко | Порог (2019) [FB2] }{@R0N
1 | 0

0 | 1263

1

2019-06-22 10:57
}{@R0N Latest
./templates/default/images/folder_dl.gif Отечественные cериалы Ментовские войны (Егор Абросимов, Алексей Богданов, Алан Дзоциев, Сергей Раевский) (Сезон 01–11 + 2 Эпилога + 4 фильма) [2004–2018, криминал, боевик, детектив, SATRip] DED
1 | 0

0 | 681

0

2020-03-02 16:37
DED Latest
Display posts from previous:    
Reply to topic

The time now is: Today 23:13

All times are GMT + 3 Hours



You cannot post new topics in this forum
You cannot reply to topics in this forum
You cannot edit your posts in this forum
You cannot delete your posts in this forum
You cannot vote in polls in this forum
You cannot attach files in this forum
You cannot download files in this forum