Today is a free download without charge Download

Михаил Теремков | Угловой диван своими руками (2017) WEB-DLRip [H.264/1080p-LQ]

Reply to topic
 
Author
Message

}{@R0N ®

Longevity: 5 years 10 months

Posts: 7664

Торрент-статистика

Post 20-Sep-2017 14:44

[Quote]

Михаил Теремков
Угловой диван своими руками
- Автор (режиссер): Михаил Теремков
Жанр: Мебель, проектирование и изготовление
Описание:
Представляем вашему вниманию новый видеокурс Михаила Теремкова по изготовлению углового дивана своими руками в домашних условиях.
Себестоимость такого дивана из качественной «экокожи» составляет 16500 рублей. Используя ткань подешевле, можно добиться снижения себестоимости до 15000 рублей.
Продолжительность: 03:35:09
Качество видео: WEB-DLRip
Видео: AVC/H.264, 1920x1080, ~1946 Kbps
Аудио: AAC, 2 ch, 140 Kbps

Mediainfo:

Общее
Полное имя : \Угловой диван своими руками\1 Инструменты.mp4
Формат : MPEG-4
Профиль формата : Base Media
Идентификатор кодека : isom (isom/iso2/avc1/mp41)
Размер файла : 58,3 Мбайт
Продолжительность : 3 м. 53 с.
Общий поток : 2091 Кбит/сек
Программа кодирования : Lavf57.21.100
Видео
Идентификатор : 1
Формат : AVC
Формат/Информация : Advanced Video Codec
Профиль формата : [email protected]
Параметр CABAC формата : Да
Параметр ReFrames формата : 4 кадра
Идентификатор кодека : avc1
Идентификатор кодека/Информация : Advanced Video Coding
Продолжительность : 3 м. 53 с.
Битрейт : 1946 Кбит/сек
Ширина : 1920 пикселей
Высота : 1080 пикселей
Соотношение сторон : 16:9
Режим частоты кадров : Постоянный
Частота кадров : 25,000 кадров/сек
Цветовое пространство : YUV
Субдискретизация насыщенности : 4:2:0
Битовая глубина : 8 бит
Тип развёртки : Прогрессивная
Бит/(Пиксели*Кадры) : 0.038
Размер потока : 54,2 Мбайт (93%)
Библиотека кодирования : x264 core 148 r2638 7599210
Настройки программы : cabac=1 / ref=3 / deblock=1:0:0 / analyse=0x3:0x113 / me=hex / subme=7 / psy=1 / psy_rd=1.00:0.00 / mixed_ref=1 / me_range=16 / chroma_me=1 / trellis=1 / 8x8dct=1 / cqm=0 / deadzone=21,11 / fast_pskip=1 / chroma_qp_offset=-2 / threads=6 / lookahead_threads=1 / sliced_threads=0 / nr=0 / decimate=1 / interlaced=0 / bluray_compat=0 / constrained_intra=0 / bframes=3 / b_pyramid=2 / b_adapt=1 / b_bias=0 / direct=1 / weightb=1 / open_gop=0 / weightp=2 / keyint=250 / keyint_min=25 / scenecut=40 / intra_refresh=0 / rc_lookahead=40 / rc=crf / mbtree=1 / crf=23.0 / qcomp=0.60 / qpmin=0 / qpmax=69 / qpstep=4 / ip_ratio=1.40 / aq=1:1.00
Аудио
Идентификатор : 2
Формат : AAC
Формат/Информация : Advanced Audio Codec
Профиль формата : LC
Идентификатор кодека : 40
Продолжительность : 3 м. 53 с.
Вид битрейта : Постоянный
Битрейт : 140 Кбит/сек
Каналы : 2 канала
Channel(s)_Original : 1 канал
Расположение каналов : Front: C
Частота : 48,0 КГц
Частота кадров : 46,875 кадров/сек (1024 spf)
Метод сжатия : С потерями
Размер потока : 3,90 Мбайт (7%)
Default : Да
Alternate group : 1

Дополнительная информация:

-13 пошаговых видеоуроков (210 минут) от сборки каркаса до шитья чехла.
-Подробная документация в формате PDF.
-Смотрите на компьютерах Windows и Mac.
-Адаптировано для домашнего изготовления.
-7 дней на изготовление для новичков.
-Только простой инструмент и доступные всем материалы и фурнитура.
-Прочный и экологичный каркас, проверенный 20 годами эксплуатации.
-Трансформируется в удобную кровать и имеет ящик для белья.
-Возможность изменить размеры дивана под свои нужды.
Прилагается подробная деталировка в формате pdf, на 10 листах

Список видеоуроков

Список видеоуроков:
1 Инструменты
2 Материалы и фурнитура
3 Сборка каркаса, механизмы
4 Пошив чехла для спинки*
5 Разметка утяжек, изготовление элемента с утяжками
6 Оформление нижней лицевой части
7 Крепление частей между собой
8 Изготовление подушек
9 Делаем бельевую тумбу
10 Делаем подлокотники
11 Делаем сидушку основания дивана
12 Про швейные машинки и мебельные швы*
13 Заключение
Скриншоты:
       


Last edited by }{@R0N on 2021-09-06 21:47; edited 1 time in total
Other forum [Profile] [PM]

Lingvooooo

Longevity: 21 day

Posts: 1

Торрент-статистика

Post 07-Sep-2021 19:34 (after 3 years 11 months)

[Quote]

Раздайте пожалуйста, очень надо
13 hours 41 minute 25 seconds:
просьба станьте на раздачу, скачал только 6%
8 hours 21 minute 26 seconds:
Спасибо огромное тому кто роздал..
Other forum [Profile] [PM]
Similar theme
Forum Topic Author Torrent Replies Last Post
./templates/default/images/folder_dl.gif Обучающее видео Михаил Русаков | Создание Интернет-магазина на PHP и MySQL [2013] [unpacked] Omen
1 | 0

0 | 1401

12

2014-12-08 16:42
Omen Latest
./templates/default/images/folder_dl.gif Сатира, Юмор Михаил Жванецкий | Собрание произведений в одном томе (2015) [FB2] Omen
1 | 0

0 | 2165

15

2015-07-18 14:19
Omen Latest
Display posts from previous:    
Reply to topic

The time now is: Today 08:02

All times are GMT + 3 Hours



You cannot post new topics in this forum
You cannot reply to topics in this forum
You cannot edit your posts in this forum
You cannot delete your posts in this forum
You cannot vote in polls in this forum
You cannot attach files in this forum
You cannot download files in this forum