Today is a free download without charge Download

Вдова из Будапешта / La veuve de Buda-fesse (Alex PERRY, Christophe Clark / Marc Dorcel) [1994 г., Oral Sex, Group sex, Anal Sex, DVDRip] (Erika Bella, Deborah Wells, Christophe Clark, Angelica Bella, Tom Caldish, Marc Davis, Mike Foster)

Reply to topic
 
Author
Message

XP1971 ®

Торрент-статистика

Post 13-Jan-2018 00:02

[Quote]

-Вдова из Будапешта

La veuve de Buda-fesse
-- Страна: France
Студия: Marc Dorcel
Год выпуска: 1994 г.
Перевод: Отсутствует
Продолжительность: 01:24:07
Жанр: Oral Sex, Group sex, Anal Sex
Режиссер: Alex PERRY, Christophe Clark
Оригинальный аудиопоток: французский-В ролях:
Erika Bella, Deborah Wells, Christophe Clark, Angelica Bella, Tom Caldish, Marc Davis, Mike Foster, Gloria Leonard, Baby Mystery, Tom Robbins, Peter Ryan, Jeanna Schanzyer, Sonia Wells-Оригинальное описание:
La veuve de Buda-fesse : Les deux plus belles et célèbres "hardeuses" hongroises sont réunies dans cette réalisation très hard qui déroule un festival de pratiques sexuelles : sodomies, doubles, pénétrations, fellations, éjaculations, lingeries fines, et un flot de perversions particulièrement corsées.-Описание на русском:
Без наколок и силикона жизненный фильм о том, как муж у венгерской тёлки склеил ласты и она сама начала зарабатывать на жизнь. Там сям надо подписать разные бумаги и документы, а везде мужики на её жопу да на сиськи пяляцца. Ну с этим пришлось очко подставить, с теми тремя групповушкой расплатиться, а с этой толпой вообще нет слов чего вытворяла. Зато при бабосах да и здоровье поправила) Вот что бывает, когда молодая красивая баба, которую ещё драть и драть, остаётся одна без денег и без члена. Желание жить как при муже может и не так раскорячить, так что берегите мужчин, женщины.-
Контейнер: AVI
Аудио кодек: MP3
Видео кодек: DivX
Cубтитры: отсутствуют
Качество видео: DVDRip
Аудио: MPEG Audio | 44.1 KHz | 2 ch | 128.0 Kbps
Видео: MPEG-4 Visual | 512x384 | 1012 Kbps | 23.976 fps | 0.215 bit/pixel

Media Info

Код:
Общее
Полное имя : Marc Dorcel - La Veuve De Buda-Fesse.avi
Формат : AVI
Формат/Информация : Audio Video Interleave
Размер файла : 694 Мбайт
Продолжительность : 1 ч. 24 м.
Общий поток : 1152 Кбит/сек
Программа кодирования : Nandub v1.0rc1
Библиотека кодирования : Nandub build 1841/release
Видео
Идентификатор : 0
Формат : MPEG-4 Visual
Идентификатор кодека : DIV3
Идентификатор кодека/Подсказка : DivX 3 Low
Продолжительность : 1 ч. 24 м.
Битрейт : 1012 Кбит/сек
Ширина : 512 пикселей
Высота : 384 пикселя
Соотношение сторон : 4:3
Частота кадров : 23,976 кадра/сек
Цветовое пространство : YUV
Субдискретизация насыщенности : 4:2:0
Битовая глубина : 8 бит
Метод сжатия : С потерями
Бит/(Пиксели*Кадры) : 0.215
Размер потока : 609 Мбайт (88%)
Аудио
Идентификатор : 1
Формат : MPEG Audio
Версия формата : Version 1
Профиль формата : Layer 3
Режим : Joint stereo
Расширение режима : MS Stereo
Идентификатор кодека : 55
Идентификатор кодека/Подсказка : MP3
Продолжительность : 1 ч. 24 м.
Вид битрейта : Постоянный
Битрейт : 128 Кбит/сек
Каналы : 2 канала
Частота : 44,1 КГц
Метод сжатия : С потерями
Размер потока : 77,0 Мбайт (11%)
Выравнивание : Соединение по промежуткам
Продолжительность промежутка : 26 мс. (0,63 видеокадр)
Время предзагрузки промежутка : 496 мс.

Скринлист

Скриншоты

                                                                       
 
Display posts from previous:    
Reply to topic

The time now is: Today 00:51

All times are GMT + 3 Hours



You cannot post new topics in this forum
You cannot reply to topics in this forum
You cannot edit your posts in this forum
You cannot delete your posts in this forum
You cannot vote in polls in this forum
You cannot attach files in this forum
You cannot download files in this forum