Сегодня идет свободное скачивание без начисления Download

Достучаться до небес / Knockin' on Heaven's Door (Томас Ян / Thomas Jahn) [1997 г., драма, комедия, криминал, BDRip-AVC]

Ответить на тему
 
Автор
Сообщение

Meshanik ®

Пол:

Стаж: 4 года 6 месяцев

Сообщений: 5580

Откуда: Los Angeles

Торрент-статистика

Пост 17-Окт-2012 01:55

[Цитировать]

-Достучаться до небес / Knockin' on Heaven's Door
«Быстрый автомобиль, миллион марок в багажнике, и всего одна неделя жить.»
-- Год выпуска: 1997 г.
Производство: Германия
Жанр: драма, комедия, криминал
Продолжительность: 01:28:56
Перевод: Профессиональный (многоголосый, закадровый)
Перевод: Профессиональный (полное дублирование)
Оригинальный аудиопоток: Английский, Немецкий
Субтитры: Русские, английские, немецкие--Режиссер: Томас Ян / Thomas Jahn
В ролях: Тиль Швайгер, Ян Йозеф Лиферс, Тьерри Ван Вервеке, Мориц Бляйбтрой, Хуб Стапель, Леонард Лэнсинк, Ральф Херфорт, Корнелия Фробесс, Рутгер Хауэр, Кристиана Пауль--Описание: Судьба сводит героев картины в больнице, где врачи выносят им смертный приговор. Счет времени их жизней идет на часы. Дальнейшие события в фильме разворачиваются в стремительном темпе. Украв машину с миллионом немецких марок в багажнике, они сбегают из больницы.
Их преследуют наемные убийцы, они становятся грабителями поневоле, за ними гонится полиция, они попадают в бордель. Но тем не менее продолжают мчаться вперед, навстречу своей судьбе.
-- --Качество видео: BDRip-AVC
Формат видео: MKV
Видео кодек: H.264
Аудио кодек: AC3
Видео: 1024x432, 23.976fps, 1763 Kbps, 0.166 bit/pixel
Аудио #1: 48.0 KHz, 6 ch, 384 Kbps [Многоголосый]
Аудио #2: 48.0 KHz, 6 ch, 384 Kbps [Дублированый]
Аудио #3: 48.0 KHz, 6 ch, 384 Kbps [Английский]
Аудио #4: 48.0 KHz, 6 ch, 384 Kbps [Немецкий]--

Media Info

General
Unique ID : 195695082477044335655033169816701634455 (0x9339807E8FF0CE53AD5A640FD6000797)
Complete name : H:\JRG\Knockin'.on.Heaven's.Door.1997.H264.BDRip-AVC.JRG.mkv
Format : Matroska
Format version : Version 2
File size : 2.05 GiB
Duration : 1h 28mn
Overall bit rate : 3 301 Kbps
Movie name : Knockin' on Heaven's Door (1997) - The Jolly Roger by /*spam*/ [zyyx]
Encoded date : UTC 2012-10-16 20:36:51
Writing application : mkvmerge v5.6.0 ('Kenya Kane') built on Jun 29 2012 15:01:44
Writing library : libebml v1.2.3 + libmatroska v1.3.0
Video
ID : 1
Format : AVC
Format/Info : Advanced Video Codec
Format profile : [url=mailto:[email protected]][email protected][/url]
Format settings, CABAC : Yes
Format settings, ReFrames : 16 frames
Codec ID : V_MPEG4/ISO/AVC
Duration : 1h 28mn
Bit rate : 1 763 Kbps
Width : 1 024 pixels
Height : 432 pixels
Display aspect ratio : 2.40:1
Frame rate : 23.976 fps
Color space : YUV
Chroma subsampling : 4:2:0
Bit depth : 8 bits
Scan type : Progressive
Bits/(Pixel*Frame) : 0.166
Stream size : 1.06 GiB (51%)
Title : JRG
Writing library : x264 core 125 r2200 999b753
Encoding settings : cabac=1 / ref=16 / deblock=1:-1:-1 / analyse=0x3:0x133 / me=umh / subme=11 / psy=1 / psy_rd=1.00:0.10 / mixed_ref=1 / me_range=64 / chroma_me=1 / trellis=2 / 8x8dct=1 / cqm=0 / deadzone=21,11 / fast_pskip=0 / chroma_qp_offset=-3 / threads=32 / lookahead_threads=6 / sliced_threads=0 / nr=0 / decimate=1 / interlaced=0 / bluray_compat=0 / constrained_intra=0 / bframes=16 / b_pyramid=2 / b_adapt=2 / b_bias=0 / direct=3 / weightb=1 / open_gop=0 / weightp=2 / keyint=250 / keyint_min=23 / scenecut=40 / intra_refresh=0 / rc_lookahead=50 / rc=2pass / mbtree=1 / bitrate=1763 / ratetol=1.0 / qcomp=0.70 / qpmin=0 / qpmax=69 / qpstep=4 / cplxblur=20.0 / qblur=0.5 / ip_ratio=1.40 / aq=1:1.00
Language : English
Default : Yes
Forced : No
Audio #1
ID : 2
Format : AC-3
Format/Info : Audio Coding 3
Mode extension : CM (complete main)
Format settings, Endianness : Big
Codec ID : A_AC3
Duration : 1h 28mn
Bit rate mode : Constant
Bit rate : 384 Kbps
Channel(s) : 6 channels
Channel positions : Front: L C R, Side: L R, LFE
Sampling rate : 48.0 KHz
Bit depth : 16 bits
Compression mode : Lossy
Stream size : 244 MiB (12%)
Title : MVO
Language : Russian
Default : Yes
Forced : No
Audio #2
ID : 3
Format : AC-3
Format/Info : Audio Coding 3
Mode extension : CM (complete main)
Format settings, Endianness : Big
Codec ID : A_AC3
Duration : 1h 28mn
Bit rate mode : Constant
Bit rate : 384 Kbps
Channel(s) : 2 channels
Channel positions : Front: L R
Sampling rate : 48.0 KHz
Bit depth : 16 bits
Compression mode : Lossy
Stream size : 244 MiB (12%)
Title : DUB
Language : Russian
Default : No
Forced : No
Audio #3
ID : 4
Format : AC-3
Format/Info : Audio Coding 3
Mode extension : CM (complete main)
Format settings, Endianness : Big
Codec ID : A_AC3
Duration : 1h 28mn
Bit rate mode : Constant
Bit rate : 384 Kbps
Channel(s) : 6 channels
Channel positions : Front: L C R, Side: L R, LFE
Sampling rate : 48.0 KHz
Bit depth : 16 bits
Compression mode : Lossy
Stream size : 244 MiB (12%)
Language : English
Default : No
Forced : No
Audio #4
ID : 5
Format : AC-3
Format/Info : Audio Coding 3
Mode extension : CM (complete main)
Format settings, Endianness : Big
Codec ID : A_AC3
Duration : 1h 28mn
Bit rate mode : Constant
Bit rate : 384 Kbps
Channel(s) : 6 channels
Channel positions : Front: L C R, Side: L R, LFE
Sampling rate : 48.0 KHz
Bit depth : 16 bits
Compression mode : Lossy
Stream size : 244 MiB (12%)
Language : German
Default : No
Forced : No
Text #1
ID : 6
Format : UTF-8
Codec ID : S_TEXT/UTF8
Codec ID/Info : UTF-8 Plain Text
Title : CP Digital
Language : Russian
Default : No
Forced : No
Text #2
ID : 7
Format : UTF-8
Codec ID : S_TEXT/UTF8
Codec ID/Info : UTF-8 Plain Text
Title : Tivionika
Language : Russian
Default : No
Forced : No
Text #3
ID : 8
Format : UTF-8
Codec ID : S_TEXT/UTF8
Codec ID/Info : UTF-8 Plain Text
Language : English
Default : No
Forced : No
Text #4
ID : 9
Format : UTF-8
Codec ID : S_TEXT/UTF8
Codec ID/Info : UTF-8 Plain Text
Language : German
Default : No
Forced : No

Скриншоты

           
         
       
Вне форума [Профиль] [ЛС]
Похожие темы
Форум Тема Автор Торрент Отв. Посл. сообщение
./templates/default/images/folder_dl.gif Учебники, справочники, энциклопедии и словари А.Е. Рыжков и др. | Системы и сети радиодоступа 4G: LTE, WiMAX (2012) [PDF] moralis
1 | 0

0 | 161

8

2016-04-03 14:40
moralis Последнее
./templates/default/images/folder_dl.gif Для детей, родителей и учителей Эксмо | Серия "Наглядно и доступно. Начальная школа". 4 книги (2011) [PDF] XP1971
1 | 0

0 | 126

4

2016-08-26 21:29
XP1971 Последнее
Показать сообщения:    
Ответить на тему

Текущее время: Сегодня 01:19

Часовой пояс: GMT + 3



Вы не можете начинать темы
Вы не можете отвечать на сообщения
Вы не можете редактировать свои сообщения
Вы не можете удалять свои сообщения
Вы не можете голосовать в опросах
Вы не можете прикреплять файлы к сообщениям
Вы не можете скачивать файлы