Сегодня идет свободное скачивание без начисления Download

Кингсайз / Kingsajz (Юлиуш Махульский) [1988 г., комедия, приключения, фэнтези, DVDRip]

Ответить на тему
 
Автор
Сообщение

Jurchic ®

Стаж: 5 лет 1 месяц

Сообщений: 50

Откуда: такое любопытство

Торрент-статистика

Пост 20-Окт-2012 00:11

[Цитировать]

Кингсайз / Kingsajz (1988) DVDRip-- Год выпуска: 1988
Страна: Польша
Жанр: комедия, приключения, фэнтези
Продолжительность: 01:43:06
Перевод: Профессиональный(дублированный) (к/с им. М.Горького)
Режиссер: Юлиуш Махульский
Сценарий: Йоланта Хартвиг, Юлиуш Махульский
В ролях: Яцек Хмельник(Борис Токарев), Ежи Штур(Вадим Андреев), Катажина Фигура(Наталья Казначеева), Гжегож Хероминьский(Алексей Панькин), Йоахим Лямжа(Александр Новиков), Мачей Козловский(Юрий Маляров), Ян Махульский(Даниил Нетребин), Леонард Петрашак(Рудольф Панков), Витольд Пыркош, Лиза Махульска(Ирина Губанова)--Премьера в мире: 2 мая 1988
Дата выхода DVD релиза: 25 сентября 2008, «Мастер Тэйп»
--Описание: «Человек не одинок! Кто-нибудь за ним да следит…» — иллюстрацией этой грустной и глубокой сентенции польского сатирика-классика Станислава Ежи Леца может служить комедия «Кингсайз» режиссера Юлиуша Махульского.
Ольгерд Йедлина ведёт двойную жизнь. В обычном человеческом мире он колумнист солидного журнала, но на самом деле — выходец из Шкафландии, гномьей страны, что раскинулась в каталожных ящиках научной библиотеки. Превратиться из гнома в полноразмерного человека ему помог волшебный препарат Кингсайз, рецепт которого в Шкафландии является строжайшей государственной тайной, и за её хранением следит лично глава государства. В гномьей стране строжайшие тоталитарные порядки, а женщин вообще нет! Неудивительно, что жители её рвутся в большой мир. Химику по имени Адысь удаётся расшифровать формулу препарата и превратить в людей себя и друга Ольгерда, но спецслужбы («спецгномы») идут у него по пятам. Затруднение ещё и в том, что для того, чтобы не развоплотиться обратно в гномов, превратившиеся должны ежедневно выпивать бутылку «Пола-Кокты» — тонизирующего газированного напитка.--Качество: DVDRip
Формат: AVI
Видео кодек: DivX
Аудио кодек: AC-3
Видео: 1506 Кбит/сек, 704*400, 25,000 кадров/сек, MPEG-4 Visual (DivX 5)
Аудио: 384 Кбит/сек, 48,0 КГц, 2 канала, 16 бит, AC-3

MediaInfo:

Код:
Общее
Полное имя                               : :\\Kingsajz.1988.DivX.DVDRip.avi
Формат                                   : AVI
Формат/Информация                        : Audio Video Interleave
Размер файла                             : 1,37 Гбайт
Продолжительность                        : 1 ч. 43 м.
Общий поток                              : 1896 Кбит/сек
Программа кодирования                    : VirtualDubMod 1.5.4.1 (build 2178/release)
Библиотека кодирования                   : VirtualDubMod build 2178/release
Видео
Идентификатор                            : 0
Формат                                   : MPEG-4 Visual
Параметр BVOP формата                    : 1
Параметр QPel формата                    : Нет
Параметр GMC формата                     : Без точки перехода
Параметр матрицы формата                 : Default (H.263)
Режим смешивания                         : Сжатый битовый поток
Идентификатор кодека                     : DX50
Идентификатор кодека/Подсказка           : DivX 5
Продолжительность                        : 1 ч. 43 м.
Битрейт                                  : 1506 Кбит/сек
Ширина                                   : 704 пикселя
Высота                                   : 400 пикселей
Соотношение сторон                       : 16:9
Частота кадров                           : 25,000 кадров/сек
Цветовое пространство                    : YUV
Субдискретизация насыщенности            : 4:2:0
Битовая глубина                          : 8 бит
Тип развёртки                            : Прогрессивная
Метод сжатия                             : С потерями
Бит/(Пиксели*Кадры)                      : 0.214
Размер потока                            : 1,08 Гбайт (79%)
Библиотека кодирования                   : DivX 6.8.3-6.8.4 (UTC 2008-06-07)
Аудио
Идентификатор                            : 1
Формат                                   : AC-3
Формат/Информация                        : Audio Coding 3
Расширение режима                        : CM (complete main)
Параметр Endianness формата              : Big
Идентификатор кодека                     : 2000
Продолжительность                        : 1 ч. 43 м.
Вид битрейта                             : Постоянный
Битрейт                                  : 384 Кбит/сек
Каналы                                   : 2 канала
Расположение каналов                     : Front: L R
Частота                                  : 48,0 КГц
Битовая глубина                          : 16 бит
Метод сжатия                             : С потерями
Размер потока                            : 283 Мбайт (20%)
Выравнивание                             : Разделение по промежуткам
Продолжительность промежутка             : 96  мс. (2,40 видеокадра)
Время предзагрузки промежутка            : 96  мс.
Язык                                     : Russian

Скриншоты

         
Вне форума [Профиль] [ЛС]
Показать сообщения:    
Ответить на тему

Текущее время: Сегодня 14:52

Часовой пояс: GMT + 3



Вы не можете начинать темы
Вы не можете отвечать на сообщения
Вы не можете редактировать свои сообщения
Вы не можете удалять свои сообщения
Вы не можете голосовать в опросах
Вы не можете прикреплять файлы к сообщениям
Вы не можете скачивать файлы