Сегодня идет свободное скачивание без начисления Download

Суперсемейка 2 / Incredibles 2 (Брэд Бёрд) [2018 г., мультфильм, фантастика, комедия, приключения, семейный, WEB-DL 1080p] DUB | Чистый звук

Ответить на тему
 
Автор
Сообщение

Theseus ®

Пол:

Стаж: 7 лет 9 месяцев

Сообщений: 2085

Торрент-статистика

Пост 22-Окт-2018 21:21

[Цитировать]

Суперсемейка 2 / Incredibles 2- Год выхода: 2018
Страна: США
Жанр: мультфильм, фантастика, комедия, приключения, семейный
Продолжительность: 01:57:49
Перевод: Профессиональный (полное дублирование) [Чистый звук]
Субтитры: Отсутствуют-Режиссер: Брэд Бёрд-В ролях: Крэйг Т. Нельсон, Холли Хантер, Сара Вауэлл, Хак Милнер, Кэтрин Кинер, Илай Фучиле, Боб Оденкёрк, Сэмюэл Л. Джексон, Майкл Бёрд, София Буш-О фильме: После событий первой части суперсемейка пользуется повышенным вниманием со стороны журналистов. Неожиданно оказалось, что обаятельная Миссис Исключительная гораздо лучше смотрится на экране телевизора, чем её муж. Мистеру Исключительному все чаще приходится сидеть дома и приглядывать за детьми, у каждого из которых есть свои причины быть недовольным собственными суперспособностями. Однако семейным проблемам предстоит отступить на второй план, когда окажется, что спокойствию Суперсемейки угрожает новый могущественный враг.- -Качество: WEB-DL 1080p
Формат: MKV
Видео кодек: x.264
Аудио кодек: AC3
Видео: AVC, 1920x804 (2.40:1), 23.976 fps, 5 433 Kbps
Аудио: AC-3, 48.0 KHz, 2 ch, 384 Kbps-Сэмпл-Присутствует аудио и текстовая реклама, видеоролики с рекламой вырезаны-

MediaInfo

Общее
Уникальный идентификатор : 225495253854288199119466414796336135449 (0xA9A4CE6141AE9659A8CB58866B75FD19)
Полное имя : Super.Semeyka.2.2O18.D.WEB-DL.1O8Op.mkv
Формат : Matroska
Версия формата : Version 4
Размер файла : 4,79 Гбайт
Продолжительность : 1 ч. 57 м.
Режим общего битрейта : Переменный
Общий поток : 5819 Кбит/сек
Дата кодирования : UTC 2018-10-22 17:45:43
Программа кодирования : mkvmerge v8.3.0 ('Over the Horizon') 64bit
Библиотека кодирования : libebml v1.3.1 + libmatroska v1.4.2
Видео
Идентификатор : 1
Формат : AVC
Формат/Информация : Advanced Video Codec
Профиль формата : [email protected]
Параметр CABAC формата : Да
Параметр ReFrames формата : 4 кадра / 5 кадров
Идентификатор кодека : V_MPEG4/ISO/AVC
Продолжительность : 1 ч. 57 м.
Вид битрейта : Переменный
Битрейт : 5433 Кбит/сек
Максимальный битрейт : 6100 Кбит/сек
Ширина : 1920 пикселей
Высота : 804 пикселя
Соотношение сторон : 2,40:1
Режим частоты кадров : Переменный
Частота кадров : 23,976 кадра/сек
Стандарт вещания : Component
Цветовое пространство : YUV
Субдискретизация насыщенности : 4:2:0
Битовая глубина : 8 бит
Тип развёртки : Прогрессивная
Бит/(Пиксели*Кадры) : 0.147
Размер потока : 4,47 Гбайт (93%)
Язык : Russian
Default : Да
Forced : Нет
Цветовой диапазон : Limited
Основные цвета : BT.709
Характеристики трансфера : BT.709
Коэффициенты матрицы : BT.709
Аудио
Идентификатор : 2
Формат : AC-3
Формат/Информация : Audio Coding 3
Расширение режима : CM (complete main)
Параметр Endianness формата : Big
Идентификатор кодека : A_AC3
Продолжительность : 1 ч. 57 м.
Вид битрейта : Постоянный
Битрейт : 384 Кбит/сек
Каналы : 2 канала
Расположение каналов : Front: L R
Частота : 48,0 КГц
Частота кадров : 31,250 кадров/сек (1536 spf)
Битовая глубина : 16 бит
Метод сжатия : С потерями
Размер потока : 324 Мбайт (7%)
Default : Да
Forced : Нет
-     - -

_________________
Вне форума [Профиль] [ЛС]
Похожие темы
Форум Тема Автор Торрент Отв. Посл. сообщение
./templates/default/images/folder_dl.gif Психология, Тренинг, Саморазвитие Дипак Чопра, Рудольф Танзи | Супермозг. Как использовать безграничную силу мозга для здоровья, счастья и духовного роста (2019) [PDF, RTF] }{@R0N
1 | 0

0 | 246

5

2019-02-11 23:40
}{@R0N Последнее
./templates/default/images/folder_dl.gif Техническая и научно-популярная литература Ю.Р. Шейх-Заде | Суперпамять: древняя методика мнемотехники [1991] [FB2] }{@R0N
1 | 0

0 | 302

0

2019-03-17 22:39
}{@R0N Последнее
Показать сообщения:    
Ответить на тему

Текущее время: Сегодня 01:48

Часовой пояс: GMT + 3



Вы не можете начинать темы
Вы не можете отвечать на сообщения
Вы не можете редактировать свои сообщения
Вы не можете удалять свои сообщения
Вы не можете голосовать в опросах
Вы не можете прикреплять файлы к сообщениям
Вы не можете скачивать файлы