Today is a free download without charge Download

Суперсемейка 2 / Incredibles 2 (Брэд Бёрд) [2018 г., мультфильм, фантастика, комедия, приключения, семейный, WEB-DL 1080p] DUB | Чистый звук

Reply to topic
 
Author
Message

Theseus ®

Gender:

Longevity: 8 years

Posts: 2019

Торрент-статистика

Post 22-Oct-2018 21:21

[Quote]

Суперсемейка 2 / Incredibles 2- Год выхода: 2018
Страна: США
Жанр: мультфильм, фантастика, комедия, приключения, семейный
Продолжительность: 01:57:49
Перевод: Профессиональный (полное дублирование) [Чистый звук]
Субтитры: Отсутствуют-Режиссер: Брэд Бёрд-В ролях: Крэйг Т. Нельсон, Холли Хантер, Сара Вауэлл, Хак Милнер, Кэтрин Кинер, Илай Фучиле, Боб Оденкёрк, Сэмюэл Л. Джексон, Майкл Бёрд, София Буш-О фильме: После событий первой части суперсемейка пользуется повышенным вниманием со стороны журналистов. Неожиданно оказалось, что обаятельная Миссис Исключительная гораздо лучше смотрится на экране телевизора, чем её муж. Мистеру Исключительному все чаще приходится сидеть дома и приглядывать за детьми, у каждого из которых есть свои причины быть недовольным собственными суперспособностями. Однако семейным проблемам предстоит отступить на второй план, когда окажется, что спокойствию Суперсемейки угрожает новый могущественный враг.- -Качество: WEB-DL 1080p
Формат: MKV
Видео кодек: x.264
Аудио кодек: AC3
Видео: AVC, 1920x804 (2.40:1), 23.976 fps, 5 433 Kbps
Аудио: AC-3, 48.0 KHz, 2 ch, 384 Kbps-Сэмпл-Присутствует аудио и текстовая реклама, видеоролики с рекламой вырезаны-

MediaInfo

Общее
Уникальный идентификатор : 225495253854288199119466414796336135449 (0xA9A4CE6141AE9659A8CB58866B75FD19)
Полное имя : Super.Semeyka.2.2O18.D.WEB-DL.1O8Op.mkv
Формат : Matroska
Версия формата : Version 4
Размер файла : 4,79 Гбайт
Продолжительность : 1 ч. 57 м.
Режим общего битрейта : Переменный
Общий поток : 5819 Кбит/сек
Дата кодирования : UTC 2018-10-22 17:45:43
Программа кодирования : mkvmerge v8.3.0 ('Over the Horizon') 64bit
Библиотека кодирования : libebml v1.3.1 + libmatroska v1.4.2
Видео
Идентификатор : 1
Формат : AVC
Формат/Информация : Advanced Video Codec
Профиль формата : [email protected]
Параметр CABAC формата : Да
Параметр ReFrames формата : 4 кадра / 5 кадров
Идентификатор кодека : V_MPEG4/ISO/AVC
Продолжительность : 1 ч. 57 м.
Вид битрейта : Переменный
Битрейт : 5433 Кбит/сек
Максимальный битрейт : 6100 Кбит/сек
Ширина : 1920 пикселей
Высота : 804 пикселя
Соотношение сторон : 2,40:1
Режим частоты кадров : Переменный
Частота кадров : 23,976 кадра/сек
Стандарт вещания : Component
Цветовое пространство : YUV
Субдискретизация насыщенности : 4:2:0
Битовая глубина : 8 бит
Тип развёртки : Прогрессивная
Бит/(Пиксели*Кадры) : 0.147
Размер потока : 4,47 Гбайт (93%)
Язык : Russian
Default : Да
Forced : Нет
Цветовой диапазон : Limited
Основные цвета : BT.709
Характеристики трансфера : BT.709
Коэффициенты матрицы : BT.709
Аудио
Идентификатор : 2
Формат : AC-3
Формат/Информация : Audio Coding 3
Расширение режима : CM (complete main)
Параметр Endianness формата : Big
Идентификатор кодека : A_AC3
Продолжительность : 1 ч. 57 м.
Вид битрейта : Постоянный
Битрейт : 384 Кбит/сек
Каналы : 2 канала
Расположение каналов : Front: L R
Частота : 48,0 КГц
Частота кадров : 31,250 кадров/сек (1536 spf)
Битовая глубина : 16 бит
Метод сжатия : С потерями
Размер потока : 324 Мбайт (7%)
Default : Да
Forced : Нет
-     - -

_________________
Other forum [Profile] [PM]
Similar theme
Forum Topic Author Torrent Replies Last Post
./templates/default/images/folder_dl.gif Кулинария Олеся Гиевская | Ешьте это, а не то. Как выбрать правильные продукты в супермаркете (2013) [PDF] moralis
1 | 0

0 | 726

4

2016-01-11 22:35
moralis Latest
Display posts from previous:    
Reply to topic

The time now is: Today 00:21

All times are GMT + 3 Hours



You cannot post new topics in this forum
You cannot reply to topics in this forum
You cannot edit your posts in this forum
You cannot delete your posts in this forum
You cannot vote in polls in this forum
You cannot attach files in this forum
You cannot download files in this forum