Сегодня идет свободное скачивание без начисления Download

Город тьмы / Темный город (Режиссерская версия)/ Dark City (Director's cut) (1998) [H.264/720p-LQ] BDRip

Ответить на тему
 
Автор
Сообщение

Delia ®

Пол:

Стаж: 6 лет 7 месяцев

Сообщений: 1930

Торрент-статистика

Пост 14-Мар-2011 19:34

[Цитировать]

Город тьмыDark City- Год выпуска: 1998
Жанр: Фантастика, Детектив, Триллер
Cтрана: США, Австралия
Продолжительность: 01:51:43
Перевод: Многоголосый закадровый, авторский закадровый
Режиссер: Алекс Пройяс / Alex Proyas
Актеры: Рафус Сьюэлл, Уильям Харт, Каифер Сазерлэнд, Дженнифер Коннелли, Ричард О`Брайан, Ян Ричардсон, Брюс Спэнс
Описание фильма:
Когда то давным давно этот город захватили высокоразвитые, но умирающие существа, которые что бы выжить, пытаются познать тайну жизни, и для этого проводят эксперименты над жителями города, внедряя им различные воспоминания, и пытаясь найти то главное, чего они лишены. В темном городе никогда не бывает солнечного света, его жители засыпают всегда в одно и то же время, а город в это время изменяет свой облик: дома меняют архитектуру, вырастают из-под земли и передвигаются
Качество видео: BDRip
Видеокодек: H.264/MPEG4-AVC
Битрейт видео: ~23.976 fps, ~ 2 177 Kbps
Размер кадра: 1280x544 pixels (2.35:1)
Аудио 1: AC3 5.1, 48 KHz, ~ 448 kb/s - русский многоголосый закадровый (Киномания)
Аудио 2: AC3 5.1, 48 KHz, ~ 448 kb/s - авторский закадровый (Сербин) - отдельным файлом
Аудио 3: MPEG-4 AAC-LC 5.1, 48kHz, ~400 Kbps - оригинальный английский отдельным файлом
Язык субтитров: Рус / En
Вид субтитров: Вшитые, отключаемые

Mediainfo

Complete name : /home/prot/Видео/Dark City DC_1998.mkv
Format : Matroska
File size : 2.05 GiB
Duration : 1h 51mn
Overall bit rate : 2 630 Kbps
Movie name : Dark.City.1998.720p.BDRip.Director`s_Cut-palach
Encoded date : UTC 2011-03-12 17:11:56
Writing application : mkvmerge v3.0.0 ('Hang up your Hang-Ups') built on Dec 29 2009 00:24:14
Writing library : libebml v0.7.7 + libmatroska v0.8.1
Video
ID : 1
Format : AVC
Format/Info : Advanced Video Codec
Format profile : [url=mailto:[email protected]][email protected][/url]
Format settings, CABAC : Yes
Format settings, ReFrames : 8 frames
Codec ID : V_MPEG4/ISO/AVC
Duration : 1h 51mn
Bit rate mode : Variable
Bit rate : 2 177 Kbps
Maximum bit rate : 40.0 Mbps
Width : 1 280 pixels
Height : 544 pixels
Display aspect ratio : 2.35:1
Original display aspect ratio : 2.35:1
Frame rate : 23.976 fps
Color space : YUV
Chroma subsampling : 4:2:0
Bit depth : 8 bits
Scan type : Progressive
Bits/(Pixel*Frame) : 0.130
Stream size : 1.66 GiB (81%)
Writing library : x264 core 104 r1688 0b36c6d
Encoding settings : cabac=1 / ref=8 / deblock=1:-1:-1 / analyse=0x3:0x113 / me=umh / subme=9 / psy=1 / psy_rd=1.00:1.00 / mixed_ref=1 / me_range=16 / chroma_me=1 / trellis=2 / 8x8dct=1 / cqm=0 / deadzone=21,11 / fast_pskip=1 / chroma_qp_offset=-4 / threads=3 / sliced_threads=0 / slices=4 / nr=0 / decimate=1 / interlaced=0 / constrained_intra=0 / bframes=5 / b_pyramid=0 / b_adapt=2 / b_bias=0 / direct=1 / weightb=1 / open_gop=0 / weightp=2 / keyint=24 / keyint_min=2 / scenecut=40 / intra_refresh=0 / rc_lookahead=24 / rc=2pass / mbtree=1 / bitrate=2177 / ratetol=1.0 / qcomp=0.60 / qpmin=10 / qpmax=51 / qpstep=4 / cplxblur=20.0 / qblur=0.5 / vbv_maxrate=40000 / vbv_bufsize=30000 / ip_ratio=1.40 / aq=1:1.00 / nal_hrd=non
Language : Russian
Audio
ID : 2
Format : AC-3
Format/Info : Audio Coding 3
Mode extension : CM (complete main)
Codec ID : A_AC3
Duration : 1h 51mn
Bit rate mode : Constant
Bit rate : 448 Kbps
Channel(s) : 6 channels
Channel positions : Front: L C R, Side: L R, LFE
Sampling rate : 48.0 KHz
Bit depth : 16 bits
Compression mode : Lossy
Stream size : 358 MiB (17%)
Title : Rus_MVO
Language : Russian
Text #1
ID : 3
Format : UTF-8
Codec ID : S_TEXT/UTF8
Codec ID/Info : UTF-8 Plain Text
Title : Russian
Language : Russian
Text #2
ID : 4
Format : UTF-8
Codec ID : S_TEXT/UTF8
Codec ID/Info : UTF-8 Plain Text
Title : English
Language : English

Скриншоты:

    

_________________
Человек – это канат, натянутый между животным и сверхчеловеком, – канат над пропастью.
В человеке ценно то, что он мост, а не цель. Фридрих Ницше


Последний раз редактировалось: Delia (2011-03-14 20:39), всего редактировалось 2 раз(а)
Вне форума [Профиль] [ЛС]
Похожие темы
Форум Тема Автор Торрент Отв. Посл. сообщение
./templates/default/images/folder_dl.gif Разное В.И.Рыженко | Канализация загородного дома [2007] [Pdf] UndegraundMen
0 | 1

0 | 312

2

2013-05-19 00:03
UndegraundMen Последнее
./templates/default/images/folder_dl.gif Приключения и квесты Shrouded Tales: The Spellbound Land Collector\'s Edition / Таинственные сказки: Околдованный город. Коллекционное издание [P] [RUS] (2014) Omen
1 | 0

0 | 253

5

2014-10-07 17:00
Omen Последнее
./templates/default/images/folder_dl.gif Комиксы, Графика, Wallpapers, Арт Обои - Большая коллекция обоев - Города [JPG] Omen
1 | 0

0 | 626

21

2015-05-08 20:04
Omen Последнее
./templates/default/images/folder_dl.gif Приключения и квесты Small Town Terrors 3 Galdors Bluff Sammleredition / Террор в городке 3 Блеф Галдора Коллекционное издание [P] [RUS] (2015) Omen
24 | 2

0 | 418

9

2015-06-13 15:00
Omen Последнее
./templates/default/images/folder_dl.gif Домоводство, Хобби, Бизнес Геннадий Распопов | Как создать эко огород. Советы врача и садовода с 40-летним стажем! (2016) [FB2, RTF] Omen
1 | 0

0 | 133

4

2016-03-09 21:54
Omen Последнее
./templates/default/images/folder_dl.gif Книги для IPhone, IPod, Apple Пратчетт Терри - Мойст фон Липвиг - Книга 3. На всех парах [Царегородцев Сергей (ЛИ), 2016, Фэнтези, 128 kbps], M4B VHS
1 | 0

0 | 148

2

2016-09-02 22:13
VHS Последнее
./templates/default/images/folder_dl.gif Книги для IPhone, IPod, Apple Пратчетт Терри - Мойст фон Липвиг - Книга 2. Делай деньги [Царегородцев Сергей (ЛИ), 2014, Фэнтези, 128 kbps], M4B VHS
1 | 0

0 | 148

2

2016-09-04 16:57
VHS Последнее
./templates/default/images/folder_dl.gif Фантастика, фэнтези, ужасы, мистика Григорий Шаргородский | Грани страха (2016) [FB2] [email protected]
1 | 0

0 | 164

4

2016-09-12 23:24
[email protected] Последнее
Показать сообщения:    
Ответить на тему

Текущее время: Сегодня 09:43

Часовой пояс: GMT + 3



Вы не можете начинать темы
Вы не можете отвечать на сообщения
Вы не можете редактировать свои сообщения
Вы не можете удалять свои сообщения
Вы не можете голосовать в опросах
Вы не можете прикреплять файлы к сообщениям
Вы не можете скачивать файлы