Сегодня идет свободное скачивание без начисления Download

Мистер Судьба / Повороты судьбы / Мистер Дестини / Mr. Destiny (1990) DVDRip

Ответить на тему
 
Автор
Сообщение

Delia ®

Пол:

Стаж: 6 лет 7 месяцев

Сообщений: 1930

Торрент-статистика

Пост 14-Мар-2011 19:45

[Цитировать]

Мистер СудьбаMr. Destiny- Год выпуска: 1990
Жанр: Комедия, Фэнтези, Мелодрама
Cтрана: США
Продолжительность: 01:45:58
Перевод: Многоголосый закадровый, дублированный, авторский закадровый
Режиссер: Джеймс Орр / James Orr
Актеры: Джеймс Белуши, Линда Хэмилтон, Майкл Кейн, Джон Ловиц, Харт Бочнер, Билл МакКатчен, Рене Руссо, Джей О. Сандерс, Мори Чайкин, Пэт Корли
Описание фильма:
У простого служащего Ларри ломается машина. Он останавливается у придорожного кафе и в ожидании помощи решает пропустить стаканчик. Ларри жалуется бармену на свою неудавшуюся жизнь: если бы все сложилось иначе…
Таинственный человек за стойкой молча выслушал его историю. С этого момента судьба Ларри полностью изменилась. Теперь он — один из управляющих преуспевающей фирмы, у него роскошные автомобили и красавица жена. У счастливчика осталось только одно желание… вернуться в прошлое. . .
Качество видео: DVDRip
Видеокодек: Xvid
Битрейт видео: ~25 fps, ~2083 kbps avg, ~0.289 bit/pixel
Размер кадра: 720x400 (1.80:1)
Аудио 1: 48 kHz, AC3 Dolby Digital, 2/0 (L,R) ch, ~192.00 kbps avg - русский многоголосый закадровый
Аудио 2: 44.1 kHz, MPEG Layer 3, 2 ch, ~192.00 kbps avg - русский дублированный (дубляж взят со Scr Rip)
Аудио 3: 44.1 kHz, MPEG Layer 3, 2 ch, ~192.00 kbps avg - авторский (Алексей Михалев)
Аудио 4: 44.1 kHz, MPEG Layer 3, 2 ch, ~192.00 kbps avg - Авторский (Алексей Мишин)
Аудио 5: 44.1 kHz, MPEG Layer 3, 2 ch, ~128.00 kbps avg - оригинальный английский
Язык субтитров: русcкие

Mediainfo

Complete name : /home/prot/Видео/Mister Destiny.1990/Mister.Sudba.1990.XviD.DVDRip.mkv
Format : Matroska
File size : 2.25 GiB
Duration : 1h 45mn
Overall bit rate : 3 039 Kbps
Encoded date : UTC 2011-03-12 06:50:26
Writing application : mkvmerge v3.0.0 ('Hang up your Hang-Ups') built on Dec 29 2009 00:24:14
Writing library : libebml v0.7.7 + libmatroska v0.8.1
Video
ID : 1
Format : MPEG-4 Visual
Format profile : Advanced [email protected]
Format settings, BVOP : Yes
Format settings, QPel : No
Format settings, GMC : No warppoints
Format settings, Matrix : Custom
Codec ID : XVID
Codec ID/Hint : XviD
Duration : 1h 45mn
Bit rate : 2 083 Kbps
Width : 720 pixels
Height : 400 pixels
Display aspect ratio : 16:9
Frame rate : 25.000 fps
Color space : YUV
Chroma subsampling : 4:2:0
Bit depth : 8 bits
Scan type : Progressive
Compression mode : Lossy
Bits/(Pixel*Frame) : 0.289
Stream size : 1.54 GiB (69%)
Writing library : XviD 1.1.2 (UTC 2006-11-01)
Audio #1
ID : 2
Format : AC-3
Format/Info : Audio Coding 3
Mode extension : CM (complete main)
Codec ID : A_AC3
Duration : 1h 45mn
Bit rate mode : Constant
Bit rate : 192 Kbps
Channel(s) : 2 channels
Channel positions : Front: L R
Sampling rate : 48.0 KHz
Bit depth : 16 bits
Compression mode : Lossy
Stream size : 146 MiB (6%)
Title : MVO
Language : Russian
Audio #2
ID : 3
Format : MPEG Audio
Format version : Version 1
Format profile : Layer 3
Codec ID : A_MPEG/L3
Codec ID/Hint : MP3
Duration : 1h 45mn
Bit rate mode : Constant
Bit rate : 192 Kbps
Channel(s) : 2 channels
Sampling rate : 44.1 KHz
Compression mode : Lossy
Stream size : 146 MiB (6%)
Title : Dub
Writing library : LAME3.97
Language : Russian
Audio #3
ID : 4
Format : MPEG Audio
Format version : Version 1
Format profile : Layer 3
Codec ID : A_MPEG/L3
Codec ID/Hint : MP3
Duration : 1h 45mn
Bit rate mode : Constant
Bit rate : 192 Kbps
Channel(s) : 2 channels
Sampling rate : 44.1 KHz
Compression mode : Lossy
Stream size : 146 MiB (6%)
Title : AVO 1
Language : Russian
Audio #4
ID : 5
Format : MPEG Audio
Format version : Version 1
Format profile : Layer 3
Codec ID : A_MPEG/L3
Codec ID/Hint : MP3
Duration : 1h 45mn
Bit rate mode : Constant
Bit rate : 192 Kbps
Channel(s) : 2 channels
Sampling rate : 44.1 KHz
Compression mode : Lossy
Stream size : 146 MiB (6%)
Title : AVO 2
Language : Russian
Audio #5
ID : 6
Format : MPEG Audio
Format version : Version 1
Format profile : Layer 3
Codec ID : A_MPEG/L3
Codec ID/Hint : MP3
Duration : 1h 45mn
Bit rate mode : Constant
Bit rate : 128 Kbps
Channel(s) : 2 channels
Sampling rate : 44.1 KHz
Compression mode : Lossy
Stream size : 97.0 MiB (4%)
Title : Eng
Language : English

Скриншоты:

   [thumbnails]http://i17.fastpic.ru/big/2011/0312/1a/a83e4672a342...b8f6e2f4691a.png
[/thumbnails]

_________________
Человек – это канат, натянутый между животным и сверхчеловеком, – канат над пропастью.
В человеке ценно то, что он мост, а не цель. Фридрих Ницше


Последний раз редактировалось: Delia (2011-03-14 20:44), всего редактировалось 1 раз
Вне форума [Профиль] [ЛС]

alechalunin

Пол:

Стаж: 6 лет 6 месяцев

Сообщений: 62

Торрент-статистика

Пост 15-Мар-2011 08:03 (спустя 12 часов)

[Цитировать]

огромное спасибо
Вне форума [Профиль] [ЛС]
Показать сообщения:    
Ответить на тему

Текущее время: Сегодня 13:11

Часовой пояс: GMT + 3



Вы не можете начинать темы
Вы не можете отвечать на сообщения
Вы не можете редактировать свои сообщения
Вы не можете удалять свои сообщения
Вы не можете голосовать в опросах
Вы не можете прикреплять файлы к сообщениям
Вы не можете скачивать файлы