Сегодня идет свободное скачивание без начисления Download

(Rock, Hard Rock, Classic Rock) VA - The Rock Album (3CD) - 2017 [FLAC, image +.cue, lossless]

Ответить на тему
 
Автор
Сообщение

sergej644 ®

Пол:

Стаж: 6 лет 6 месяцев

Сообщений: 625

Торрент-статистика

Пост 26-Фев-2019 14:46

[Цитировать]

-VA - The Rock Album (3CD)--
Год издания: 2017
Страна: international
Жанр: Rock, Hard Rock, Classic Rock
Продолжительность: 03:50:08-Лейбл издания: Universal Music on Demand
Страна-выпуска диска: UK
Номер по каталогу: 5379938-Формат: FLAC
Битрейт аудио: Lossless
Тип рипа: image +.cue
Наличие сканов в содержимом раздачи: да
-

Трэклист

CD 1 | 01:16:36


01. Queen - We Will Rock You (2:02)
02. Bon Jovi - You Give Love A Bad Name (3:44)
03. Motorhead - Ace Of Spades (2:48)
04. Meat Loaf - Bat Out Of Hell (4:52)
05. Thin Lizzy - The Boys Are Back In Town (4:26)
06. ZZ Top - Gimme All Your Lovin (4:01)
07. Rainbow - Since You've Been Gone (3:19)
08. Whitesnake - Here I Go Again (3:52)
09. Rolling Stones, The - Start Me Up (3:33)
10. Who, The - Who Are You (5:07)
11. Troggs, The - Wild Thing (2:37)
12. Kinks, The - You Really Got Me (2:12)
13. Alice Cooper - Poison (4:30)
14. Hawkwind - Silver Machine (4:37)
15. Ram Jam - Black Betty (3:55)
16. Bachman Turner Overdrive - You Ain't Seen Nothing Yet (3:40)
17. KISS - Crazy Crazy Nights (3:48)
18. Boston - More Than A Feeling (3:23)
19. Foreigner - Cold As Ice (3:21)
20. Wings - Live & Let Die (3:13)
21. Steve Miller Band - The Joker (3:38)

CD 2 | 01:15:46


01. Status Quo - Rockin' All Over the World (3:36)
02. Free - All Right Now (5:31)
03. Robert Palmer - Addicted to Love (4:01)
04. Bryan Adams - Run to You (3:54)
05. Lynyrd Skynyrd - Sweet Home Alabama (3:36)
06. Scorpions - Wind of Change (3:43)
07. Steppenwolf - Born to Be Wild (3:29)
08. Deep Purple - Smoke On the Water (5:35)
09. Blue Oyster Cult - (Don't Fear) the Reaper (3:49)
10. Megadeth - Symphony of Destruction (4:07)
11. Iggy Pop - Real Wild Child (Wild One) (3:39)
12. Billy Idol - White Wedding (3:31)
13. Rod Stewart - You Wear It Well (4:22)
14. Paul McCartney - All Shook Up (2:05)
15. Stranglers, The - Peaches (4:04)
16. Knack, The - My Sharona (3:59)
17. Pat Benatar - Hit Me With Your Best Shot (2:52)
18. Animals, The - House of the Rising Sun (4:30)
19. Jam, The - Going Underground (2:54)
20. Undertones, The - Teenage Kicks (2:28)

CD 3 | 01:17:46


01. U2 - Pride (3:47)
02. Red Hot Chili Peppers - Higher Ground (3:21)
03. Stereophonics - Dakota (4:57)
04. The Darkness - I Believe in a Thing Called Love (3:37)
05. The Killers - Mr. Brightside (3:42)
06. Lenny Kravitz - Fly Away (3:43)
07. Stiltskin - Inside (5:13)
08. Ugly Kid Joe - Cats in the Cradle (4:04)
09. Soundgarden - Black Hole Sun (4:32)
10. Queens of the Stone Age - No One Knows (4:39)
11. Billy Squier - Don't Say No (3:21)
12. Asia - Heat of the Moment (3:51)
13. Tesla - Love Song (4:05)
14. Lynyrd Skynyrd - Freebird (3:32)
15. Rush - Spirit of Radio (4:57)
16. Joe Walsh - Rocky Mountain (3:41)
17. Thunderclap Newman - Something in the Air (3:53)
18. Faith No More - Epic (4:51)
19. Radiohead - Creep (3:59)
-

Лог создания рипа

CD 1

Код:
Exact Audio Copy V1.3 from 2. September 2016
EAC extraction logfile from 22. February 2019, 20:26
Various Artists / The Rock Album CD1
Used drive  : TSSTcorpBDDVDW SE-506BB   Adapter: 1  ID: 0
Read mode               : Secure
Utilize accurate stream : Yes
Defeat audio cache      : Yes
Make use of C2 pointers : No
Read offset correction                      : 6
Overread into Lead-In and Lead-Out          : No
Fill up missing offset samples with silence : Yes
Delete leading and trailing silent blocks   : No
Null samples used in CRC calculations       : Yes
Used interface                              : Native Win32 interface for Win NT & 2000
Used output format              : User Defined Encoder
Selected bitrate                : 1024 kBit/s
Quality                         : High
Add ID3 tag                     : No
Command line compressor         : C:\Program Files (x86)\Exact Audio Copy\FLAC\FLAC.EXE
Additional command line options : -8 -V -T "TITLE=%title%" -T "ARTIST=%artist%" -T "ALBUMARTIST=%albumartist%" -T "ALBUM=%albumtitle%" -T "DATE=%year%" -T "TRACKNUMBER=%tracknr%" -T "TRACKTOTAL=%numtracks%" -T "GENRE=%genre%" -T "COMMENT=%comment%" -T "PERFORMER=%albuminterpret%" -T "COMPOSER=%composer%" %source% -o %dest%
TOC of the extracted CD
     Track |   Start  |  Length  | Start sector | End sector
    ---------------------------------------------------------
        1  |  0:01.00 |  2:01.61 |        75    |     9210
        2  |  2:02.61 |  3:44.23 |      9211    |    26033
        3  |  5:47.09 |  2:48.24 |     26034    |    38657
        4  |  8:35.33 |  4:52.03 |     38658    |    60560
        5  | 13:27.36 |  4:26.35 |     60561    |    80545
        6  | 17:53.71 |  4:01.19 |     80546    |    98639
        7  | 21:55.15 |  3:18.68 |     98640    |   113557
        8  | 25:14.08 |  3:52.10 |    113558    |   130967
        9  | 29:06.18 |  3:33.05 |    130968    |   146947
       10  | 32:39.23 |  5:06.73 |    146948    |   169970
       11  | 37:46.21 |  2:36.42 |    169971    |   181712
       12  | 40:22.63 |  2:11.43 |    181713    |   191580
       13  | 42:34.31 |  4:29.47 |    191581    |   211802
       14  | 47:04.03 |  4:36.47 |    211803    |   232549
       15  | 51:40.50 |  3:55.30 |    232550    |   250204
       16  | 55:36.05 |  3:39.45 |    250205    |   266674
       17  | 59:15.50 |  3:47.45 |    266675    |   283744
       18  | 63:03.20 |  3:23.13 |    283745    |   298982
       19  | 66:26.33 |  3:20.43 |    298983    |   314025
       20  | 69:47.01 |  3:12.43 |    314026    |   328468
       21  | 72:59.44 |  3:37.61 |    328469    |   344804
Range status and errors
Selected range
     Filename D:\EAC rips\Various Artists - The Rock Album CD1.wav
     Peak level 99.8 %
     Extraction speed 2.3 X
     Range quality 100.0 %
     Test CRC 0B529632
     Copy CRC 0B529632
     Copy OK
No errors occurred
AccurateRip summary
Track  1  accurately ripped (confidence 2)  [4B292C3E]  (AR v2)
Track  2  accurately ripped (confidence 2)  [F3E0A604]  (AR v2)
Track  3  accurately ripped (confidence 2)  [A13AA491]  (AR v2)
Track  4  accurately ripped (confidence 2)  [EDD93D99]  (AR v2)
Track  5  accurately ripped (confidence 2)  [360DD6D9]  (AR v2)
Track  6  accurately ripped (confidence 2)  [5D7BAD74]  (AR v2)
Track  7  accurately ripped (confidence 2)  [F05C9010]  (AR v2)
Track  8  accurately ripped (confidence 2)  [3CD38A1B]  (AR v2)
Track  9  accurately ripped (confidence 2)  [539C4067]  (AR v2)
Track 10  accurately ripped (confidence 2)  [46B636CB]  (AR v2)
Track 11  accurately ripped (confidence 2)  [F9726E3A]  (AR v2)
Track 12  accurately ripped (confidence 2)  [640540F3]  (AR v2)
Track 13  accurately ripped (confidence 2)  [5F3E48B4]  (AR v2)
Track 14  accurately ripped (confidence 2)  [E4E9DE71]  (AR v2)
Track 15  accurately ripped (confidence 2)  [29F66C2E]  (AR v2)
Track 16  accurately ripped (confidence 2)  [83707C27]  (AR v2)
Track 17  accurately ripped (confidence 2)  [477AE8F2]  (AR v2)
Track 18  accurately ripped (confidence 2)  [C68C86DD]  (AR v2)
Track 19  accurately ripped (confidence 2)  [98975354]  (AR v2)
Track 20  accurately ripped (confidence 2)  [4F9C7A87]  (AR v2)
Track 21  accurately ripped (confidence 2)  [4164F37B]  (AR v2)
All tracks accurately ripped
End of status report

CD 2

Код:
Exact Audio Copy V1.3 from 2. September 2016
EAC extraction logfile from 22. February 2019, 19:12
Various Artists / The Rock Album CD2
Used drive  : TSSTcorpBDDVDW SE-506BB   Adapter: 1  ID: 0
Read mode               : Secure
Utilize accurate stream : Yes
Defeat audio cache      : Yes
Make use of C2 pointers : No
Read offset correction                      : 6
Overread into Lead-In and Lead-Out          : No
Fill up missing offset samples with silence : Yes
Delete leading and trailing silent blocks   : No
Null samples used in CRC calculations       : Yes
Used interface                              : Native Win32 interface for Win NT & 2000
Used output format              : User Defined Encoder
Selected bitrate                : 1024 kBit/s
Quality                         : High
Add ID3 tag                     : No
Command line compressor         : C:\Program Files (x86)\Exact Audio Copy\FLAC\FLAC.EXE
Additional command line options : -8 -V -T "TITLE=%title%" -T "ARTIST=%artist%" -T "ALBUMARTIST=%albumartist%" -T "ALBUM=%albumtitle%" -T "DATE=%year%" -T "TRACKNUMBER=%tracknr%" -T "TRACKTOTAL=%numtracks%" -T "GENRE=%genre%" -T "COMMENT=%comment%" -T "PERFORMER=%albuminterpret%" -T "COMPOSER=%composer%" %source% -o %dest%
TOC of the extracted CD
     Track |   Start  |  Length  | Start sector | End sector
    ---------------------------------------------------------
        1  |  0:01.00 |  3:36.12 |        75    |    16286
        2  |  3:37.12 |  5:30.42 |     16287    |    41078
        3  |  9:07.54 |  4:01.03 |     41079    |    59156
        4  | 13:08.57 |  3:53.57 |     59157    |    76688
        5  | 17:02.39 |  3:36.30 |     76689    |    92918
        6  | 20:38.69 |  3:43.12 |     92919    |   109655
        7  | 24:22.06 |  3:29.15 |    109656    |   125345
        8  | 27:51.21 |  5:35.27 |    125346    |   150497
        9  | 33:26.48 |  3:48.65 |    150498    |   167662
       10  | 37:15.38 |  4:06.63 |    167663    |   186175
       11  | 41:22.26 |  3:38.48 |    186176    |   202573
       12  | 45:00.74 |  3:31.02 |    202574    |   218400
       13  | 48:32.01 |  4:22.28 |    218401    |   238078
       14  | 52:54.29 |  2:04.56 |    238079    |   247434
       15  | 54:59.10 |  4:04.01 |    247435    |   265735
       16  | 59:03.11 |  3:59.26 |    265736    |   283686
       17  | 63:02.37 |  2:52.35 |    283687    |   296621
       18  | 65:54.72 |  4:29.68 |    296622    |   316864
       19  | 70:24.65 |  2:54.35 |    316865    |   329949
       20  | 73:19.25 |  2:27.50 |    329950    |   341024
Range status and errors
Selected range
     Filename D:\EAC rips\Various Artists - The Rock Album CD2.wav
     Peak level 99.8 %
     Extraction speed 2.9 X
     Range quality 99.9 %
     Test CRC 669F6EB2
     Copy CRC 669F6EB2
     Copy OK
No errors occurred
AccurateRip summary
Track  1  accurately ripped (confidence 1)  [B7EE5AC9]  (AR v2)
Track  2  accurately ripped (confidence 1)  [E6CEA0A0]  (AR v2)
Track  3  accurately ripped (confidence 1)  [F3786548]  (AR v2)
Track  4  accurately ripped (confidence 1)  [DC3FC3B0]  (AR v2)
Track  5  accurately ripped (confidence 1)  [9C99ED70]  (AR v2)
Track  6  accurately ripped (confidence 1)  [FAF1CF0D]  (AR v2)
Track  7  accurately ripped (confidence 1)  [1BA6EB4C]  (AR v2)
Track  8  accurately ripped (confidence 1)  [6B29FED9]  (AR v2)
Track  9  accurately ripped (confidence 1)  [E89C0C99]  (AR v2)
Track 10  accurately ripped (confidence 1)  [FBD048C1]  (AR v2)
Track 11  accurately ripped (confidence 1)  [541A083C]  (AR v2)
Track 12  accurately ripped (confidence 1)  [BF5459B6]  (AR v2)
Track 13  accurately ripped (confidence 1)  [B2FDE06B]  (AR v2)
Track 14  accurately ripped (confidence 1)  [EB303BE5]  (AR v2)
Track 15  accurately ripped (confidence 1)  [E7486F42]  (AR v2)
Track 16  accurately ripped (confidence 1)  [A5040675]  (AR v2)
Track 17  accurately ripped (confidence 1)  [013C9A10]  (AR v2)
Track 18  accurately ripped (confidence 1)  [043959FE]  (AR v2)
Track 19  accurately ripped (confidence 1)  [CE086D40]  (AR v2)
Track 20  accurately ripped (confidence 1)  [427B66A1]  (AR v2)
All tracks accurately ripped
End of status report

CD 3

Код:
Exact Audio Copy V1.3 from 2. September 2016
EAC extraction logfile from 22. February 2019, 14:39
Various Artists / The Rock Album CD3
Used drive  : TSSTcorpBDDVDW SE-506BB   Adapter: 1  ID: 0
Read mode               : Secure
Utilize accurate stream : Yes
Defeat audio cache      : Yes
Make use of C2 pointers : No
Read offset correction                      : 6
Overread into Lead-In and Lead-Out          : No
Fill up missing offset samples with silence : Yes
Delete leading and trailing silent blocks   : No
Null samples used in CRC calculations       : Yes
Used interface                              : Native Win32 interface for Win NT & 2000
Used output format              : User Defined Encoder
Selected bitrate                : 1024 kBit/s
Quality                         : High
Add ID3 tag                     : No
Command line compressor         : C:\Program Files (x86)\Exact Audio Copy\FLAC\FLAC.EXE
Additional command line options : -8 -V -T "TITLE=%title%" -T "ARTIST=%artist%" -T "ALBUMARTIST=%albumartist%" -T "ALBUM=%albumtitle%" -T "DATE=%year%" -T "TRACKNUMBER=%tracknr%" -T "TRACKTOTAL=%numtracks%" -T "GENRE=%genre%" -T "COMMENT=%comment%" -T "PERFORMER=%albuminterpret%" -T "COMPOSER=%composer%" %source% -o %dest%
TOC of the extracted CD
     Track |   Start  |  Length  | Start sector | End sector
    ---------------------------------------------------------
        1  |  0:01.00 |  3:47.35 |        75    |    17134
        2  |  3:48.35 |  3:21.20 |     17135    |    32229
        3  |  7:09.55 |  4:57.32 |     32230    |    54536
        4  | 12:07.12 |  3:36.51 |     54537    |    70787
        5  | 15:43.63 |  3:42.10 |     70788    |    87447
        6  | 19:25.73 |  3:43.06 |     87448    |   104178
        7  | 23:09.04 |  5:12.65 |    104179    |   127643
        8  | 28:21.69 |  4:04.30 |    127644    |   145973
        9  | 32:26.24 |  4:32.12 |    145974    |   166385
       10  | 36:58.36 |  4:38.50 |    166386    |   187285
       11  | 41:37.11 |  3:20.73 |    187286    |   202358
       12  | 44:58.09 |  3:51.35 |    202359    |   219718
       13  | 48:49.44 |  4:04.68 |    219719    |   238086
       14  | 52:54.37 |  3:32.33 |    238087    |   254019
       15  | 56:26.70 |  4:56.47 |    254020    |   276266
       16  | 61:23.42 |  3:40.38 |    276267    |   292804
       17  | 65:04.05 |  3:52.67 |    292805    |   310271
       18  | 68:56.72 |  4:51.32 |    310272    |   332128
       19  | 73:48.29 |  3:58.48 |    332129    |   350026
Range status and errors
Selected range
     Filename D:\EAC rips\Various Artists - The Rock Album CD3.wav
     Peak level 99.8 %
     Extraction speed 2.3 X
     Range quality 100.0 %
     Test CRC 6A0B1824
     Copy CRC 6A0B1824
     Copy OK
No errors occurred
AccurateRip summary
Track  1  accurately ripped (confidence 1)  [6370264D]  (AR v2)
Track  2  accurately ripped (confidence 1)  [5DA7DBE7]  (AR v2)
Track  3  accurately ripped (confidence 1)  [62BB2179]  (AR v2)
Track  4  accurately ripped (confidence 1)  [90CEED81]  (AR v2)
Track  5  accurately ripped (confidence 1)  [5B229734]  (AR v2)
Track  6  accurately ripped (confidence 1)  [105518F3]  (AR v2)
Track  7  accurately ripped (confidence 1)  [A4EA9638]  (AR v2)
Track  8  accurately ripped (confidence 1)  [98F66E80]  (AR v2)
Track  9  accurately ripped (confidence 1)  [B30B1ABD]  (AR v2)
Track 10  accurately ripped (confidence 1)  [CF83731E]  (AR v2)
Track 11  accurately ripped (confidence 1)  [04B9ECC3]  (AR v2)
Track 12  accurately ripped (confidence 1)  [FA08B072]  (AR v2)
Track 13  accurately ripped (confidence 1)  [D5CF2DD0]  (AR v2)
Track 14  accurately ripped (confidence 1)  [0A18690E]  (AR v2)
Track 15  accurately ripped (confidence 1)  [0AD53F69]  (AR v2)
Track 16  accurately ripped (confidence 1)  [CFED29F5]  (AR v2)
Track 17  accurately ripped (confidence 1)  [4BBE59AE]  (AR v2)
Track 18  accurately ripped (confidence 1)  [277F5691]  (AR v2)
Track 19  accurately ripped (confidence 1)  [EF56AC23]  (AR v2)
All tracks accurately ripped
End of status report

Индексная карта (non-compilant .cue)

CD 1

Код:
REM GENRE Rock
REM DATE 2017
REM DISCID 4A11F415
REM COMMENT "ExactAudioCopy v1.3"
PERFORMER "Various Artists"
TITLE "The Rock Album CD1"
REM COMPOSER ""
FILE "Various Artists - The Rock Album CD1.flac" WAVE
  TRACK 01 AUDIO
    TITLE "We Will Rock You"
    PERFORMER "Queen"
    REM COMPOSER ""
    INDEX 00 00:00:00
    INDEX 01 00:01:00
  TRACK 02 AUDIO
    TITLE "You Give Love A Bad Name"
    PERFORMER "Bon Jovi"
    REM COMPOSER ""
    INDEX 01 02:02:61
  TRACK 03 AUDIO
    TITLE "Ace Of Spades"
    PERFORMER "Motorhead"
    REM COMPOSER ""
    INDEX 01 05:47:09
  TRACK 04 AUDIO
    TITLE "Bat Out Of Hell"
    PERFORMER "Meat Loaf"
    REM COMPOSER ""
    INDEX 01 08:35:33
  TRACK 05 AUDIO
    TITLE "The Boys Are Back In Town"
    PERFORMER "Thin Lizzy"
    REM COMPOSER ""
    INDEX 01 13:27:36
  TRACK 06 AUDIO
    TITLE "Gimme All Your Lovin"
    PERFORMER "ZZ Top"
    REM COMPOSER ""
    INDEX 01 17:53:71
  TRACK 07 AUDIO
    TITLE "Since You've Been Gone"
    PERFORMER "Rainbow"
    REM COMPOSER ""
    INDEX 01 21:55:15
  TRACK 08 AUDIO
    TITLE "Here I Go Again"
    PERFORMER "Whitesnake"
    REM COMPOSER ""
    INDEX 01 25:14:08
  TRACK 09 AUDIO
    TITLE "Start Me Up"
    PERFORMER "Rolling Stones, The"
    REM COMPOSER ""
    INDEX 01 29:06:18
  TRACK 10 AUDIO
    TITLE "Who Are You"
    PERFORMER "Who, The"
    REM COMPOSER ""
    INDEX 01 32:39:23
  TRACK 11 AUDIO
    TITLE "Wild Thing"
    PERFORMER "Troggs, The"
    REM COMPOSER ""
    INDEX 01 37:46:21
  TRACK 12 AUDIO
    TITLE "You Really Got Me"
    PERFORMER "Kinks, The"
    REM COMPOSER ""
    INDEX 01 40:22:63
  TRACK 13 AUDIO
    TITLE "Poison"
    PERFORMER "Alice Cooper"
    REM COMPOSER ""
    INDEX 01 42:34:31
  TRACK 14 AUDIO
    TITLE "Silver Machine"
    PERFORMER "Hawkwind"
    REM COMPOSER ""
    INDEX 01 47:04:03
  TRACK 15 AUDIO
    TITLE "Black Betty"
    PERFORMER "Ram Jam"
    REM COMPOSER ""
    INDEX 01 51:40:50
  TRACK 16 AUDIO
    TITLE "You Ain't Seen Nothing Yet"
    PERFORMER "Bachman Turner Overdrive"
    REM COMPOSER ""
    INDEX 01 55:36:05
  TRACK 17 AUDIO
    TITLE "Crazy Crazy Nights"
    PERFORMER "KISS"
    REM COMPOSER ""
    INDEX 01 59:15:50
  TRACK 18 AUDIO
    TITLE "More Than A Feeling"
    PERFORMER "Boston"
    REM COMPOSER ""
    INDEX 01 63:03:20
  TRACK 19 AUDIO
    TITLE "Cold As Ice"
    PERFORMER "Foreigner"
    REM COMPOSER ""
    INDEX 01 66:26:33
  TRACK 20 AUDIO
    TITLE "Live & Let Die"
    PERFORMER "Wings"
    REM COMPOSER ""
    INDEX 01 69:47:01
  TRACK 21 AUDIO
    TITLE "The Joker"
    PERFORMER "Steve Miller Band"
    REM COMPOSER ""
    INDEX 01 72:59:44

CD 2

Код:
REM GENRE Rock
REM DATE 2017
REM DISCID 1211C214
REM COMMENT "ExactAudioCopy v1.3"
PERFORMER "Various Artists"
TITLE "The Rock Album CD2"
REM COMPOSER ""
FILE "Various Artists - The Rock Album CD2.flac" WAVE
  TRACK 01 AUDIO
    TITLE "Rockin' All Over the World"
    PERFORMER "Status Quo"
    REM COMPOSER ""
    INDEX 00 00:00:00
    INDEX 01 00:01:00
  TRACK 02 AUDIO
    TITLE "All Right Now"
    PERFORMER "Free"
    REM COMPOSER ""
    INDEX 01 03:37:12
  TRACK 03 AUDIO
    TITLE "Addicted to Love"
    PERFORMER "Robert Palmer"
    REM COMPOSER ""
    INDEX 01 09:07:54
  TRACK 04 AUDIO
    TITLE "Run to You"
    PERFORMER "Bryan Adams"
    REM COMPOSER ""
    INDEX 01 13:08:57
  TRACK 05 AUDIO
    TITLE "Sweet Home Alabama"
    PERFORMER "Lynyrd Skynyrd"
    REM COMPOSER ""
    INDEX 01 17:02:39
  TRACK 06 AUDIO
    TITLE "Wind of Change"
    PERFORMER "Scorpions"
    REM COMPOSER ""
    INDEX 01 20:38:69
  TRACK 07 AUDIO
    TITLE "Born to Be Wild"
    PERFORMER "Steppenwolf"
    REM COMPOSER ""
    INDEX 01 24:22:06
  TRACK 08 AUDIO
    TITLE "Smoke On the Water"
    PERFORMER "Deep Purple"
    REM COMPOSER ""
    INDEX 01 27:51:21
  TRACK 09 AUDIO
    TITLE "(Don't Fear) the Reaper"
    PERFORMER "Blue Oyster Cult"
    REM COMPOSER ""
    INDEX 01 33:26:48
  TRACK 10 AUDIO
    TITLE "Symphony of Destruction"
    PERFORMER "Megadeth"
    REM COMPOSER ""
    INDEX 01 37:15:38
  TRACK 11 AUDIO
    TITLE "Real Wild Child (Wild One)"
    PERFORMER "Iggy Pop"
    REM COMPOSER ""
    INDEX 01 41:22:26
  TRACK 12 AUDIO
    TITLE "White Wedding"
    PERFORMER "Billy Idol"
    REM COMPOSER ""
    INDEX 01 45:00:74
  TRACK 13 AUDIO
    TITLE "You Wear It Well"
    PERFORMER "Rod Stewart"
    REM COMPOSER ""
    INDEX 01 48:32:01
  TRACK 14 AUDIO
    TITLE "All Shook Up"
    PERFORMER "Paul McCartney"
    REM COMPOSER ""
    INDEX 01 52:54:29
  TRACK 15 AUDIO
    TITLE "Peaches"
    PERFORMER "Stranglers, The"
    REM COMPOSER ""
    INDEX 01 54:59:10
  TRACK 16 AUDIO
    TITLE "My Sharona"
    PERFORMER "Knack, The"
    REM COMPOSER ""
    INDEX 01 59:03:11
  TRACK 17 AUDIO
    TITLE "Hit Me With Your Best Shot"
    PERFORMER "Pat Benatar"
    REM COMPOSER ""
    INDEX 01 63:02:37
  TRACK 18 AUDIO
    TITLE "House of the Rising Sun"
    PERFORMER "Animals, The"
    REM COMPOSER ""
    INDEX 01 65:54:72
  TRACK 19 AUDIO
    TITLE "Going Underground"
    PERFORMER "Jam, The"
    REM COMPOSER ""
    INDEX 01 70:24:65
  TRACK 20 AUDIO
    TITLE "Teenage Kicks"
    PERFORMER "Undertones, The"
    REM COMPOSER ""
    INDEX 01 73:19:25

CD 3

Код:
REM GENRE Rock
REM DATE 2017
REM DISCID 13123A13
REM COMMENT "ExactAudioCopy v1.3"
PERFORMER "Various Artists"
TITLE "The Rock Album CD3"
REM COMPOSER ""
FILE "Various Artists - The Rock Album CD3.flac" WAVE
  TRACK 01 AUDIO
    TITLE "Pride"
    PERFORMER "U2"
    REM COMPOSER ""
    INDEX 00 00:00:00
    INDEX 01 00:01:00
  TRACK 02 AUDIO
    TITLE "Higher Ground"
    PERFORMER "Red Hot Chili Peppers"
    REM COMPOSER ""
    INDEX 01 03:48:35
  TRACK 03 AUDIO
    TITLE "Dakota"
    PERFORMER "Stereophonics"
    REM COMPOSER ""
    INDEX 01 07:09:55
  TRACK 04 AUDIO
    TITLE "I Believe in a Thing Called Love"
    PERFORMER "The Darkness"
    REM COMPOSER ""
    INDEX 01 12:07:12
  TRACK 05 AUDIO
    TITLE "Mr. Brightside"
    PERFORMER "The Killers"
    REM COMPOSER ""
    INDEX 00 15:43:47
    INDEX 01 15:43:63
  TRACK 06 AUDIO
    TITLE "Fly Away"
    PERFORMER "Lenny Kravitz"
    REM COMPOSER ""
    INDEX 01 19:25:73
  TRACK 07 AUDIO
    TITLE "Inside"
    PERFORMER "Stiltskin"
    REM COMPOSER ""
    INDEX 01 23:09:04
  TRACK 08 AUDIO
    TITLE "Cats in the Cradle"
    PERFORMER "Ugly Kid Joe"
    REM COMPOSER ""
    INDEX 01 28:21:69
  TRACK 09 AUDIO
    TITLE "Black Hole Sun"
    PERFORMER "Soundgarden"
    REM COMPOSER ""
    INDEX 01 32:26:24
  TRACK 10 AUDIO
    TITLE "No One Knows"
    PERFORMER "Queens of the Stone Age"
    REM COMPOSER ""
    INDEX 01 36:58:36
  TRACK 11 AUDIO
    TITLE "Don't Say No"
    PERFORMER "Billy Squier"
    REM COMPOSER ""
    INDEX 01 41:37:11
  TRACK 12 AUDIO
    TITLE "Heat of the Moment"
    PERFORMER "Asia"
    REM COMPOSER ""
    INDEX 01 44:58:09
  TRACK 13 AUDIO
    TITLE "Love Song"
    PERFORMER "Tesla"
    REM COMPOSER ""
    INDEX 01 48:49:44
  TRACK 14 AUDIO
    TITLE "Freebird"
    PERFORMER "Lynyrd Skynyrd"
    REM COMPOSER ""
    INDEX 01 52:54:37
  TRACK 15 AUDIO
    TITLE "Spirit of Radio"
    PERFORMER "Rush"
    REM COMPOSER ""
    INDEX 01 56:26:70
  TRACK 16 AUDIO
    TITLE "Rocky Mountain"
    PERFORMER "Joe Walsh"
    REM COMPOSER ""
    INDEX 01 61:23:42
  TRACK 17 AUDIO
    TITLE "Something in the Air  "
    PERFORMER "Thunderclap Newman"
    REM COMPOSER ""
    INDEX 01 65:04:05
  TRACK 18 AUDIO
    TITLE "Epic"
    PERFORMER "Faith No More"
    REM COMPOSER ""
    INDEX 01 68:56:72
  TRACK 19 AUDIO
    TITLE "Creep"
    PERFORMER "Radiohead"
    REM COMPOSER ""
    INDEX 01 73:48:29
--

_________________
Вне форума [Профиль] [ЛС]
Показать сообщения:    
Ответить на тему

Текущее время: Сегодня 13:14

Часовой пояс: GMT + 3



Вы не можете начинать темы
Вы не можете отвечать на сообщения
Вы не можете редактировать свои сообщения
Вы не можете удалять свои сообщения
Вы не можете голосовать в опросах
Вы не можете прикреплять файлы к сообщениям
Вы не можете скачивать файлы