Today is a free download without charge Download

Animal Planet: Остров гигантской акулы / Island Of The Mega Shark (2015) HDTV [H.264/1080i-LQ]

Reply to topic
 
Author
Message

RazBoyNik ®

Gender:

Longevity: 5 years 11 months

Posts: 388

Торрент-статистика

Post 06-Jul-2019 14:34

[Quote]

Остров гигантской акулы / Island Of The Mega Shark (2015) HDTV [H.264/1080i-LQ] - Год выпуска: 2015
Страна: США, Discovery for Animal Planet
Жанр: Документальный, природа, флора, фауна
Режиссер: Энди Кассагранде
Описание:
Тихоокеанский вулканический остров Гуадалупе — одно из лучших мест в мире для наблюдения за большими белыми акулами кархародонами. По свидетельству очевидцев там были замечены действительно крупные экземпляры, приплывающие к острову в ноябре. Специалисты по акулам, входящие в состав команды Дискавери, решили лично увидеть гигантских кархародонов и выяснить, действительно ли Гуадалупе — место сезонных встреч самок и самцов.
Продолжительность: 00:43:28
Качество видео: HDTV
Перевод: Одноголосый закадровый, профессиональный
Субтитры: отсутствуют
Видео: AVC/H.264, 1920x1080, ~8352 Kbps
Аудио#1: AC3, 6 ch, 384 Kbps | Русский
Аудио#2: AC3, 6 ch, 384 Kbps | Английский

Mediainfo:

Общее
Идентификатор : 1 (0x1)
Полное имя : F:\КИНО\Остров гигантской акулы_HDTV 1080i_RUS_ENG-dds.ts
Формат : MPEG-TS
Размер файла : 2,92 Гбайт
Продолжительность : 43 м. 28 с.
Режим общего битрейта : Переменный
Общий поток : 9603 Кбит/сек
Видео
Идентификатор : 202 (0xCA)
Идентификатор меню : 2202 (0x89A)
Формат : AVC
Формат/Информация : Advanced Video Codec
Профиль формата : [email protected]
Настройки формата : CABAC / 4 Ref Frames
Параметр CABAC формата : Да
Параметр RefFrames формата : 4 кадра
Идентификатор кодека : 27
Продолжительность : 43 м. 28 с.
Битрейт : 8352 Кбит/сек
Ширина : 1920 пикселей
Высота : 1080 пикселей
Соотношение сторон : 16:9
Частота кадров : 25,000 кадров/сек
Стандарт вещания : Component
Цветовое пространство : YUV
Субдискретизация насыщенности : 4:2:0
Битовая глубина : 8 бит
Тип развёртки : Чересстрочная
Метод сохранения типа развёртки : Раздельные поля
Порядок развёртки : Верхнее поле первое
Бит/(Пиксели*Кадры) : 0.161
Размер потока : 2,54 Гбайт (87%)
Цветовой диапазон : Limited
Основные цвета : BT.709
Характеристики трансфера : BT.709
Коэффициенты матрицы : BT.709
Аудио #1
Идентификатор : 302 (0x12E)
Идентификатор меню : 2202 (0x89A)
Формат : AC-3
Формат/Информация : Audio Coding 3
Коммерческое название : Dolby Digital
Идентификатор кодека : 6
Продолжительность : 43 м. 28 с.
Вид битрейта : Постоянный
Битрейт : 384 Кбит/сек
Каналы : 6 каналов
ChannelLayout : L R C LFE Ls Rs
Частота : 48,0 КГц
Частота кадров : 31,250 кадров/сек (1536 SPF)
Битовая глубина : 16 бит
Метод сжатия : С потерями
Размер потока : 119 Мбайт (4%)
Язык : Russian
ServiceKind/String : Complete Main
Аудио #2
Идентификатор : 402 (0x192)
Идентификатор меню : 2202 (0x89A)
Формат : AC-3
Формат/Информация : Audio Coding 3
Коммерческое название : Dolby Digital
Идентификатор кодека : 6
Продолжительность : 43 м. 28 с.
Вид битрейта : Постоянный
Битрейт : 384 Кбит/сек
Каналы : 6 каналов
ChannelLayout : L R C LFE Ls Rs
Частота : 48,0 КГц
Частота кадров : 31,250 кадров/сек (1536 SPF)
Битовая глубина : 16 бит
Метод сжатия : С потерями
Размер потока : 119 Мбайт (4%)
Язык : English
ServiceKind/String : Complete Main
Скриншоты:
       
Other forum [Profile] [PM]
Display posts from previous:    
Reply to topic

The time now is: Today 18:15

All times are GMT + 3 Hours



You cannot post new topics in this forum
You cannot reply to topics in this forum
You cannot edit your posts in this forum
You cannot delete your posts in this forum
You cannot vote in polls in this forum
You cannot attach files in this forum
You cannot download files in this forum