Today is a free download without charge Download

Animal Planet: Кубинская акула / Cuban Shark (2015) HDTV [H.264/1080i-LQ]

Reply to topic
 
Author
Message

RazBoyNik ®

Gender:

Longevity: 5 years 11 months

Posts: 388

Торрент-статистика

Post 06-Jul-2019 14:42

[Quote]

Animal Planet: Кубинская акула / Cuban Shark (2015) HDTV [H.264/1080i-LQ] - Год выпуска: 2015
Страна: США, Discovery for Animal Planet
Жанр: Документальный, природа, флора, фауна
Режиссер: Байрон Шах
Описание:
Исследователи канала Дискавери отправляются в новое увлекательное путешествие — на поиски популяции больших белых акул в малоизученных областях побережья Кубы. К уже сложившейся команде американских энтузиастов, фотографов, сценаристов и режиссёров присоединилось несколько кубинских учёных, с готовностью делящихся уже накопленными знаниями о местных акулах и среде их обитания.
Продолжительность: 00:44:03
Качество видео: HDTV
Перевод: Одноголосый закадровый, профессиональный
Субтитры: отсутствуют
Видео: AVC/H.264, 1920x1080, ~8117 Kbps
Аудио#1: AC3, 6 ch, 384 Kbps | Русский
Аудио#2: AC3, 6 ch, 384 Kbps | Английский

Mediainfo:

Общее
Идентификатор : 1 (0x1)
Полное имя : F:\КИНО\Кубинская акула_HDTV 1080i_RUS_ENG-dds.ts
Формат : MPEG-TS
Размер файла : 2,88 Гбайт
Продолжительность : 44 м. 3 с.
Режим общего битрейта : Переменный
Общий поток : 9356 Кбит/сек
Видео
Идентификатор : 202 (0xCA)
Идентификатор меню : 2202 (0x89A)
Формат : AVC
Формат/Информация : Advanced Video Codec
Профиль формата : [email protected]
Настройки формата : CABAC / 4 Ref Frames
Параметр CABAC формата : Да
Параметр RefFrames формата : 4 кадра
Идентификатор кодека : 27
Продолжительность : 44 м. 2 с.
Битрейт : 8117 Кбит/сек
Ширина : 1920 пикселей
Высота : 1080 пикселей
Соотношение сторон : 16:9
Частота кадров : 25,000 кадров/сек
Стандарт вещания : Component
Цветовое пространство : YUV
Субдискретизация насыщенности : 4:2:0
Битовая глубина : 8 бит
Тип развёртки : Чересстрочная
Метод сохранения типа развёртки : Раздельные поля
Порядок развёртки : Верхнее поле первое
Бит/(Пиксели*Кадры) : 0.157
Размер потока : 2,50 Гбайт (87%)
Цветовой диапазон : Limited
Основные цвета : BT.709
Характеристики трансфера : BT.709
Коэффициенты матрицы : BT.709
Аудио #1
Идентификатор : 302 (0x12E)
Идентификатор меню : 2202 (0x89A)
Формат : AC-3
Формат/Информация : Audio Coding 3
Коммерческое название : Dolby Digital
Идентификатор кодека : 6
Продолжительность : 44 м. 2 с.
Вид битрейта : Постоянный
Битрейт : 384 Кбит/сек
Каналы : 6 каналов
ChannelLayout : L R C LFE Ls Rs
Частота : 48,0 КГц
Частота кадров : 31,250 кадров/сек (1536 SPF)
Битовая глубина : 16 бит
Метод сжатия : С потерями
Задержка видео : -40 мс.
Размер потока : 121 Мбайт (4%)
Язык : Russian
ServiceKind/String : Complete Main
Аудио #2
Идентификатор : 402 (0x192)
Идентификатор меню : 2202 (0x89A)
Формат : AC-3
Формат/Информация : Audio Coding 3
Коммерческое название : Dolby Digital
Идентификатор кодека : 6
Продолжительность : 44 м. 2 с.
Вид битрейта : Постоянный
Битрейт : 384 Кбит/сек
Каналы : 6 каналов
ChannelLayout : L R C LFE Ls Rs
Частота : 48,0 КГц
Частота кадров : 31,250 кадров/сек (1536 SPF)
Битовая глубина : 16 бит
Метод сжатия : С потерями
Задержка видео : -40 мс.
Размер потока : 121 Мбайт (4%)
Язык : English
ServiceKind/String : Complete Main
Скриншоты:
       
Other forum [Profile] [PM]
Display posts from previous:    
Reply to topic

The time now is: Today 05:28

All times are GMT + 3 Hours



You cannot post new topics in this forum
You cannot reply to topics in this forum
You cannot edit your posts in this forum
You cannot delete your posts in this forum
You cannot vote in polls in this forum
You cannot attach files in this forum
You cannot download files in this forum