Today is a free download without charge Download

Animal Planet. Человек и львы (История одного сафари) / The Lion Man: One World African Safari (2013) HDTVRip [H.264/720p-LQ] (серии 1-10 из 10)

Reply to topic
 
Author
Message

RazBoyNik ®

Gender:

Longevity: 6 years 1 month

Posts: 388

Торрент-статистика

Post 15-Jul-2019 10:25

[Quote]

Человек и львы (История одного сафари) / The Lion Man: One World African Safari (2013) HDTVRip [H.264/720p-LQ] (серии 1-10 из 10) - Год выпуска: 2013
Страна: США, One World Pictures, New Visions Pictures, Animal Planet
Жанр: Документальный, природа, флора, фауна
Режиссер: Грэм Свейнпол
Участники: Крейг Буш
Описание:
Крейг Буш вырос на ферме и сам научился всем премудростям общения с большими кошками. Крейг помогает ловить браконьеров и бороться с лесными пожарами. В заповеднике под Йоханнесбургом он создал рай для редких представителей кошачьих: белых бенгальских тигров, барбарийских львов и белых львов. Крейг Буш вместе с группой энтузиастов, посвятивших свою жизнь животным, ищет пропавших гепардов, лечит безнадёжно больных тигров, выслеживает безжалостных убийц-охотников на носорогов. Параллельно, он по всему миру собирает единомышленников (среди них и "человек-волк" Шон Эллис). Крейг взял к себе и выкормил осиротевшего белого львёнка по кличке Джабулла, поставил на ноги несколько барбарийских львят. Он ездит по миру, предлагая котят на обмен, чтобы улучшить генетику редчайших кошек, которых Крейг помог спасти от полного исчезновения.
Продолжительность: серии x ~ 00:22:00
Качество видео: HDTVRip
Перевод: Одноголосый закадровый, профессиональный (АРК-ТВ)
Субтитры: отсутствуют
Видео: AVC/H.264, 1280x720, ~4766 Kbps
Аудио: AC3, 6 ch, 384 Kbps (читает: А. Гаврилин, А. Целенков (5-я серия) )

Mediainfo: (тех. данные всех серий идентичны)

Общее
Уникальный идентификатор : 240128756246278856545646055123810152176 (0xB4A71DC05A419D71BC884226D8EA6EF0)
Полное имя : F:\КИНО\Человек и львы - история одного сафари\The Lionman - African Safari. Episode 05 (Rus-AC3, HDTVRip-720p, h264) [2013].mkv
Формат : Matroska
Версия формата : Version 4
Размер файла : 796 Мбайт
Продолжительность : 21 м. 38 с.
Общий поток : 5145 Кбит/сек
Название фильма : The Lionman - African Safari. Episode 05
Дата кодирования : UTC 2013-11-19 12:55:35
Программа кодирования : mkvmerge v6.5.0 ('Isn't she lovely') built on Oct 20 2013 12:50:05
Библиотека кодирования : libebml v1.3.0 + libmatroska v1.4.1
Видео
Идентификатор : 1
Формат : AVC
Формат/Информация : Advanced Video Codec
Профиль формата : [email protected]
Настройки формата : CABAC / 4 Ref Frames
Параметр CABAC формата : Да
Параметр RefFrames формата : 4 кадра
Идентификатор кодека : V_MPEG4/ISO/AVC
Продолжительность : 21 м. 38 с.
Битрейт : 4766 Кбит/сек
Ширина : 1280 пикселей
Высота : 720 пикселей
Соотношение сторон : 16:9
Режим частоты кадров : Постоянный
Частота кадров : 25,000 кадров/сек
Цветовое пространство : YUV
Субдискретизация насыщенности : 4:2:0
Битовая глубина : 8 бит
Тип развёртки : Прогрессивная
Бит/(Пиксели*Кадры) : 0.207
Размер потока : 721 Мбайт (91%)
Заголовок : The Lionman - African Safari. Episode 05
Библиотека кодирования : x264 core 129 r2245 bc13772
Настройки программы : cabac=1 / ref=3 / deblock=1:0:0 / analyse=0x3:0x113 / me=umh / subme=10 / psy=1 / psy_rd=1.00:0.00 / mixed_ref=1 / me_range=26 / chroma_me=1 / trellis=2 / 8x8dct=1 / cqm=0 / deadzone=21,11 / fast_pskip=1 / chroma_qp_offset=-2 / threads=6 / lookahead_threads=1 / sliced_threads=0 / nr=0 / decimate=1 / interlaced=0 / bluray_compat=0 / constrained_intra=0 / bframes=3 / b_pyramid=2 / b_adapt=1 / b_bias=0 / direct=3 / weightb=1 / open_gop=0 / weightp=2 / keyint=250 / keyint_min=25 / scenecut=40 / intra_refresh=0 / rc_lookahead=40 / rc=2pass / mbtree=1 / bitrate=4766 / ratetol=1.0 / qcomp=0.60 / qpmin=0 / qpmax=69 / qpstep=4 / cplxblur=20.0 / qblur=0.5 / ip_ratio=1.40 / aq=1:1.00
Язык : English
Default : Да
Forced : Нет
Аудио
Идентификатор : 2
Формат : AC-3
Формат/Информация : Audio Coding 3
Коммерческое название : Dolby Digital
Идентификатор кодека : A_AC3
Продолжительность : 21 м. 38 с.
Вид битрейта : Постоянный
Битрейт : 384 Кбит/сек
Каналы : 6 каналов
Channel layout : L R C LFE Ls Rs
Частота : 48,0 КГц
Частота кадров : 31,250 кадров/сек (1536 SPF)
Битовая глубина : 16 бит
Метод сжатия : С потерями
Размер потока : 59,4 Мбайт (7%)
Заголовок : Александр Гаврилин
Язык : Russian
ServiceKind/String : Complete Main
Default : Да
Forced : Нет
Скриншоты:
       
Other forum [Profile] [PM]
Display posts from previous:    
Reply to topic

The time now is: Today 06:27

All times are GMT + 3 Hours



You cannot post new topics in this forum
You cannot reply to topics in this forum
You cannot edit your posts in this forum
You cannot delete your posts in this forum
You cannot vote in polls in this forum
You cannot attach files in this forum
You cannot download files in this forum