Today is a free download without charge Download

Илон Маск: Настоящий железный человек / Elon Musk: The Real Life Iron Man (2018) WEB-DLRip

Reply to topic
 
Author
Message

Clavik ®

Gender:

Longevity: 6 years 1 month

Posts: 2257

Location: Украина

Торрент-статистика

Post 11-Sep-2019 17:25

[Quote]

Илон Маск: Настоящий железный человек / Elon Musk: The Real Life Iron Man (2018) WEB-DLRip - Производство: Великобритания, Premiere Picture, SEIS Reel
Жанр: Документальный, биография
Режиссер: Соня Андерсон
Участники: Илон Маск, Эмбер Хёрд, Талула Райли, Кэри Купер, Даниэла Альберс, Джули Андерсон Аскенбрандт, Ричард Брэнсон, Сара Круддас, Стив Фаулер, Дэвид Айк
Описание:
История жизни и достижений одного из самых ярких людей нынешнего столетия - изобретателя, предпринимателя, филантропа и безудержного мечтателя. Родившийся в Южной Африке в семье простого инженера и фотомодели, Илон Маск за свои 48 лет успел основать около десятка успешных инновационных компаний, с нуля заработать на своих идеях несколько десятков миллиардов долларов, трижды жениться, стать отцом пятерых детей... И он не сомневается, что его SpaceX совершит пилотируемый полет на Марс не позднее 2025 года.

Релиз от: iTunes
Продолжительность: 01:14:17
Качество видео: WEB-DLRip
Перевод: Многоголосый закадровый, профессиональный (Мосфильм-Мастер)
Субтитры: отсутствуют
Видео: XviD, 688x384, ~1896 Kbps
Аудио: AC3, 2 ch, 192 Kbps

Mediainfo:

Общее
Полное имя : F:\КИНО\Илон Маск.Настоящий железный человек_2018_WEB-DLRip.avi
Формат : AVI
Формат/Информация : Audio Video Interleave
Размер файла : 1,09 Гбайт
Продолжительность : 1 ч. 14 м.
Общий поток : 2098 Кбит/сек
Название фильма : Илон Маск.Настоящий железный человек_2018_WEB-DLRip
Программа кодирования : VirtualDubMod 1.5.10.3 | www.virtualdub-fr.org || (build 2550/release)
Авторское право : порошков
Видео
Идентификатор : 0
Формат : MPEG-4 Visual
Профиль формата : Advanced [email protected]
Настройки формата : BVOP1 / Custom Matrix
Параметр BVOP формата : 1
Параметр QPel формата : Нет
Параметр GMC формата : Без точки перехода
Параметр матрицы формата : Выборочная
Идентификатор кодека : XVID
Идентификатор кодека/Подсказка : XviD
Продолжительность : 1 ч. 14 м.
Битрейт : 1897 Кбит/сек
Ширина : 688 пикселей
Высота : 384 пикселя
Соотношение сторон : 16:9
Частота кадров : 24,000 кадра/сек
Цветовое пространство : YUV
Субдискретизация насыщенности : 4:2:0
Битовая глубина : 8 бит
Тип развёртки : Прогрессивная
Метод сжатия : С потерями
Бит/(Пиксели*Кадры) : 0.299
Размер потока : 1008 Мбайт (90%)
Библиотека кодирования : XviD 73
Аудио
Идентификатор : 1
Формат : AC-3
Формат/Информация : Audio Coding 3
Коммерческое название : Dolby Digital
Идентификатор кодека : 2000
Продолжительность : 1 ч. 14 м.
Вид битрейта : Постоянный
Битрейт : 192 Кбит/сек
Каналы : 2 канала
ChannelLayout : L R
Частота : 48,0 КГц
Частота кадров : 31,250 кадров/сек (1536 SPF)
Битовая глубина : 16 бит
Метод сжатия : С потерями
Размер потока : 102 Мбайт (9%)
Выравнивание : Разделение по промежуткам
Продолжительность промежутка : 42 мс. (1,00 видеокадр)
Время предзагрузки промежутка : 500 мс.
ServiceKind/String : Complete Main
Скриншоты:
       

_________________


Other forum [Profile] [PM]
Display posts from previous:    
Reply to topic

The time now is: Today 23:40

All times are GMT + 3 Hours



You cannot post new topics in this forum
You cannot reply to topics in this forum
You cannot edit your posts in this forum
You cannot delete your posts in this forum
You cannot vote in polls in this forum
You cannot attach files in this forum
You cannot download files in this forum