Today is a free download without charge Download

Отпетые мошенницы / The Hustle (Крис Эддисон) [2019, Комедия, BDRip-AVC] [DUB] [Лицензия]

Reply to topic
 
Author
Message

Орлов Владимир ®

Gender:

Longevity: 1 month 11 days

Posts: 109

Location: Россия , Долгопрудный, Моск.обл

Торрент-статистика

Post 12-Sep-2019 01:57

[Quote]

-- Отпетые мошенницы / The Hustle (Крис Эддисон) [2019, Комедия, BDRip-AVC] [DUB] [Лицензия]-- Информация о фильме
Название: Отпетые мошенницы
Оригинальное название: The Hustle
Год выпуска: 2019
Страна: США
Производство: Metro-Goldwyn-Mayer (MGM), Camp Sugar, Cave 76
Жанр: Комедия--Режиссёр: Крис Эддисон
В ролях: Энн Хэтэуэй, Ребел Уилсон, Алекс Шарп, Ингрид Оливер, Эмма Дейвис, Дин Норрис, Тимоти С. Саймонс, Дуги МакМикин, Эшли МакГуайр, Каспер Кристенсен, Элуиз Ловелл Андерсон, Филип Десмюль, Жарро Антуан, Николас Вудесон, Селин Абрахамс, Раффаэлло Дегруттола, Гай Уоррен-Томас, Мина Райанн---Перевод: Дублированный | [Лицензия]
Субтитры: Русские (форс., полные), Английские (полные)--Описание: Как стать успешной мошенницей? Всегда будь во всеоружии: высокие каблуки, яркая помада и главное — утягивающее белье. Будь готова расплакаться в любой момент. Ни один мужчина не устоит перед женскими слезами. Бери все, что «плохо лежит» и хорошо блестит. За каждым миллионом может скрываться миллиард. Не откажи себе в удовольствии проверить.-- --Качество: BDRip-AVC | BDRemux | The.Hustle.2019.1080p.BluRay.REMUX.AVC.DTS-HD.MA.7.1-FGT
Продолжительность: 01:33:57--Формат: MKV
Видео кодек: MPEG-4 AVC
Аудио кодек: AC3
Видео: 1024x428 (2.40:1), 23,976 fps, x264 ~1 823 kbps avg, 0.173 bit/pixel
Аудио #1: 48 kHz, AC3 Dolby Digital Plus, 3/2 (L,C,R,l,r) + LFE ch, ~448.00 kbps avg | RUS (Лицензия)
Аудио #2: 48 kHz, AC3 Dolby Digital Plus, 3/2 (L,C,R,l,r) + LFE ch, ~448.00 kbps avg | ENG--Дата премьеры (мир): 8 мая 2019
Дата премьеры (РФ): 10 мая 2019, «UPI»
Цифровой релиз: 2 сентября 2019, «Universal»--

Тех.данные видеофайла

Общее
Уникальный идентификатор : 274569099101991870738350415589461661363 (0xCE9015C1035698B5D0C9AB54E6A716B3)
Полное имя : F:\OlLanDGroup\The.Hustle.2019.BDRip(AVC).OllanDGroup.mkv
Формат : Matroska
Версия формата : Version 4 / Version 2
Размер файла : 1,79 Гбайт
Продолжительность : 1 ч. 33 м.
Общий поток : 2721 Кбит/сек
Название фильма : The.Hustle.2019 #TorpedoUK#
Дата кодирования : UTC 2019-09-11 12:25:18
Программа кодирования : mkvmerge v29.0.0 ('Like It Or Not') 64-bit
Библиотека кодирования : libebml v1.3.6 + libmatroska v1.4.9
Видео
Идентификатор : 1
Формат : AVC
Формат/Информация : Advanced Video Codec
Профиль формата : [email protected]
Параметр CABAC формата : Да
Параметр ReFrames формата : 10 кадров
Идентификатор кодека : V_MPEG4/ISO/AVC
Продолжительность : 1 ч. 33 м.
Битрейт : 1823 Кбит/сек
Ширина : 1024 пикселя
Высота : 428 пикселей
Соотношение сторон : 2,40:1
Режим частоты кадров : Постоянный
Частота кадров : 23,976 (24000/1001) кадра/сек
Цветовое пространство : YUV
Субдискретизация насыщенности : 4:2:0
Битовая глубина : 8 бит
Тип развёртки : Прогрессивная
Бит/(Пиксели*Кадры) : 0.173
Размер потока : 1,20 Гбайт (67%)
Библиотека кодирования : x264 core 146 r2538 121396c
Настройки программы : cabac=1 / ref=10 / deblock=1:-3:-3 / analyse=0x3:0x113 / me=umh / subme=11 / psy=1 / psy_rd=0.99:0.04 / mixed_ref=1 / me_range=48 / chroma_me=1 / trellis=2 / 8x8dct=1 / cqm=0 / deadzone=21,11 / fast_pskip=1 / chroma_qp_offset=-3 / threads=6 / lookahead_threads=1 / sliced_threads=0 / nr=0 / decimate=1 / interlaced=0 / bluray_compat=0 / constrained_intra=0 / bframes=11 / b_pyramid=2 / b_adapt=2 / b_bias=0 / direct=3 / weightb=1 / open_gop=0 / weightp=2 / keyint=240 / keyint_min=23 / scenecut=40 / intra_refresh=0 / rc_lookahead=40 / rc=2pass / mbtree=0 / bitrate=1823 / ratetol=1.0 / qcomp=0.60 / qpmin=0 / qpmax=69 / qpstep=4 / cplxblur=20.0 / qblur=0.5 / vbv_maxrate=50000 / vbv_bufsize=62500 / nal_hrd=none / filler=0 / ip_ratio=1.40 / pb_ratio=1.30 / aq=1:1.00
Язык : English
Default : Да
Forced : Нет
Аудио #1
Идентификатор : 2
Формат : AC-3
Формат/Информация : Audio Coding 3
Расширение режима : CM (complete main)
Параметр Endianness формата : Big
Идентификатор кодека : A_AC3
Продолжительность : 1 ч. 33 м.
Вид битрейта : Постоянный
Битрейт : 448 Кбит/сек
Каналы : 6 каналов
Расположение каналов : Front: L C R, Side: L R, LFE
Частота : 48,0 КГц
Частота кадров : 31,250 кадров/сек (1536 spf)
Битовая глубина : 16 бит
Метод сжатия : С потерями
Размер потока : 301 Мбайт (16%)
Заголовок : DUB [License]
Язык : Russian
Default : Да
Forced : Нет
Аудио #2
Идентификатор : 3
Формат : AC-3
Формат/Информация : Audio Coding 3
Расширение режима : CM (complete main)
Параметр Endianness формата : Big
Идентификатор кодека : A_AC3
Продолжительность : 1 ч. 33 м.
Вид битрейта : Постоянный
Битрейт : 448 Кбит/сек
Каналы : 6 каналов
Расположение каналов : Front: L C R, Side: L R, LFE
Частота : 48,0 КГц
Частота кадров : 31,250 кадров/сек (1536 spf)
Битовая глубина : 16 бит
Метод сжатия : С потерями
Размер потока : 301 Мбайт (16%)
Заголовок : [Original]
Язык : English
Default : Нет
Forced : Нет
Текст #1
Идентификатор : 4
Формат : UTF-8
Идентификатор кодека : S_TEXT/UTF8
Идентификатор кодека/Информация : UTF-8 Plain Text
Продолжительность : 1 ч. 27 м.
Битрейт : 1 бит/сек
Count of elements : 31
Размер потока : 1,09 Кбайт (0%)
Заголовок : Forced
Язык : Russian
Default : Да
Forced : Нет
Текст #2
Идентификатор : 5
Формат : UTF-8
Идентификатор кодека : S_TEXT/UTF8
Идентификатор кодека/Информация : UTF-8 Plain Text
Продолжительность : 1 ч. 32 м.
Битрейт : 109 бит/сек
Count of elements : 1619
Размер потока : 74,1 Кбайт (0%)
Заголовок : Full
Язык : Russian
Default : Нет
Forced : Нет
Текст #3
Идентификатор : 6
Формат : UTF-8
Идентификатор кодека : S_TEXT/UTF8
Идентификатор кодека/Информация : UTF-8 Plain Text
Продолжительность : 1 ч. 32 м.
Битрейт : 72 бит/сек
Count of elements : 1781
Размер потока : 49,4 Кбайт (0%)
Заголовок : Full
Язык : English
Default : Нет
Forced : Нет
Меню
00:00:00.000 : en:Chapter 01
00:05:58.858 : en:Chapter 02
00:09:56.053 : en:Chapter 03
00:15:29.553 : en:Chapter 04
00:21:12.646 : en:Chapter 05
00:25:19.851 : en:Chapter 06
00:32:26.903 : en:Chapter 07
00:37:56.607 : en:Chapter 08
00:41:51.300 : en:Chapter 09
00:44:55.818 : en:Chapter 10
00:49:56.326 : en:Chapter 11
00:54:34.896 : en:Chapter 12
00:59:16.261 : en:Chapter 13
01:02:15.898 : en:Chapter 14
01:06:47.586 : en:Chapter 15
01:09:58.152 : en:Chapter 16
01:15:16.178 : en:Chapter 17
01:21:37.058 : en:Chapter 18
01:28:58.833 : en:Chapter 19
01:32:27.041 : en:Chapter 20

Скриншоты

   
       

_________________

Other forum [Profile] [PM]
Display posts from previous:    
Reply to topic

The time now is: Today 20:21

All times are GMT + 3 Hours



You cannot post new topics in this forum
You cannot reply to topics in this forum
You cannot edit your posts in this forum
You cannot delete your posts in this forum
You cannot vote in polls in this forum
You cannot attach files in this forum
You cannot download files in this forum