Today is a free download without charge Download

Детские игры / Child's Play (Ларс Клевберг) [2019, Ужасы, WEB-DLRip-AVC] [DUB] [iTunes]

Reply to topic
 
Author
Message

Орлов Владимир ®

Gender:

Longevity: 1 month 9 days

Posts: 109

Location: Россия , Долгопрудный, Моск.обл

Торрент-статистика

Post 12-Sep-2019 15:20

[Quote]

--Детские игры / Child's Play (Ларс Клевберг) [2019, Ужасы, WEB-DLRip-AVC] [DUB] [iTunes]-- Информация о фильме
Название: Детские игры
Оригинальное название: Child's Play
Год выпуска
: 2019
Страна: Франция, Канада, США
Производство: Orion Pictures, BRON Studios, Bron Creative
Жанр: Ужасы
--Режиссёр: Ларс Клевберг
В ролях: Гэбриел Бейтман, Обри Плаза, Марк Хэмилл, Брайан Тайри Генри, Тим Мэтисон, Дэвид Льюис, Ти Консильо, Марлон Казади, Беатрис Китсос, Ханна Дрю, Трент Редекоп, Эмбер Тейлор, Карлис Бёрк, Николь Энтони, Джонсон Фэн, Кристин Йорк, Миа Белла, Амро Майзуб, Вину Сандху, Оливия Пун, Кеннет Тайнен
--Перевод: Дублированный [iTunes]
Субтитры: Нет
--Описание: Карэн со своим тринадцатилетним сыном Энди недавно переехали в другой город. Мальчику довольно сложно обзавестись компанией друзей из-за своей природной стеснительности. Мама видит, что сын находится постоянно в одиночестве и принимает решение купить ему куклу. Карэн надеется, что ее мальчику станет проще заводить себе друзей. Куклу называют Чаки. Но внезапно Энди замечает, что игрушка странно себя ведет...-- --Качество: WEB-DLRip-AVC AMZN Version
Продолжительность: 01:29:59
--Формат: MKV
Видео кодек: MPEG-4 AVC
Аудио кодек: AC3
Видео: 1024x434 (2.35:1), 23,976 fps, x264 ~1 955 kbps avg, 0.183 bit/pixel
Аудио: 48 kHz, AC3 Dolby Digital, 3/2 (L,C,R,l,r) + LFE ch, ~384.00 kbps avg | RUS (iTunes)
--Дата премьеры (мир): 18 июня 2019
Дата премьеры (РФ): 20 июня 2019, «Централ Партнершип»
--

Тех.данные видеофайла

Общее
Уникальный идентификатор: 315840122826912278884703558483587521233 (0xED9C98532C74CC34826DCA28FC025AD1)
Полное имя: F:\OlLanDGroup\Childs.Play.2019.AMZN.WEB-DLRip(AVC).OlLanDGroup.mkv
Формат: Matroska
Версия формата: Version 4 / Version 2
Размер файла: 1,47 Гбайт
Продолжительность: 1 ч. 29 м.
Общий поток: 2338 Кбит/сек
Название фильма: Childs Play 2019 #TorpedoUK#
Дата кодирования: UTC 2019-09-12 09:16:11
Программа кодирования: mkvmerge v29.0.0 ('Like It Or Not') 64-bit
Библиотека кодирования: libebml v1.3.6 + libmatroska v1.4.9
Видео
Идентификатор: 1
Формат: AVC
Формат/Информация: Advanced Video Codec
Профиль формата: [email protected]
Параметр CABAC формата: Да
Параметр ReFrames формата: 10 кадров
Идентификатор кодека: V_MPEG4/ISO/AVC
Продолжительность: 1 ч. 29 м.
Битрейт: 1955 Кбит/сек
Ширина: 1024 пикселя
Высота: 434 пикселя
Соотношение сторон: 2,35:1
Режим частоты кадров: Постоянный
Частота кадров: 23,976 (24000/1001) кадра/сек
Цветовое пространство: YUV
Субдискретизация насыщенности: 4:2:0
Битовая глубина: 8 бит
Тип развёртки: Прогрессивная
Бит/(Пиксели*Кадры): 0.183
Размер потока: 1,23 Гбайт (84%)
Библиотека кодирования: x264 core 146 r2538 121396c
Настройки программы: cabac=1 / ref=10 / deblock=1:-2:-3 / analyse=0x3:0x113 / me=umh / subme=10 / psy=1 / psy_rd=0.95:0.07 / mixed_ref=1 / me_range=48 / chroma_me=1 / trellis=2 / 8x8dct=1 / cqm=0 / deadzone=21,11 / fast_pskip=1 / chroma_qp_offset=-6 / threads=6 / lookahead_threads=1 / sliced_threads=0 / nr=0 / decimate=1 / interlaced=0 / bluray_compat=0 / constrained_intra=0 / bframes=11 / b_pyramid=2 / b_adapt=2 / b_bias=0 / direct=3 / weightb=1 / open_gop=0 / weightp=2 / keyint=240 / keyint_min=23 / scenecut=40 / intra_refresh=0 / rc_lookahead=40 / rc=2pass / mbtree=0 / bitrate=1955 / ratetol=1.0 / qcomp=0.60 / qpmin=0 / qpmax=69 / qpstep=4 / cplxblur=20.0 / qblur=0.5 / vbv_maxrate=50000 / vbv_bufsize=62500 / nal_hrd=none / filler=0 / ip_ratio=1.40 / pb_ratio=1.30 / aq=1:1.00
Язык: English
Default: Да
Forced: Нет
Аудио
Идентификатор: 2
Формат: AC-3
Формат/Информация: Audio Coding 3
Расширение режима: CM (complete main)
Параметр Endianness формата: Big
Идентификатор кодека: A_AC3
Продолжительность: 1 ч. 29 м.
Вид битрейта: Постоянный
Битрейт: 384 Кбит/сек
Каналы: 6 каналов
Расположение каналов: Front: L C R, Side: L R, LFE
Частота: 48,0 КГц
Частота кадров: 31,250 кадров/сек (1536 spf)
Битовая глубина: 16 бит
Метод сжатия: С потерями
Размер потока: 247 Мбайт (16%)
Заголовок: iTunes
Язык: Russian
Default: Да
Forced: Да

Скриншоты

           

_________________

Other forum [Profile] [PM]
Display posts from previous:    
Reply to topic

The time now is: Today 18:33

All times are GMT + 3 Hours



You cannot post new topics in this forum
You cannot reply to topics in this forum
You cannot edit your posts in this forum
You cannot delete your posts in this forum
You cannot vote in polls in this forum
You cannot attach files in this forum
You cannot download files in this forum