Today is a free download without charge Download

VA - Now That's What I Call Music! 71 (2019) [FLAC|Lossless|tracks + .cue] <Pop, Dance>

Reply to topic
 
Author
Message

Clavik ®

Gender:

Longevity: 6 years 2 months

Posts: 2363

Location: Украина

Торрент-статистика

Post 12-Sep-2019 18:06

[Quote]

VA - Now That's What I Call Music! 71 (2019) - Жанр: Pop, Dance
Издание: Universal Music Group - 0886447824412
Релиз состоялся: 02.08.2019
Продолжительность: 01:00:56
Кодек: FLAC
Битрейт: Lossless
Тип рипа: tracks + .cue
Источник (релизер): ccdd00
Наличие сканов: cover-Описание:В августе 2019 г. вышел очередной сборник новинок из топов США (и немножко Великобритании). Не путайте с такой же серией из UK. Здесь действительно собрали всех тех исполнителей, которые занимали верхние строчки таблицы популярности на протяжении последних нескольких месяцев. Официальные клипы первых пяти треков можете посмотреть внизу. А теперь наслаждайтесь хорошей музыкой...-Треклист:
01. Jonas Brothers - Sucker (2:59)
02. Shawn Mendes - If I Can't Have You (3:09)
03. Ariana Grande - break up with your girlfriend, i'm bored (3:08)
04. Ava Max - Sweet But Psycho (3:04)
05. Billie Eilish - Bad Guy (3:11)
06. Post Malone feat. Roddy Ricch & Tyga - Wow. (Remix) (2:47)
07. Lil Nas X feat. Billy Ray Cyrus - Old Town Road (Remix) (2:35)
08. Khalid - Talk (3:14)
09. Katy Perry - Never Really Over (3:42)
10. 5 Seconds Of Summer - Easier (2:37)
11. The Chainsmokers & Bebe Rexha - Call You Mine (3:36)
12. Lizzo - Juice (3:15)
13. DJ Khaled feat. SZA - Just Us (3:41)
14. Dean Lewis - Be Alright (3:15)
15. Lewis Capaldi - Someone You Loved (3:00)
16. Dan + Shay - Speechless (3:35)
17. Freya Ridings - Lost Without You (3:44)
19. Muna - Number One Fan (3:22)
20. David Francisco - Lionheart (3:02)

Отчёт EAC&#58;

Exact Audio Copy V1.3 from 2. September 2016
EAC extraction logfile from 16. August 2019, 7:56
Various Artists / Now That's What I Call Music! 71
Used drive : HL-DT-STDVDRAM GP65NB60 Adapter: 1 ID: 0
Read mode : Secure
Utilize accurate stream : Yes
Defeat audio cache : Yes
Make use of C2 pointers : No
Read offset correction : 6
Overread into Lead-In and Lead-Out : No
Fill up missing offset samples with silence : Yes
Delete leading and trailing silent blocks : No
Null samples used in CRC calculations : Yes
Used interface : Installed external ASPI interface
Gap handling : Appended to previous track
Used output format : User Defined Encoder
Selected bitrate : 1024 kBit/s
Quality : High
Add ID3 tag : No
Command line compressor : C:\Program Files (x86)\Exact Audio Copy\Flac\flac.exe
Additional command line options : -8 -V -T "ARTIST=%artist%" -T "TITLE=%title%" -T "ALBUM=%albumtitle%" -T "DATE=%year%" -T "TRACKNUMBER=%tracknr%" -T "GENRE=%genre%" -T "PERFORMER=%albuminterpret%" -T "COMPOSER=%composer%" %haslyrics%--tag-from-file=LYRICS="%lyricsfile%"%haslyrics% -T "ALBUMARTIST=%albumartist%" -T "DISCNUMBER=%cdnumber%" -T "TOTALDISCS=%totalcds%" -T "TOTALTRACKS=%numtracks%" -T "COMMENT=%comment%" %source% -o %dest%
TOC of the extracted CD
Track | Start | Length | Start sector | End sector
---------------------------------------------------------
1 | 0:00.00 | 2:58.71 | 0 | 13420
2 | 2:58.71 | 3:09.33 | 13421 | 27628
3 | 6:08.29 | 3:08.01 | 27629 | 41729
4 | 9:16.30 | 3:04.14 | 41730 | 55543
5 | 12:20.44 | 3:11.17 | 55544 | 69885
6 | 15:31.61 | 2:46.73 | 69886 | 82408
7 | 18:18.59 | 2:35.29 | 82409 | 94062
8 | 20:54.13 | 3:13.67 | 94063 | 108604
9 | 24:08.05 | 3:42.33 | 108605 | 125287
10 | 27:50.38 | 2:36.63 | 125288 | 137050
11 | 30:27.26 | 3:35.66 | 137051 | 153241
12 | 34:03.17 | 3:14.47 | 153242 | 167838
13 | 37:17.64 | 3:40.46 | 167839 | 184384
14 | 40:58.35 | 3:14.72 | 184385 | 199006
15 | 44:13.32 | 2:59.63 | 199007 | 212494
16 | 47:13.20 | 3:35.19 | 212495 | 228638
17 | 50:48.39 | 3:43.39 | 228639 | 245402
18 | 54:32.03 | 2:57.60 | 245403 | 258737
19 | 57:29.63 | 3:21.61 | 258738 | 273873
20 | 60:51.49 | 3:02.09 | 273874 | 287532
Track 1
Filename C:\temp\Now That's What I Call Music! 71\01 - Jonas Brothers - Sucker.wav
Pre-gap length 0:00:02.00
Peak level 97.7 %
Extraction speed 1.0 X
Track quality 99.9 %
Test CRC 96772267
Copy CRC 96772267
Track not present in AccurateRip database
Copy OK
Track 2
Filename C:\temp\Now That's What I Call Music! 71\02 - Shawn Mendes - If I Can't Have You.wav
Peak level 85.7 %
Extraction speed 1.3 X
Track quality 100.0 %
Test CRC 98A97E61
Copy CRC 98A97E61
Track not present in AccurateRip database
Copy OK
Track 3
Filename C:\temp\Now That's What I Call Music! 71\03 - Ariana Grande - break up with your girlfriend, i'm bored.wav
Peak level 99.8 %
Extraction speed 1.4 X
Track quality 100.0 %
Test CRC EA536373
Copy CRC EA536373
Track not present in AccurateRip database
Copy OK
Track 4
Filename C:\temp\Now That's What I Call Music! 71\04 - Ava Max - Sweet But Psycho.wav
Peak level 99.8 %
Extraction speed 1.4 X
Track quality 100.0 %
Test CRC B155E9FF
Copy CRC B155E9FF
Track not present in AccurateRip database
Copy OK
Track 5
Filename C:\temp\Now That's What I Call Music! 71\05 - Billie Eilish - Bad Guy.wav
Peak level 99.0 %
Extraction speed 1.3 X
Track quality 99.9 %
Test CRC 4F9CCFF7
Copy CRC 4F9CCFF7
Track not present in AccurateRip database
Copy OK
Track 6
Filename C:\temp\Now That's What I Call Music! 71\06 - Post Malone feat. Roddy Ricch & Tyga - Wow. (Remix).wav
Peak level 98.8 %
Extraction speed 1.3 X
Track quality 99.9 %
Test CRC 315CDA26
Copy CRC 315CDA26
Track not present in AccurateRip database
Copy OK
Track 7
Filename C:\temp\Now That's What I Call Music! 71\07 - Lil Nas X feat. Billy Ray Cyrus - Old Town Road (Remix).wav
Peak level 99.2 %
Extraction speed 1.4 X
Track quality 99.9 %
Test CRC E5E40099
Copy CRC E5E40099
Track not present in AccurateRip database
Copy OK
Track 8
Filename C:\temp\Now That's What I Call Music! 71\08 - Khalid - Talk.wav
Peak level 98.8 %
Extraction speed 1.5 X
Track quality 99.9 %
Test CRC FD434FC6
Copy CRC FD434FC6
Track not present in AccurateRip database
Copy OK
Track 9
Filename C:\temp\Now That's What I Call Music! 71\09 - Katy Perry - Never Really Over.wav
Peak level 98.3 %
Extraction speed 1.6 X
Track quality 99.9 %
Test CRC 1EF51929
Copy CRC 1EF51929
Track not present in AccurateRip database
Copy OK
Track 10
Filename C:\temp\Now That's What I Call Music! 71\10 - 5 Seconds Of Summer - Easier.wav
Peak level 99.8 %
Extraction speed 1.8 X
Track quality 100.0 %
Test CRC 65077DB7
Copy CRC 65077DB7
Track not present in AccurateRip database
Copy OK
Track 11
Filename C:\temp\Now That's What I Call Music! 71\11 - The Chainsmokers & Bebe Rexha - Call You Mine.wav
Peak level 98.4 %
Extraction speed 2.0 X
Track quality 100.0 %
Test CRC 2045592D
Copy CRC 2045592D
Track not present in AccurateRip database
Copy OK
Track 12
Filename C:\temp\Now That's What I Call Music! 71\12 - Lizzo - Juice.wav
Peak level 89.0 %
Extraction speed 2.0 X
Track quality 100.0 %
Test CRC 5A52A569
Copy CRC 5A52A569
Track not present in AccurateRip database
Copy OK
Track 13
Filename C:\temp\Now That's What I Call Music! 71\13 - DJ Khaled feat. SZA - Just Us.wav
Peak level 97.8 %
Extraction speed 2.1 X
Track quality 100.0 %
Test CRC 359A4091
Copy CRC 359A4091
Track not present in AccurateRip database
Copy OK
Track 14
Filename C:\temp\Now That's What I Call Music! 71\14 - Dean Lewis - Be Alright.wav
Peak level 99.9 %
Extraction speed 2.1 X
Track quality 100.0 %
Test CRC 788B9E3D
Copy CRC 788B9E3D
Track not present in AccurateRip database
Copy OK
Track 15
Filename C:\temp\Now That's What I Call Music! 71\15 - Lewis Capaldi - Someone You Loved.wav
Peak level 92.3 %
Extraction speed 2.1 X
Track quality 100.0 %
Test CRC 20BF2F2D
Copy CRC 20BF2F2D
Track not present in AccurateRip database
Copy OK
Track 16
Filename C:\temp\Now That's What I Call Music! 71\16 - Dan + Shay - Speechless.wav
Peak level 99.8 %
Extraction speed 2.3 X
Track quality 100.0 %
Test CRC 01FECF7A
Copy CRC 01FECF7A
Track not present in AccurateRip database
Copy OK
Track 17
Filename C:\temp\Now That's What I Call Music! 71\17 - Freya Ridings - Lost Without You.wav
Pre-gap length 0:00:03.09
Peak level 99.8 %
Extraction speed 2.4 X
Track quality 100.0 %
Test CRC 1E498DA2
Copy CRC 1E498DA2
Track not present in AccurateRip database
Copy OK
Track 18
Filename C:\temp\Now That's What I Call Music! 71\18 - Kina feat. Snøw - Get You The Moon.wav
Peak level 99.8 %
Extraction speed 2.2 X
Track quality 100.0 %
Test CRC 365B6047
Copy CRC 365B6047
Track not present in AccurateRip database
Copy OK
Track 19
Filename C:\temp\Now That's What I Call Music! 71\19 - Muna - Number One Fan.wav
Peak level 99.8 %
Extraction speed 1.9 X
Track quality 99.9 %
Test CRC D9C91E28
Copy CRC D9C91E28
Track not present in AccurateRip database
Copy OK
Track 20
Filename C:\temp\Now That's What I Call Music! 71\20 - David Francisco - Lionheart.wav
Peak level 97.9 %
Extraction speed 2.4 X
Track quality 100.0 %
Test CRC E44D717D
Copy CRC E44D717D
Track not present in AccurateRip database
Copy OK
None of the tracks are present in the AccurateRip database
No errors occurred
End of status report
---- CUETools DB Plugin V2.1.6
[CTDB TOCID: ykDtpv8fbchKyWVfOZSrWv05gtk-] found
Submit result: ykDtpv8fbchKyWVfOZSrWv05gtk- has been confirmed
Track | CTDB Status
1 | (19/19) Accurately ripped
2 | (18/19) Accurately ripped
3 | (18/19) Accurately ripped
4 | (18/19) Accurately ripped
5 | (18/19) Accurately ripped
6 | (18/19) Accurately ripped
7 | (18/19) Accurately ripped
8 | (18/19) Accurately ripped
9 | (18/19) Accurately ripped
10 | (18/19) Accurately ripped
11 | (18/19) Accurately ripped
12 | (18/19) Accurately ripped
13 | (18/19) Accurately ripped
14 | (18/19) Accurately ripped
15 | (18/19) Accurately ripped
16 | (18/19) Accurately ripped
17 | (18/19) Accurately ripped
18 | (18/19) Accurately ripped
19 | (18/19) Accurately ripped
20 | (18/19) Accurately ripped
==== Log checksum A31965275D9C05E18A87D3188423C99A9065F898679AE6D1D7DAC3D97A383992 ====

Cue Sheet (.cue&#41;&#58;

REM GENRE Pop
REM DATE 2019
REM DISCID 030EF914
REM COMMENT "ExactAudioCopy v1.3"
PERFORMER "Various Artists"
TITLE "Now That's What I Call Music! 71"
REM COMPOSER ""
FILE "Now That's What I Call Music! 71\01 - Jonas Brothers - Sucker.wav" WAVE
TRACK 01 AUDIO
TITLE "Sucker"
PERFORMER "Jonas Brothers"
REM COMPOSER ""
ISRC USUG11900515
INDEX 01 00:00:00
FILE "Now That's What I Call Music! 71\02 - Shawn Mendes - If I Can't Have You.wav" WAVE
TRACK 02 AUDIO
TITLE "If I Can't Have You"
PERFORMER "Shawn Mendes"
REM COMPOSER ""
ISRC USUM71907349
INDEX 01 00:00:00
FILE "Now That's What I Call Music! 71\03 - Ariana Grande - break up with your girlfriend, i'm bored.wav" WAVE
TRACK 03 AUDIO
TITLE "break up with your girlfriend, i'm bored"
PERFORMER "Ariana Grande"
REM COMPOSER ""
ISRC USUM71900410
INDEX 01 00:00:00
FILE "Now That's What I Call Music! 71\04 - Ava Max - Sweet But Psycho.wav" WAVE
TRACK 04 AUDIO
TITLE "Sweet But Psycho"
PERFORMER "Ava Max"
REM COMPOSER ""
ISRC USAT21802011
INDEX 01 00:00:00
FILE "Now That's What I Call Music! 71\05 - Billie Eilish - Bad Guy.wav" WAVE
TRACK 05 AUDIO
TITLE "Bad Guy"
PERFORMER "Billie Eilish"
REM COMPOSER ""
ISRC USUM71900764
INDEX 01 00:00:00
FILE "Now That's What I Call Music! 71\06 - Post Malone feat. Roddy Ricch & Tyga - Wow. (Remix).wav" WAVE
TRACK 06 AUDIO
TITLE "Wow. (Remix)"
PERFORMER "Post Malone feat. Roddy Ricch & Tyga"
REM COMPOSER ""
ISRC USUM71912235
INDEX 01 00:00:00
FILE "Now That's What I Call Music! 71\07 - Lil Nas X feat. Billy Ray Cyrus - Old Town Road (Remix).wav" WAVE
TRACK 07 AUDIO
TITLE "Old Town Road (Remix)"
PERFORMER "Lil Nas X feat. Billy Ray Cyrus"
REM COMPOSER ""
ISRC USSM11902498
INDEX 01 00:00:00
FILE "Now That's What I Call Music! 71\08 - Khalid - Talk.wav" WAVE
TRACK 08 AUDIO
TITLE "Talk"
PERFORMER "Khalid"
REM COMPOSER ""
ISRC USRC11900004
INDEX 01 00:00:00
FILE "Now That's What I Call Music! 71\09 - Katy Perry - Never Really Over.wav" WAVE
TRACK 09 AUDIO
TITLE "Never Really Over"
PERFORMER "Katy Perry"
REM COMPOSER ""
ISRC USUM71901873
INDEX 01 00:00:00
FILE "Now That's What I Call Music! 71\10 - 5 Seconds Of Summer - Easier.wav" WAVE
TRACK 10 AUDIO
TITLE "Easier"
PERFORMER "5 Seconds Of Summer"
REM COMPOSER ""
ISRC USUG11901520
INDEX 01 00:00:00
FILE "Now That's What I Call Music! 71\11 - The Chainsmokers & Bebe Rexha - Call You Mine.wav" WAVE
TRACK 11 AUDIO
TITLE "Call You Mine"
PERFORMER "The Chainsmokers & Bebe Rexha"
REM COMPOSER ""
ISRC USQX91901124
INDEX 01 00:00:00
FILE "Now That's What I Call Music! 71\12 - Lizzo - Juice.wav" WAVE
TRACK 12 AUDIO
TITLE "Juice"
PERFORMER "Lizzo"
REM COMPOSER ""
ISRC USAT21901442
INDEX 01 00:00:00
FILE "Now That's What I Call Music! 71\13 - DJ Khaled feat. SZA - Just Us.wav" WAVE
TRACK 13 AUDIO
TITLE "Just Us"
PERFORMER "DJ Khaled feat. SZA"
REM COMPOSER ""
ISRC USSM11903549
INDEX 01 00:00:00
FILE "Now That's What I Call Music! 71\14 - Dean Lewis - Be Alright.wav" WAVE
TRACK 14 AUDIO
TITLE "Be Alright"
PERFORMER "Dean Lewis"
REM COMPOSER ""
ISRC AUUM71800963
INDEX 01 00:00:00
FILE "Now That's What I Call Music! 71\15 - Lewis Capaldi - Someone You Loved.wav" WAVE
TRACK 15 AUDIO
TITLE "Someone You Loved"
PERFORMER "Lewis Capaldi"
REM COMPOSER ""
ISRC DEUM71807062
INDEX 01 00:00:00
FILE "Now That's What I Call Music! 71\16 - Dan + Shay - Speechless.wav" WAVE
TRACK 16 AUDIO
TITLE "Speechless"
PERFORMER "Dan + Shay"
REM COMPOSER ""
ISRC USWB11800928
INDEX 01 00:00:00
TRACK 17 AUDIO
TITLE "Lost Without You"
PERFORMER "Freya Ridings"
REM COMPOSER ""
ISRC UK8E21701401
INDEX 00 03:32:12
FILE "Now That's What I Call Music! 71\17 - Freya Ridings - Lost Without You.wav" WAVE
INDEX 01 00:00:00
FILE "Now That's What I Call Music! 71\18 - Kina feat. Snшw - Get You The Moon.wav" WAVE
TRACK 18 AUDIO
TITLE "Get You The Moon"
PERFORMER "Kina feat. Snшw"
REM COMPOSER ""
ISRC USSM11808093
INDEX 01 00:00:00
FILE "Now That's What I Call Music! 71\19 - Muna - Number One Fan.wav" WAVE
TRACK 19 AUDIO
TITLE "Number One Fan"
PERFORMER "Muna"
REM COMPOSER ""
ISRC USRC11900581
INDEX 01 00:00:00
FILE "Now That's What I Call Music! 71\20 - David Francisco - Lionheart.wav" WAVE
TRACK 20 AUDIO
TITLE "Lionheart"
PERFORMER "David Francisco"
REM COMPOSER ""
ISRC QZGV41900001
INDEX 01 00:00:00

_________________


Other forum [Profile] [PM]
Display posts from previous:    
Reply to topic

The time now is: Today 15:43

All times are GMT + 3 Hours



You cannot post new topics in this forum
You cannot reply to topics in this forum
You cannot edit your posts in this forum
You cannot delete your posts in this forum
You cannot vote in polls in this forum
You cannot attach files in this forum
You cannot download files in this forum