Today is a free download without charge Download

Иван Дружинин | Создание визуальных эффектов в After Effects (2019) PCRec [H.264/1080p-LQ]

Reply to topic
 
Author
Message

}{@R0N ®

Longevity: 4 years

Posts: 7614

Торрент-статистика

Post 11-Oct-2019 11:12

[Quote]

Создание визуальных эффектов в After Effects - Автор (режиссер): Иван Дружинин
Жанр: Adobe After Effects, обучающее видео
Описание:
После прохождения курса Вы научитесь кеингу, ротоскопингу, композитингу, клинапу, трекингу и прочей магии кино. В курсе авторы уделяют много внимания практике. Но также и вопросам, связанным с проектной работой vfx-ра: например, как работать с клиентом, как ускорить процессы, как организовать проекты.
Продолжительность: 04:51:15
Качество видео: PCRec
Видео: AVC/H.264, 1920x1080, ~834 Kbps
Аудио: AAC, 2 ch, 137 Kbps

MediaInfo:

Формат                                   : MPEG-4
Профиль формата : Base Media / Version 2
Идентификатор кодека : mp42 (mp42/mp41/isom/avc1)
Размер файла : 33,7 Мбайт
Продолжительность : 4 м. 49 с.
Режим общего битрейта : Переменный
Общий поток : 976 Кбит/сек
Дата кодирования : UTC 2019-04-15 14:19:36
Дата пометки : UTC 2019-04-15 14:19:36
Видео
Идентификатор : 1
Формат : AVC
Формат/Информация : Advanced Video Codec
Профиль формата : [email protected]
Настройки формата : CABAC / 5 Ref Frames
Параметр CABAC формата : Да
Параметр RefFrames формата : 5 кадров
Идентификатор кодека : avc1
Идентификатор кодека/Информация : Advanced Video Coding
Продолжительность : 4 м. 49 с.
Битрейт : 834 Кбит/сек
Ширина : 1920 пикселей
Высота : 1080 пикселей
Соотношение сторон : 16:9
Режим частоты кадров : Постоянный
Частота кадров : 25,000 кадров/сек
Цветовое пространство : YUV
Субдискретизация насыщенности : 4:2:0
Битовая глубина : 8 бит
Тип развёртки : Прогрессивная
Бит/(Пиксели*Кадры) : 0.016
Размер потока : 28,8 Мбайт (86%)
Библиотека кодирования : x264 core 157 r10 d4099dd
Настройки программы : cabac=1 / ref=5 / deblock=1:0:0 / analyse=0x3:0x113 / me=hex / subme=8 / psy=1 / psy_rd=1.00:0.00 / mixed_ref=1 / me_range=16 / chroma_me=1 / trellis=2 / 8x8dct=1 / cqm=0 / deadzone=21,11 / fast_pskip=1 / chroma_qp_offset=-2 / threads=34 / lookahead_threads=5 / sliced_threads=0 / nr=0 / decimate=1 / interlaced=0 / bluray_compat=0 / stitchable=1 / constrained_intra=0 / bframes=3 / b_pyramid=2 / b_adapt=2 / b_bias=0 / direct=3 / weightb=1 / open_gop=0 / weightp=2 / keyint=infinite / keyint_min=25 / scenecut=40 / intra_refresh=0 / rc_lookahead=50 / rc=crf / mbtree=1 / crf=20.0 / qcomp=0.60 / qpmin=5 / qpmax=69 / qpstep=4 / vbv_maxrate=5500 / vbv_bufsize=15000 / crf_max=0.0 / nal_hrd=none / filler=0 / ip_ratio=1.40 / aq=1:1.00
Дата кодирования : UTC 2019-04-15 14:19:36
Дата пометки : UTC 2019-04-15 14:19:36
Цветовой диапазон : Limited
Основные цвета : BT.709
Характеристики трансфера : BT.709
Коэффициенты матрицы : BT.709
Codec configuration box : avcC
Аудио
Идентификатор : 2
Формат : AAC LC
Формат/Информация : Advanced Audio Codec Low Complexity
Идентификатор кодека : mp4a-40-2
Продолжительность : 4 м. 49 с.
Вид битрейта : Переменный
Битрейт : 137 Кбит/сек
Каналы : 2 канала
ChannelLayout : L R
Частота : 48,0 КГц
Частота кадров : 46,875 кадров/сек (1024 SPF)
Метод сжатия : С потерями
Размер потока : 4,73 Мбайт (14%)
Дата кодирования : UTC 2019-04-15 14:19:36
Дата пометки : UTC 2019-04-15 14:19:36

Продолжение описания:

Иван Дружинин (преподаватель курса) объясняет всё простыми словами. Рассказывает так, чтобы стало понятно даже тем, кто только начинает погружение в мир визуальных эффектов. Но также увлекает супер-полезными лайфхаками и авторскими техниками тех, кто уже и сам хитёр-бобёр. Смотри курс и ты узнаешь, как делать свои ролики офигенными. Ведь теперь тебе будет доступна магия спецэффектов! Больше никаких лишних предметов, грязи на фоне, неудачных ракурсов, — всё можно исправить и дать волю своей фантазии: меняй фон, вырезай героя с картинки, притрекивай надписи. Теперь инструменты из большого кино будут в твоём распоряжении.

Дополнительная информация:

Сначала, на пальцах — зачем смотреть этот курс:
Ты узнаешь как:
- убрать лишнее из кадра или добавить новые объекты в видео;
- отделить персонажа от фона и заменить фон на то, на что хватит фантазии;
- трекать надписи, логотипы, предметы в сценах;
- редактировать пропорции актеров, удалять прыщики, дефекты макияжа и грима;
- ускорить себя и свой комп с помощью авторских методик работы;
- сохранять усидчивость и концентрацию, навести порядок в проектах и голове, чтобы жить стало проще wink
- добиться крутых результатов в vfx и выйти на международных заказчиков;
а это всё значит, что теперь, создавая видео, ты свободен в своих творческих идеях. Можешь использовать техники из большого кино, внедрять в свои ролики визуальные эффекты и этим запоминаться зрителю. Сможешь делать vfx не только для своих видеороликов, но и для рекламы / клипов / фильмов заказчиков.
Ты ускоришься в своей работе минимум на 30%, а значит: освободишь время для отдыха, развития и новых проектов.
Сделаешь 8 домашних заданий, и значит: соберёшь новый крутой шоурил.
Вводная часть. Дисциплина. Правила. Полезности.
- Вступление бесплатно
- Подготовка к работе бесплатно
- Клавиатура и хоткеи
- Экспорт и импорт
- Разгрузка компьютера
Начало пути композера: ротоскопирование, кеинг, клинап.
- Ротоскопирование. Способ №1
- Ротоскопирование. Способ №2
- Напутствие
- Кеинг. База бесплатно
- Кеинг особенности сложных моментов
- Зеленая одежда на зеленом фоне.Начинаем
- Зеленая одежда на зеленом фоне.Продолжаем
- Убираем динамические объекты в статичных сценах. Часть 1
- Убираем динамические объекты в статичных сценах. Часть 2
- Делаем кожу глянцевой
- Ошибки в работе
- Исправляем дефекты тела. Ухо
- Исправляем дефекты тела. Бедра и ноги
Трекинг
- 2D трекинг бесплатно
- 3D трекинг
- Что делать если трекинг не цепляется
- Отдельная программа для трекинга Mocha
- Ручной трекинг
Композинг
- Композинг статуи свободы. Часть 1
- Композинг статуи свободы. Часть 2
- Работа с композингом текста в движущемся кадре + тени
- Киношная картинка. Глянцевый кадр
- Бесплатные и платные материалы для работы
- Breakdown and showreel
- Работа с клиентами. Авторская техника
- Заключение с мотивацией
Скриншоты:
       
Время раздачи: 24/7 (круглосуточно) (до появления первых 3-5 скачавших)
Other forum [Profile] [PM]
Display posts from previous:    
Reply to topic

The time now is: Today 17:00

All times are GMT + 3 Hours



You cannot post new topics in this forum
You cannot reply to topics in this forum
You cannot edit your posts in this forum
You cannot delete your posts in this forum
You cannot vote in polls in this forum
You cannot attach files in this forum
You cannot download files in this forum