Today is a free download without charge Download

Мишки Гамми / Adventures of the Gummi Bears (1985-1991) SATRip (сезоны 1-6, все серии)

Reply to topic
 
Author
Message

Clavik ®

Gender:

Longevity: 6 years 4 months

Posts: 2454

Location: Украина

Торрент-статистика

Post 12-Oct-2019 13:46

[Quote]

Приключения Мишек Гамми / Adventures of the Gummi Bears (1985-1991) SATRip (Все серии) - Производство: Disney
Жанр: Рисованная анимация, Детский, Сказка, Приключения
Режиссер: Дэвид Блок, Арт Вителло, Алан Заслов
Описание:
Красочный и добрый мультсериал о приключениях Мишек Гамми — сказочных медведях, тайно живущих рядом с людьми, и о которых ходят легенды по всей земле, ведь они не раз спасали королевство и подданных короля от нападений злых гоблинов под руководством хитрого графа Игторна и другой нечистой силы. Этих медведей полюбят все дети. Сказки про них нам расскажет Дисней. Ловкие, смелые, добрые, милые — Преданней вы не встречали друзей. Мишки Гамми нас рассмешат Забавными прыжками

Возраст: 0+ (для любой зрительской аудитории)
Рейтинг MPAA: G (нет возрастных ограничений)
Дата мировой премьеры: 14.09.1985
Релиз от: Disney Jazz
Продолжительность: 11 - 22 мин серия
Качество видео: SATRip
Перевод: Дублированный
Субтитры: Отсутствуют
Видео: DivX 5, разный у разных серий (640x480 512x384 576x432), (544x416 1287 Kbps, 512x384 1410 Kbps, 576x432 1400Kbps, 640x480 1372Kbps)
Аудио: MP3, 2 ch, 128Kbps

MediaInfo:

General
Complete name : /home/vv/Видео/01.Как это начиналось.avi
Format : AVI
Format/Info : Audio Video Interleave
File size : 237 MiB
Duration : 21 min 20 s
Overall bit rate : 1 552 kb/s
Director : Alex-Ice: [url=mailto:[email protected]][email protected][/url]
Writing application : Nandub v1.0rc2
Writing library : Nandub build 1852/release
Video
ID : 0
Format : MPEG-4 Visual
Format settings : BVOP1 / GMC2
Format settings, BVOP : 1
Format settings, QPel : No
Format settings, GMC : 2 warppoints
Format settings, Matrix : Default (H.263)
Muxing mode : Packed bitstream
Codec ID : DX50
Codec ID/Hint : DivX 5
Duration : 21 min 20 s
Bit rate : 1 411 kb/s
Nominal bit rate : 6 200 kb/s
Width : 512 pixels
Height : 384 pixels
Display aspect ratio : 4:3
Frame rate : 25.000 FPS
Color space : YUV
Chroma subsampling : 4:2:0
Bit depth : 8 bits
Scan type : Progressive
Compression mode : Lossy
Bits/(Pixel*Frame) : 0.287
Stream size : 215 MiB (91%)
Writing library : DivX 5.0.4 (UTC 2003-04-17)
Audio
ID : 1
Format : MPEG Audio
Format version : Version 1
Format profile : Layer 3
Codec ID : 55
Codec ID/Hint : MP3
Duration : 21 min 20 s
Bit rate mode : Constant
Bit rate : 128 kb/s
Channel(s) : 2 channels
Sampling rate : 48.0 kHz
Compression mode : Lossy
Stream size : 19.5 MiB (8%)
Alignment : Aligned on interleaves
Interleave, duration : 24 ms (0.60 video frame)
Interleave, preload duration : 480 ms
Скриншоты:
       

Дополнительные скриншоты:

     
       

_________________


Other forum [Profile] [PM]
Display posts from previous:    
Reply to topic

The time now is: Today 04:33

All times are GMT + 3 Hours



You cannot post new topics in this forum
You cannot reply to topics in this forum
You cannot edit your posts in this forum
You cannot delete your posts in this forum
You cannot vote in polls in this forum
You cannot attach files in this forum
You cannot download files in this forum