Today is a free download without charge Download

itgid | Интернет магазин на node.js (2019) PCRec [H.264]

Reply to topic
 
Author
Message

Clavik ®

Gender:

Longevity: 6 years 1 month

Posts: 2277

Location: Украина

Торрент-статистика

Post 13-Oct-2019 17:58

[Quote]

itgid | Интернет магазин на node.js (2019) PCRec [H.264] - Автор (режиссер): Александр Лущенко
Производство: itgid
Жанр: программирование, JavaScript, Node.js
Описание:
Мы создаем полноценный Интернет-магазин. Все шаги - записаны в видеоуроках. Начинаем разработку с установки необходимых программ и их настройки. Все шаги и объяснение полностью разобрано в видеоуроках по шагам.
К каждому уроку доступны исходные коды. Вы можете скачать сразу готовый проект в готовом виде, либо изучать по шагам по видео, сравнивая готовые коды с написанным! Все коды рассортированы по урокам!
Продолжительность: 12:30:07
Качество видео: PCRec
Видео: AVC/H.264, 1280x720-2560x1440, ~123-6285 Kbps
Аудио: AAC, 2 ch, 127-180 Kbps

MediaInfo:

Общее
Полное имя : .\19 Сохранение заказов\22.mp4
Формат : MPEG-4
Профиль формата : Base Media / Version 2
Идентификатор кодека : mp42 (isom/mp42)
Размер файла : 60,7 Мбайт
Продолжительность : 33 м. 13 с.
Режим общего битрейта : Переменный
Общий поток : 255 Кбит/сек
Дата кодирования : UTC 2019-06-19 10:16:43
Дата пометки : UTC 2019-06-19 10:16:43
gsst : 0
gstd : 1993409
Видео
Идентификатор : 1
Формат : AVC
Формат/Информация : Advanced Video Codec
Профиль формата : [url=mailto:[email protected]][email protected][/url]
Настройки формата : CABAC / 3 Ref Frames
Параметр CABAC формата : Да
Параметр RefFrames формата : 3 кадра
Идентификатор кодека : avc1
Идентификатор кодека/Информация : Advanced Video Coding
Продолжительность : 33 м. 13 с.
Битрейт : 123 Кбит/сек
Ширина : 1280 пикселей
Высота : 720 пикселей
Соотношение сторон : 16:9
Режим частоты кадров : Постоянный
Частота кадров : 29,970 (30000/1001) кадров/сек
Цветовое пространство : YUV
Субдискретизация насыщенности : 4:2:0
Битовая глубина : 8 бит
Тип развёртки : Прогрессивная
Бит/(Пиксели*Кадры) : 0.004
Размер потока : 29,3 Мбайт (48%)
Заголовок : ISO Media file produced by Google Inc. Created on: 06/19/2019.
Библиотека кодирования : x264 core 155 r2901 7d0ff22
Дата кодирования : UTC 2019-06-19 10:16:43
Дата пометки : UTC 2019-06-19 10:16:43
Цветовой диапазон : Limited
Основные цвета : BT.709
Характеристики трансфера : BT.709
Коэффициенты матрицы : BT.709
Codec configuration box : avcC
Аудио
Идентификатор : 2
Формат : AAC LC
Формат/Информация : Advanced Audio Codec Low Complexity
Идентификатор кодека : mp4a-40-2
Продолжительность : 33 м. 13 с.
Продолжительность оригинала : 33 м. 13 с.
Вид битрейта : Переменный
Битрейт : 128 Кбит/сек
Каналы : 2 канала
ChannelLayout : L R
Частота : 44,1 КГц
Частота кадров : 43,066 кадра/сек (1024 SPF)
Метод сжатия : С потерями
Размер потока : 30,4 Мбайт (50%)
Размер потока оригинала : 30,4 Мбайт (50%)
Заголовок : ISO Media file produced by Google Inc. Created on: 06/19/2019.
Дата кодирования : UTC 2019-06-19 10:16:43
Дата пометки : UTC 2019-06-19 10:16:43
Общее
Полное имя : .\04_1 Фреймворк ExpressJS. Установка, настройка, работа со статикой\05.mp4
Формат : MPEG-4
Профиль формата : Base Media / Version 2
Идентификатор кодека : mp42 (isom/mp42)
Размер файла : 201 Мбайт
Продолжительность : 24 м. 43 с.
Режим общего битрейта : Переменный
Общий поток : 1135 Кбит/сек
Дата кодирования : UTC 2019-04-14 08:36:30
Дата пометки : UTC 2019-04-14 08:36:30
Программа кодирования : Google
gsst : 0
gstd : 1483267
Видео
Идентификатор : 1
Формат : AVC
Формат/Информация : Advanced Video Codec
Профиль формата : [email protected]
Настройки формата : CABAC / 1 Ref Frames
Параметр CABAC формата : Да
Параметр RefFrames формата : 1 кадр
Параметр GOP формата : M=1, N=23
Идентификатор кодека : avc1
Идентификатор кодека/Информация : Advanced Video Coding
Продолжительность : 24 м. 43 с.
Битрейт : 1006 Кбит/сек
Ширина : 1920 пикселей
Высота : 1080 пикселей
Соотношение сторон : 16:9
Режим частоты кадров : Постоянный
Частота кадров : 11,467 кадров/сек
Цветовое пространство : YUV
Субдискретизация насыщенности : 4:2:0
Битовая глубина : 8 бит
Тип развёртки : Прогрессивная
Бит/(Пиксели*Кадры) : 0.042
Размер потока : 178 Мбайт (89%)
Заголовок : ISO Media file produced by Google Inc. Created on: 04/14/2019.
Библиотека кодирования : x264 core 155 r2901 7d0ff22
Дата кодирования : UTC 2019-04-14 08:36:30
Дата пометки : UTC 2019-04-14 08:36:30
Цветовой диапазон : Limited
Основные цвета : BT.709
Характеристики трансфера : BT.709
Коэффициенты матрицы : BT.709
Codec configuration box : avcC
Аудио
Идентификатор : 2
Формат : AAC LC
Формат/Информация : Advanced Audio Codec Low Complexity
Идентификатор кодека : mp4a-40-2
Продолжительность : 24 м. 43 с.
Вид битрейта : Переменный
Битрейт : 128 Кбит/сек
Каналы : 2 канала
ChannelLayout : L R
Частота : 44,1 КГц
Частота кадров : 43,066 кадра/сек (1024 SPF)
Метод сжатия : С потерями
Размер потока : 22,6 Мбайт (11%)
Заголовок : ISO Media file produced by Google Inc. Created on: 04/14/2019.
Дата кодирования : UTC 2019-04-14 08:36:30
Дата пометки : UTC 2019-04-14 08:36:30
Общее
Полное имя : .\10_2 Препроцессор Pug\13.mp4
Формат : MPEG-4
Профиль формата : Base Media
Идентификатор кодека : isom (isom/iso2/avc1/mp41)
Размер файла : 754 Мбайт
Продолжительность : 26 м. 8 с.
Режим общего битрейта : Переменный
Общий поток : 4033 Кбит/сек
Видео
Идентификатор : 1
Формат : AVC
Формат/Информация : Advanced Video Codec
Профиль формата : [email protected]
Настройки формата : CABAC / 2 Ref Frames
Параметр CABAC формата : Да
Параметр RefFrames формата : 2 кадра
Параметр GOP формата : M=1, N=25
Идентификатор кодека : avc1
Идентификатор кодека/Информация : Advanced Video Coding
Продолжительность : 26 м. 8 с.
Битрейт : 3846 Кбит/сек
Ширина : 2560 пикселей
Высота : 1440 пикселей
Соотношение сторон : 16:9
Режим частоты кадров : Постоянный
Частота кадров : 29,970 (30000/1001) кадров/сек
Цветовое пространство : YUV
Субдискретизация насыщенности : 4:2:0
Битовая глубина : 8 бит
Тип развёртки : Прогрессивная
Бит/(Пиксели*Кадры) : 0.035
Размер потока : 719 Мбайт (95%)
Codec configuration box : avcC
Аудио
Идентификатор : 2
Формат : AAC LC
Формат/Информация : Advanced Audio Codec Low Complexity
Идентификатор кодека : mp4a-40-2
Продолжительность : 26 м. 8 с.
Вид битрейта : Переменный
Битрейт : 180 Кбит/сек
Максимальный битрейт : 192 Кбит/сек
Каналы : 2 канала
ChannelLayout : L R
Частота : 44,1 КГц
Частота кадров : 43,066 кадра/сек (1024 SPF)
Метод сжатия : С потерями
Размер потока : 33,7 Мбайт (4%)
Default : Да
AlternateGroup/String : 1

Дополнительная информация:

В раздаче имеются архивы! В них содержится дополнительные материалы.

История обновлений:

13.10.2019 торрент файл обновлен
- заменены все исходники проектов
- добавлены недостающие уроки (6_2, 8, 9, 18)
- добавлены новые уроки (19-24)

Раздача ведётся путём добавления новых файлов:

Раздача ведётся путём добавления новых файлов; при каждом добавлении создаётся новый торрент. Чтобы начать докачку новых файлов, пользователям необходимо сделать следующее:
(1) остановить скачивание,
(2) удалить старый торрент у себя из клиента (имеющиеся файлы удалять не надо),
(3) скачать новый торрент и запустить его у себя в клиенте вместо старого, при этом указать клиенту путь в старую папку, куда и должно происходить скачивание новых файлов.
Ваш клиент при этом должен произвести хеширование (проверку) старой папки (если не производит сам - помогите ему сделать это), и будет докачивать только те файлы, которых у вас ещё нет. Старые файлы при этом не удаляются, а продолжают раздаваться!
Eсли вы уже удалили старые файлы, то предотвратить повторную закачку старых файлов можно, отжав галочку в соответствующих местах при запуске нового торрента. По возможности, желательно не удалять старые файлы как можно дольше, чтобы релизёр не только продолжал раздавать старые файлы, а смог сконцентрироваться на новых.
Скриншоты:
       

_________________


Other forum [Profile] [PM]
Display posts from previous:    
Reply to topic

The time now is: Today 22:54

All times are GMT + 3 Hours



You cannot post new topics in this forum
You cannot reply to topics in this forum
You cannot edit your posts in this forum
You cannot delete your posts in this forum
You cannot vote in polls in this forum
You cannot attach files in this forum
You cannot download files in this forum