Today is a free download without charge Download

Операция «Колибри» / The Hummingbird Project (Ким Нгуйен) [2018, Триллер, BDRip] [DUB] [iTunes]

Reply to topic
DL-List and Torrent activity
Size:  745 MB   |    Registered:  13 days   |    Completed:  0 times

Seeder not seen: 5 days

 
 
 
 
 
Author
Message

Орлов Владимир ®

Gender:

Longevity: 2 months 4 days

Posts: 184

Location: Россия , Долгопрудный, Моск.обл

Торрент-статистика

Post 01-Nov-2019 13:30

[Quote]

--Операция «Колибри» / The Hummingbird Project--
Информация о фильме
Название: Операция «Колибри»
Оригинальное название: The Hummingbird Project
Год выпуска: 2018
Жанр: Триллер
Режиссер: Ким Нгуйен--В ролях: Джесси Айзенберг, Александр Скарсгард, Сальма Хайек, Майкл Мэндо, Йохан Хелденберг, Аиша Исса, Марк Слэк, Сара Голдберг, Фрэнк Скорпион, Кваси Сонгуи--О фильме:
Двоюродные братья Винсент и Антон живут в мире высокочастотного трейдинга, где каждая миллисекунда может стоить миллиарды. Они решаются реализовать давно задуманный проект. Казалось бы, все продумано до мелочей и шансы на успех велики как никогда. Однако на пути братьев встает их бывший босс Эва Торрес - беспринципный злой гений, ставшая их заклятым врагом. Ставки высоки, проигравший теряет всё или, наоборот, приобретает нечто большее, поистине бесценное.-- --Страна: Бельгия, Канада
Студия: Item 7, Belga Productions
Продолжительность: 01:50:37
Перевод: Дублированный iTunes--Файл
Формат: AVI
Качество: BDRip
Видео: 688x288 (2.39:1), 23.976 fps, XviD build 50 ~803 kbps avg, 0.17 bit/pixel
Звук: 48 kHz, MPEG Layer 3, 2 ch, ~128.00 kbps avg
Субтитры: Нет--

Тех.данные видеофайла

Общее
Полное имя : C:\The.Hummingbird.Project.2018.BDRip.740.mb.avi
Формат : AVI
Формат/Информация : Audio Video Interleave
Размер файла : 745 Мбайт
Продолжительность : 1 ч. 50 м.
Общий поток : 941 Кбит/сек
Программа кодирования : VirtualDubMod 1.5.10.3 | (build 2550/release)
Библиотека кодирования : VirtualDubMod build 2550/release
Видео
Идентификатор : 0
Формат : MPEG-4 Visual
Профиль формата : Advanced [email protected]
Параметр BVOP формата : 1
Параметр QPel формата : Нет
Параметр GMC формата : Без точки перехода
Параметр матрицы формата : Default (H.263)
Идентификатор кодека : XVID
Идентификатор кодека/Подсказка : XviD
Продолжительность : 1 ч. 50 м.
Битрейт : 804 Кбит/сек
Ширина : 688 пикселей
Высота : 288 пикселей
Соотношение сторон : 2,40:1
Частота кадров : 23,976 кадра/сек
Цветовое пространство : YUV
Субдискретизация насыщенности : 4:2:0
Битовая глубина : 8 бит
Тип развёртки : Прогрессивная
Метод сжатия : С потерями
Бит/(Пиксели*Кадры) : 0.169
Размер потока : 636 Мбайт (85%)
Библиотека кодирования : XviD 1.2.1 (UTC 2008-12-04)
Аудио
Идентификатор : 1
Формат : MPEG Audio
Версия формата : Version 1
Профиль формата : Layer 3
Идентификатор кодека : 55
Идентификатор кодека/Подсказка : MP3
Продолжительность : 1 ч. 50 м.
Вид битрейта : Постоянный
Битрейт : 128 Кбит/сек
Каналы : 2 канала
Частота : 48,0 КГц
Метод сжатия : С потерями
Размер потока : 101 Мбайт (14%)
Выравнивание : Соединение по промежуткам
Продолжительность промежутка : 42 мс. (1,00 видеокадр)
Время предзагрузки промежутка : 504 мс.
Библиотека кодирования : LAME3.99r
Настройки программы : -m s -V 4 -q 2 -lowpass 17 -b 128

Скриншоты

           
[dark-os.com].t338094.torrent 
Torrent: Registered   [ 2019-11-01 13:30 ]

Download

15 KB

Воспроизвести онлайн

Status: checked
Completed: 0 times
Size: 745 MB, InfoHash (Google it!)
Score:  5 (vote: 1)
Default: 1  Thank you   (list)
 

_________________
Other forum [Profile] [PM]
Similar theme
Forum Topic Author Torrent Replies Last Post
./templates/default/images/folder_dl.gif Фильмы 2011-2019 Операция «Колибри» / The Hummingbird Project (Ким Нгуйен) [2018, Триллер, BDRip 720p] [DUB,MVO] [iTunes] Орлов Владимир
1 | 0

0 | 486

0

2019-11-01 02:16
Орлов Владимир Latest
Display posts from previous:    
Reply to topic

The time now is: Today 23:34

All times are GMT + 3 Hours



You cannot post new topics in this forum
You cannot reply to topics in this forum
You cannot edit your posts in this forum
You cannot delete your posts in this forum
You cannot vote in polls in this forum
You cannot attach files in this forum
You can download files in this forum