Today is a free download without charge Download

(Hard Bop, Neo-Bop, Post-Bop) Greg Marvin - I'll Get By - 1991, FLAC (image + .cue), lossless

Reply to topic
 
Author
Message

Soldat_5 ®

Longevity: 6 days

Posts: 16

Торрент-статистика

Post 08-Nov-2019 15:54

[Quote]

Greg Marvin - I'll Get By
Страна: Германия/Нидерланды
Жанр: Hard Bop, Neo-Bop, Post-Bop
Год выпуска: 1991
Формат: FLAC (image + .cue)
Битрейт аудио: lossless
Продолжительность: 01:12:07
Трэклист:
01. Ding Dong! The Witch Is Dead (Arlen-Harburg) - 4:53
02. Our Angel (Marvin) - 9:16
03. Devil's Dream (Marvin) - 6:52
04. I'll Get By (As Long as I Have You) (Turk-Ahlert) - 1:54
05. Over the Rainbow (Arlen-Harburg) - 4:21
06. How Deep Is the Ocean (Berlin) - 10:51
07. Old Faithful (Marvin) - 7:40
08. 317 East 32nd (Tristano) - 7:08
09. Tuesday (Marvin) - 5:50
10. Yesterdays (Kern-Harbach) - 8:27
11. I'm with You (Marvin) - 4:55

Отчёт EAC:

Exact Audio Copy V1.3 from 2. September 2016
EAC extraction logfile from 5. November 2019, 23:05
Greg Marvin / I'll Get By
Used drive : SlimtypeDVD A DA8A5SH-L Adapter: 1 ID: 0
Read mode : Secure
Utilize accurate stream : Yes
Defeat audio cache : Yes
Make use of C2 pointers : No
Read offset correction : 6
Overread into Lead-In and Lead-Out : No
Fill up missing offset samples with silence : Yes
Delete leading and trailing silent blocks : No
Null samples used in CRC calculations : Yes
Used interface : Native Win32 interface for Win NT & 2000
Used output format : User Defined Encoder
Selected bitrate : 1024 kBit/s
Quality : High
Add ID3 tag : No
Command line compressor : C:\Program Files (x86)\Exact Audio Copy\Flac\flac.exe
Additional command line options : -V -8 %source%
TOC of the extracted CD
Track | Start | Length | Start sector | End sector
---------------------------------------------------------
1 | 0:00.00 | 4:53.02 | 0 | 21976
2 | 4:53.02 | 9:16.03 | 21977 | 63679
3 | 14:09.05 | 6:52.05 | 63680 | 94584
4 | 21:01.10 | 1:53.60 | 94585 | 103119
5 | 22:54.70 | 4:21.22 | 103120 | 122716
6 | 27:16.17 | 10:50.55 | 122717 | 171521
7 | 38:06.72 | 7:40.03 | 171522 | 206024
8 | 45:47.00 | 7:07.67 | 206025 | 238116
9 | 52:54.67 | 5:50.25 | 238117 | 264391
10 | 58:45.17 | 8:27.03 | 264392 | 302419
11 | 67:12.20 | 4:55.02 | 302420 | 324546
Range status and errors
Selected range
Filename D:\Music\Greg Marvin - I'll Get By\Greg Marvin - I'll Get By.wav
Peak level 90.8 %
Extraction speed 4.8 X
Range quality 99.9 %
Copy CRC 54712896
Copy OK
No errors occurred
AccurateRip summary
Track 1 accurately ripped (confidence 2) [01A5A5EF] (AR v2)
Track 2 accurately ripped (confidence 2) [997256DC] (AR v2)
Track 3 accurately ripped (confidence 2) [D83F3B19] (AR v2)
Track 4 accurately ripped (confidence 2) [CD5723EE] (AR v2)
Track 5 accurately ripped (confidence 2) [655669FE] (AR v2)
Track 6 accurately ripped (confidence 2) [A84A2E3F] (AR v2)
Track 7 accurately ripped (confidence 2) [FCA4275C] (AR v2)
Track 8 accurately ripped (confidence 2) [2BA99170] (AR v2)
Track 9 accurately ripped (confidence 2) [865DD51A] (AR v2)
Track 10 accurately ripped (confidence 2) [48F23BAE] (AR v2)
Track 11 accurately ripped (confidence 2) [921539F1] (AR v2)
All tracks accurately ripped
End of status report
---- CUETools DB Plugin V2.1.6
[CTDB TOCID: uLeJxkj.Jko8NmF.0566GtR.xRs-] found
Submit result: uLeJxkj.Jko8NmF.0566GtR.xRs- has been confirmed
Track | CTDB Status
1 | (1/1) Accurately ripped
2 | (1/1) Accurately ripped
3 | (1/1) Accurately ripped
4 | (1/1) Accurately ripped
5 | (1/1) Accurately ripped
6 | (1/1) Accurately ripped
7 | (1/1) Accurately ripped
8 | (1/1) Accurately ripped
9 | (1/1) Accurately ripped
10 | (1/1) Accurately ripped
11 | (1/1) Accurately ripped
==== Log checksum DF5CA832B99674B4CD999A88E7F609361CBF937CB26B84343CC356461CFFF03F ====
Other forum [Profile] [PM]
Similar theme
Forum Topic Author Torrent Replies Last Post
./templates/default/images/folder_dl.gif Jazz (Hard Bop, Post-Bop) D.E.W. East - Introducing D.E.W. East - 1999, FLAC (image + .cue), lossless Soldat_5
1 | 0

0 | 228

0

2019-11-12 22:11
Soldat_5 Latest
Display posts from previous:    
Reply to topic

The time now is: Today 00:44

All times are GMT + 3 Hours



You cannot post new topics in this forum
You cannot reply to topics in this forum
You cannot edit your posts in this forum
You cannot delete your posts in this forum
You cannot vote in polls in this forum
You cannot attach files in this forum
You cannot download files in this forum