Today is a free download without charge Download

(Heavy Metal) [CDR] Чёрный кофе - Трёхдисковое подарочное издание "Студии А" - 2010, FLAC (image+.cue), lossless

Reply to topic
 
Author
Message

Soldat_5 ®

Longevity: 1 month 3 days

Posts: 54

Торрент-статистика

Post 22-Nov-2019 14:06

[Quote]

Чёрный кофе / Трёхдисковое подарочное издание "Студии А"
Жанр: Heavy Metal
Носитель: CDR
Страна-производитель диска (релиза): Россия
Год издания: 2010
Издатель (лейбл): Студия "А"
Номер по каталогу: SA-393
Страна исполнителя (группы): СССР
Аудиокодек: FLAC (*.flac)
Тип рипа: image+.cue
Источник: собственный рип
Наличие сканов в содержимом раздачи: да

Сладкий ангел (1985) (00:32:08)

1.Сладкий ангел
2.Звуки космоса
3.Пылает за окном звезда
4.Я знаю
5.Смыты все краски лета
6.Листья
7.Лилия
8.Чёрный кофе
9.Я уйду

Лог создания рипа

Exact Audio Copy V1.3 from 2. September 2016
Отчёт EAC об извлечении, выполненном 21. ноября 2019, 23:02
Чёрный кофе / Сладкий ангел (Пески вр.-2010)
Дисковод: TS8XDVDSTRANSCEND Adapter: 1 ID: 1
Режим чтения : Достоверность
Использование точного потока : Да
Отключение кэша аудио : Да
Использование указателей C2 : Нет
Коррекция смещения при чтении : 6
Способность читать области Lead-in и Lead-out : Нет
Заполнение пропущенных сэмплов тишиной : Да
Удаление блоков с тишиной в начале и конце : Нет
При вычислениях CRC использовались нулевые сэмплы : Да
Интерфейс : Встроенный Win32-интерфейс для Win NT/2000
Выходной формат : Пользовательский кодировщик
Выбранный битрейт : 896 kBit/s
Качество : Высокий
Добавление ID3-тега : Нет
Утилита сжатия : C:\Program Files (x86)\Exact Audio Copy\Flac\flac.exe
Дополнительные параметры : -V -8 -T "Date=%year%" -T "Genre=%genre%" %source%
TOC извлечённого CD
Трек | Старт | Длительность | Начальный сектор | Конечный сектор
---------------------------------------------------------------------
1 | 0:00.00 | 3:26.66 | 0 | 15515
2 | 3:26.66 | 4:14.36 | 15516 | 34601
3 | 7:41.27 | 3:14.36 | 34602 | 49187
4 | 10:55.63 | 2:51.42 | 49188 | 62054
5 | 13:47.30 | 4:38.16 | 62055 | 82920
6 | 18:25.46 | 2:56.43 | 82921 | 96163
7 | 21:22.14 | 4:07.41 | 96164 | 114729
8 | 25:29.55 | 2:57.56 | 114730 | 128060
9 | 28:27.36 | 3:40.42 | 128061 | 144602
Характеристики диапазона извлечения и сообщения об ошибках
Выбранный диапазон
Имя файла E:\_Альбомы-раздачи lossless\Чёрный кофе\Чёрный кофе-1985-Сладкий ангел (Пески вр.-2010)\Сладкий ангел.wav
Пиковый уровень 96.6 %
Скорость извлечения 4.1 X
Качество диапазона 100.0 %
CRC теста 247806C0
CRC копии 247806C0
Копирование... OK
Ошибок не произошло
AccurateRip: сводка
Трек 1 отсутствует в базе данных
Трек 2 отсутствует в базе данных
Трек 3 отсутствует в базе данных
Трек 4 отсутствует в базе данных
Трек 5 отсутствует в базе данных
Трек 6 отсутствует в базе данных
Трек 7 отсутствует в базе данных
Трек 8 отсутствует в базе данных
Трек 9 отсутствует в базе данных
Ни одного трека нет в базе AccurateRip
Конец отчёта
==== Контрольная сумма отчёта 668CC898474FFAD62CF6139D8A42FC9A707EEB477BCE4E646F5117C70855D278 ====

Об альбоме (сборнике)

"Сладкий ангел" - демо-альбом, официально не издавался.

Состав

Дмитрий Варшавский – гитара, вокал
Игорь Куприянов - бас гитара, вокал
Сергей Черняков – ударные
Сергей Кудишин – гитара
---------------------------------------------------------

Светлый металл (1986) (00:41:35)

01.Знамя мира
02.Это - рок!
03.Светлый металл
04.Владимирская Русь
05.Дьявол во плоти
06.Незнакомец
07.Путешествие в жизнь
08.Переступи порог
09.Звёздный водоём
10.Звуки космоса
11.Чёрный кофе

Лог создания рипа

Exact Audio Copy V1.3 from 2. September 2016
Отчёт EAC об извлечении, выполненном 21. ноября 2019, 23:41
Чёрный кофе / Светлый металл (Пески вр.-2010)
Дисковод: TS8XDVDSTRANSCEND Adapter: 1 ID: 1
Режим чтения : Достоверность
Использование точного потока : Да
Отключение кэша аудио : Да
Использование указателей C2 : Нет
Коррекция смещения при чтении : 6
Способность читать области Lead-in и Lead-out : Нет
Заполнение пропущенных сэмплов тишиной : Да
Удаление блоков с тишиной в начале и конце : Нет
При вычислениях CRC использовались нулевые сэмплы : Да
Интерфейс : Встроенный Win32-интерфейс для Win NT/2000
Выходной формат : Пользовательский кодировщик
Выбранный битрейт : 896 kBit/s
Качество : Высокий
Добавление ID3-тега : Нет
Утилита сжатия : C:\Program Files (x86)\Exact Audio Copy\Flac\flac.exe
Дополнительные параметры : -V -8 -T "Date=%year%" -T "Genre=%genre%" %source%
TOC извлечённого CD
Трек | Старт | Длительность | Начальный сектор | Конечный сектор
---------------------------------------------------------------------
1 | 0:00.00 | 3:27.68 | 0 | 15592
2 | 3:27.68 | 4:17.09 | 15593 | 34876
3 | 7:45.02 | 3:16.71 | 34877 | 49647
4 | 11:01.73 | 4:37.07 | 49648 | 70429
5 | 15:39.05 | 2:54.25 | 70430 | 83504
6 | 18:33.30 | 4:17.08 | 83505 | 102787
7 | 22:50.38 | 3:38.20 | 102788 | 119157
8 | 26:28.58 | 4:16.52 | 119158 | 138409
9 | 30:45.35 | 3:17.58 | 138410 | 153242
10 | 34:03.18 | 4:49.53 | 153243 | 174970
11 | 38:52.71 | 2:42.64 | 174971 | 187184
Характеристики диапазона извлечения и сообщения об ошибках
Выбранный диапазон
Имя файла E:\_Альбомы-раздачи lossless\Чёрный кофе\Чёрный кофе-1986-Светлый металл (Пески вр.-2010)\Светлый металл.wav
Пиковый уровень 100.0 %
Скорость извлечения 4.4 X
Качество диапазона 100.0 %
CRC теста 23844BAE
CRC копии 23844BAE
Копирование... OK
Ошибок не произошло
AccurateRip: сводка
Трек 1 отсутствует в базе данных
Трек 2 отсутствует в базе данных
Трек 3 отсутствует в базе данных
Трек 4 отсутствует в базе данных
Трек 5 отсутствует в базе данных
Трек 6 отсутствует в базе данных
Трек 7 отсутствует в базе данных
Трек 8 отсутствует в базе данных
Трек 9 отсутствует в базе данных
Трек 10 отсутствует в базе данных
Трек 11 отсутствует в базе данных
Ни одного трека нет в базе AccurateRip
Конец отчёта
==== Контрольная сумма отчёта 8019F09571F8E898C0D77E6670D34951006155B9D48814914E8EC0C4D5CDA0EC ====

Об альбоме

Ранняя демо-версия альбома. Интересна композицией "Незнакомец", позже на альбоме "Переступи порог" эта композиция была представлена в несколько иной версии.
----------------------------------------------------------

Концерт в Центральном Доме туриста (1986) (00:37:10)

1.Вступление Ованеса Мелик-Пашаева
2.Переступи порог
3.Владимирская Русь
4.Светлый металл
5.Мой дом на круче
6.Я ищу
7.Знамя мира
8.Чёрный кофе
9.Замыкая круг

Лог создания рипа

Exact Audio Copy V1.3 from 2. September 2016
Отчёт EAC об извлечении, выполненном 22. ноября 2019, 0:07
Чёрный кофе / Концерт в ЦДТ 02.05.1986 (Пески вр.-2010)
Дисковод: TS8XDVDSTRANSCEND Adapter: 1 ID: 1
Режим чтения : Достоверность
Использование точного потока : Да
Отключение кэша аудио : Да
Использование указателей C2 : Нет
Коррекция смещения при чтении : 6
Способность читать области Lead-in и Lead-out : Нет
Заполнение пропущенных сэмплов тишиной : Да
Удаление блоков с тишиной в начале и конце : Нет
При вычислениях CRC использовались нулевые сэмплы : Да
Интерфейс : Встроенный Win32-интерфейс для Win NT/2000
Выходной формат : Пользовательский кодировщик
Выбранный битрейт : 896 kBit/s
Качество : Высокий
Добавление ID3-тега : Нет
Утилита сжатия : C:\Program Files (x86)\Exact Audio Copy\Flac\flac.exe
Дополнительные параметры : -V -8 -T "Date=%year%" -T "Genre=%genre%" %source%
TOC извлечённого CD
Трек | Старт | Длительность | Начальный сектор | Конечный сектор
---------------------------------------------------------------------
1 | 0:00.00 | 3:44.29 | 0 | 16828
2 | 3:44.29 | 4:14.28 | 16829 | 35906
3 | 7:58.57 | 4:55.17 | 35907 | 58048
4 | 12:53.74 | 3:20.67 | 58049 | 73115
5 | 16:14.66 | 3:13.19 | 73116 | 87609
6 | 19:28.10 | 4:26.08 | 87610 | 107567
7 | 23:54.18 | 3:43.55 | 107568 | 124347
8 | 27:37.73 | 3:39.06 | 124348 | 140778
9 | 31:17.04 | 5:53.17 | 140779 | 167270
Характеристики диапазона извлечения и сообщения об ошибках
Выбранный диапазон
Имя файла E:\_Альбомы-раздачи lossless\Чёрный кофе\Чёрный кофе-1986-Концерт в ЦДТ 02.05.1986 (Пески вр.-2010)\Концерт в ЦДТ 02.05.1986.wav
Пиковый уровень 99.6 %
Скорость извлечения 4.3 X
Качество диапазона 100.0 %
CRC теста 7367ECE7
CRC копии 7367ECE7
Копирование... OK
Ошибок не произошло
AccurateRip: сводка
Трек 1 отсутствует в базе данных
Трек 2 отсутствует в базе данных
Трек 3 отсутствует в базе данных
Трек 4 отсутствует в базе данных
Трек 5 отсутствует в базе данных
Трек 6 отсутствует в базе данных
Трек 7 отсутствует в базе данных
Трек 8 отсутствует в базе данных
Трек 9 отсутствует в базе данных
Ни одного трека нет в базе AccurateRip
Конец отчёта
==== Контрольная сумма отчёта 9923E0F7704FFC5F1729B4C299BD98BC99E5A4D6D3BD29B209D9109318284E78 ====

Об альбоме

Концертное выступление группы Дмитрия Варшавского "Чёрный кофе" 2 мая 1986 года в рамках программы "Замыкая круг" Ованеса Мелик-Пашаева. «Замыкая круг» — известная песня, написанная Крисом Кельми на стихи Маргаритой Пушкиной.
В 1986 году Дмитрий Варшавский устроился на работу в Марийскую филармонию к известному музыкальному менеджеру Ованесу Мелик-Пашаеву. С ним «Черный кофе» проработал два года, в течение которых группа выпустила два альбома, вела активную гастрольную деятельность (в том числе выехала в Испанию). Альбомы группы расходились по СССР миллионными тиражами.
---------------------------------------------------------

Фото

Доп. информация

Рип с компакт-дисков Студии А, 2010, SA-393, (3 CD-r).
Other forum [Profile] [PM]

Dracula

Longevity: 6 years 1 month

Posts: 10712

Торрент-статистика

Post 22-Nov-2019 14:08 (after 1 minute)

Топик был перенесен из форума Rock в форум Metal


Soldat_5
 
Similar theme
Forum Topic Author Torrent Replies Last Post
./templates/default/images/folder_dl.gif Metal (Heavy Metal) Impellitteri - Venom [European Bonus Track Edition] - 2015, MP3, 320 kbps Omen
0 | 1

0 | 1614

17

2015-04-17 00:09
Omen Latest
./templates/default/images/folder_dl.gif Metal (Heavy Metal) [CD] Manowar - Greatest Hits [2CD] - 2012, FLAC (image+.cue), lossless Omen
1 | 0

0 | 1662

25

2015-07-26 12:32
Omen Latest
Display posts from previous:    
Reply to topic

The time now is: Today 09:32

All times are GMT + 3 Hours



You cannot post new topics in this forum
You cannot reply to topics in this forum
You cannot edit your posts in this forum
You cannot delete your posts in this forum
You cannot vote in polls in this forum
You cannot attach files in this forum
You cannot download files in this forum