Today is a free download without charge Download

Clint Arthur | Новый Современный Секс / New Sex Now (2004) DVDRip

Reply to topic
 
Author
Message

Clavik ®

Gender:

Longevity: 6 years 2 months

Posts: 2371

Location: Украина

Торрент-статистика

Post 30-Nov-2019 10:43

[Quote]

Clint Arthur | Новый Современный Секс / New Sex Now (2004) DVDRip- Жанр: Обучающий, Эротика
Производство: США, New Sex Institute
Режиссёр: Клинт Артур
Возрастное ограничение: 18+
Описание:
Наиболее всесторонним - и самым дорогим! - современным видеопособием по сексу является данная программа американца Клинта Артура.
В рекламе, предшествовавшей выходу в свет DVD, крупнейший американский видеодистрибьютор - компания "Блокбастер видео" информировала потенциальных покупателей о том, что цена диска составит 35 долларов США - т.е. в три раза больше, чем мы привыкли видеть на обложках обучающих ДВД.
Наша видеопрограмма имеет подзаголовок "Искусство любви для гурманов". В США только за два года продаж диска в "армию гурманов любви" вступило более 35 миллионов человек. Теперь такая возможность появится и у россиян.
Продолжительность: 00:57:54
Качество видео: DVDRip
Видео: DivX 5, 704x480, 1012 Kbps
Аудио: MP3, 2 ch, 128 Kbps
Перевод: Одноголосый, Закадровый

MediaInfo:

Код:
Общее
Полное имя                               : New Sex.avi
Формат                                   : DivX
Формат/Информация                        : Hack of AVI
Размер файла                             : 472 Мбайт
Продолжительность                        : 57 м. 54 с.
Общий поток                              : 1140 Кбит/сек
FileExtension_Invalid                    : divx
Видео
Идентификатор                            : 0
Формат                                   : MPEG-4 Visual
Параметр BVOP формата                    : 1
Параметр QPel формата                    : Нет
Параметр GMC формата                     : Без точки перехода
Параметр матрицы формата                 : Default (H.263)
Режим смешивания                         : Сжатый битовый поток
Идентификатор кодека                     : DX50
Идентификатор кодека/Подсказка           : DivX 5
Продолжительность                        : 57 м. 54 с.
Битрейт                                  : 1000 Кбит/сек
Номинальный битрейт                      : 9708 Кбит/сек
Ширина                                   : 704 пикселя
Высота                                   : 480 пикселей
Соотношение сторон                       : 3:2
Частота кадров                           : 29,970 (30000/1001) кадров/сек
Стандарт вещания                         : NTSC
Цветовое пространство                    : YUV
Субдискретизация насыщенности            : 4:2:0
Битовая глубина                          : 8 бит
Тип развёртки                            : Прогрессивная
Метод сжатия                             : С потерями
Бит/(Пиксели*Кадры)                      : 0.099
Размер потока                            : 414 Мбайт (88%)
Заголовок                                : Main
Библиотека кодирования                   : DivX 6.6.0 (UTC 2007-05-04)
Аудио
Идентификатор                            : 1
Формат                                   : MPEG Audio
Версия формата                           : Version 1
Профиль формата                          : Layer 3
Режим                                    : Joint stereo
Расширение режима                        : MS Stereo
Идентификатор кодека                     : 55
Идентификатор кодека/Подсказка           : MP3
Продолжительность                        : 57 м. 54 с.
Вид битрейта                             : Постоянный
Битрейт                                  : 128 Кбит/сек
Каналы                                   : 2 канала
Частота                                  : 48,0 КГц
Метод сжатия                             : С потерями
Размер потока                            : 53,0 Мбайт (11%)
Выравнивание                             : Разделение по промежуткам
Продолжительность промежутка             : 33  мс. (1,00 видеокадр)
Время предзагрузки промежутка            : 500  мс.
Заголовок                                : Audio
Библиотека кодирования                   : LAME3.97 (beta)

Продолжение описания:

Один из покупателей диска написал на сайт Клинта Артура многостраничное признание в любви к его творению. Мы выделим один интересный абзац из электронного послания: "...Ваша методика великолепна и позволила мне взглянуть на секс заново: она начисто лишена свойственного порнографии непристойного смакования и ощущения подглядывания в замочную скважину. Спасибо за отличный подарок нашей семье!"
Примечание: Обучение с позиции мужчины (т.е. фильм гораздо больше для сильной половины на благо прекрасной половины, чем наоборот).
Скриншоты:
       

_________________


Other forum [Profile] [PM]
Display posts from previous:    
Reply to topic

The time now is: Today 09:44

All times are GMT + 3 Hours



You cannot post new topics in this forum
You cannot reply to topics in this forum
You cannot edit your posts in this forum
You cannot delete your posts in this forum
You cannot vote in polls in this forum
You cannot attach files in this forum
You cannot download files in this forum