Today is a free download without charge Download

Ибица / Ibiza (Арно Лемор) [2019, Комедия, BDRip-AVC] [DUB] [iTunes]

Reply to topic
 
Author
Message

Орлов Владимир ®

Gender:

Longevity: 3 months 2 days

Posts: 383

Location: Россия , Долгопрудный, Моск.обл

Торрент-статистика

Post 02-Dec-2019 15:50

[Quote]

--Ибица / Ibiza--
Информация о фильме
Название: Ибица
Оригинальное название: Ibiza
Год выпуска: 2019
Жанр: Комедия
Режиссер: Арно Лемор--В ролях: Кристиан Клавье, Халид Самата, Матильда Сенье, Леопольд Бухсбаум, Пили Груан, Джои Старр, Оливье Маршаль, Фредерик Бель, Луи-До де Ланкесэ, Виктор Уэртас--О фильме: Консервативный доктор-ортопед Филипп пытается расположить к себе двух детей-подростков своей новой возлюбленной. Он решает провести вместе с ними семейный отпуск у моря, и молодежь выбирает Ибицу, где любителю тихого отдыха придется непросто.-- --Страна: Франция, Бельгия
Студия: Atelier de Production, Gaumont, France 2 Cinéma
Продолжительность: 01:26:01
Перевод: Дублированный iTunes--Файл
Формат: MKV
Качество: BDRip-AVC
Видео: 720x302 (2.40:1), 24 fps, x264 ~1019 kbps avg, 0.195 bit/pixel
Звук: 48 kHz, AC3, 2 (L,R) ch, ~192 kbps avg
Субтитры: Нет--** Сэмпл --

Тех.данные видеофайла

General
Unique ID: 176019480554996049637179796762616306370 (0x846C1E6C463B6045759FA8658BF69AC2)
Complete name: D:\OlLanDGroup\iTunes\Ibiza.2019.BDRip(AVC).745Mb.OlLanDGroup.mkv
Format: Matroska
Format version: Version 4
File size: 746 MiB
Duration: 1 h 26 min
Overall bit rate: 1 212 kb/s
Movie name: Ibiza.2019.BDRip(AVC).745Mb.OlLanDGroup#Skandar#
Encoded date: UTC 2019-12-02 11:58:38
Writing application: mkvmerge v31.0.0 ('Dolores In A Shoestand') 64-bit
Writing library: libebml v1.3.6 + libmatroska v1.4.9
Video
ID: 1
Format: AVC
Format/Info: Advanced Video Codec
Format profile: [email protected]
Format settings: CABAC / 10 Ref Frames
Format settings, CABAC: Yes
Format settings, ReFrames: 10 frames
Codec ID: V_MPEG4/ISO/AVC
Duration: 1 h 26 min
Bit rate: 1 019 kb/s
Width: 720 pixels
Height: 302 pixels
Display aspect ratio: 2.40:1
Frame rate mode: Constant
Frame rate: 24.000 FPS
Color space: YUV
Chroma subsampling: 4:2:0
Bit depth: 8 bits
Scan type: Progressive
Bits/(Pixel*Frame): 0.195
Stream size: 627 MiB (84%)
Title: Ibiza.2019.BDRip(AVC).745Mb.OlLanDGroup#Skandar#
Writing library: x264 core 146 r2538 121396c
Encoding settings: cabac=1 / ref=10 / deblock=1:-3:-3 / analyse=0x3:0x133 / me=umh / subme=11 / psy=1 / psy_rd=0.97:0.05 / mixed_ref=1 / me_range=48 / chroma_me=1 / trellis=2 / 8x8dct=1 / cqm=0 / deadzone=21,11 / fast_pskip=0 / chroma_qp_offset=-3 / threads=6 / lookahead_threads=1 / sliced_threads=0 / nr=0 / decimate=0 / interlaced=0 / bluray_compat=0 / constrained_intra=0 / bframes=11 / b_pyramid=2 / b_adapt=2 / b_bias=0 / direct=3 / weightb=1 / open_gop=0 / weightp=2 / keyint=240 / keyint_min=23 / scenecut=40 / intra_refresh=0 / rc_lookahead=40 / rc=2pass / mbtree=0 / bitrate=1019 / ratetol=1.0 / qcomp=0.60 / qpmin=0 / qpmax=69 / qpstep=4 / cplxblur=20.0 / qblur=0.5 / vbv_maxrate=50000 / vbv_bufsize=62500 / nal_hrd=none / filler=0 / ip_ratio=1.40 / pb_ratio=1.30 / aq=1:1.00
Language: French
Default: Yes
Forced: No
Audio
ID: 2
Format: AC-3
Format/Info: Audio Coding 3
Commercial name: Dolby Digital
Codec ID: A_AC3
Duration: 1 h 26 min
Bit rate mode: Constant
Bit rate: 192 kb/s
Channel(s): 2 channels
Channel layout: L R
Sampling rate: 48.0 kHz
Frame rate: 31.250 FPS (1536 SPF)
Bit depth: 16 bits
Compression mode: Lossy
Stream size: 118 MiB (16%)
Title: DUB [iTunes]
Language: Russian
Service kind: Complete Main
Default: Yes
Forced: No
Menu
00:00:00.000: en:Глава 01
00:06:39.792: en:Глава 02
00:14:23.958: en:Глава 03
00:20:40.958: en:Глава 04
00:26:57.042: en:Глава 05
00:32:19.625: en:Глава 06
00:39:51.292: en:Глава 07
00:47:00.292: en:Глава 08
00:54:41.000: en:Глава 09
01:01:33.500: en:Глава 10
01:09:16.250: en:Глава 11
01:16:26.500: en:Глава 12

Скриншоты

           

_________________
In forum [Profile] [PM]
Display posts from previous:    
Reply to topic

The time now is: Today 08:57

All times are GMT + 3 Hours



You cannot post new topics in this forum
You cannot reply to topics in this forum
You cannot edit your posts in this forum
You cannot delete your posts in this forum
You cannot vote in polls in this forum
You cannot attach files in this forum
You cannot download files in this forum