Today is a free download without charge Download

(Сhanson) Сергей Трофимов - Посередине - 2017 [FLAC, tracks +.cue, lossless]

Reply to topic
 
Author
Message

mayor ®

Gender:

Longevity: 11 months

Posts: 206

Location: РФ

Торрент-статистика

Post 11-Dec-2019 18:12

[Quote]

-Сергей Трофимов - Посередине--
Год издания: 2017
Страна: Russia
Жанр: Shanson
Продолжительность: 00:48:32-Лейбл издания: United Music Group
Страна-выпуска диска: Russia
Номер по каталогу: UMG17 CD-1300-Формат: FLAC
Битрейт аудио: Lossless
Тип рипа: tracks +.cue
Наличие сканов в содержимом раздачи: да
-

Трэклист


01. Соловьи (3:01)
02. Враг народа (3:15)
03. Жаба (3:23)
04. Падаем (4:04)
05. У меня есть ты (3:06)
06. Когда по жизни не везёт (3:42)
07. Казачья кошерная (3:31)
08. Что-то пошло не так (2:55)
09. Отче Серафиме (3:03)
10. Родина моя (4:05)
11. Народ (3:10)
12. Посередине (3:03)
13. Прогноз погоды (4:07)
14. Райский сад (4:07)
-

Лог создания рипа

Код:
Exact Audio Copy V1.3 from 2. September 2016
Отчёт EAC об извлечении, выполненном 4. мая 2017, 18:09
Сергей Трофимов / Посередине
Дисковод: Optiarc DVD RW AD-7241S   Adapter: 1  ID: 0
Режим чтения                 : Достоверность
Использование точного потока : Да
Отключение кэша аудио        : Да
Использование указателей C2  : Нет
Коррекция смещения при чтении                     : 48
Способность читать области Lead-in и Lead-out     : Нет
Заполнение пропущенных сэмплов тишиной            : Да
Удаление блоков с тишиной в начале и конце        : Нет
При вычислениях CRC использовались нулевые сэмплы : Да
Интерфейс                                         : Встроенный Win32-интерфейс для Win NT/2000
Обработка зазоров                                 : Добавлено к предыдущему треку
Выходной формат          : Пользовательский кодировщик
Выбранный битрейт        : 128 kBit/s
Качество                 : Высокий
Добавление ID3-тега      : Нет
Утилита сжатия           : C:\Program Files (x86)\Exact Audio Copy\Flac\flac.exe
Дополнительные параметры : -V -8 -T "Genre=%genre%" -T "Artist=%artist%" -T "Title=%title%" -T "Album=%albumtitle%" -T "Date=%year%" -T "Tracknumber=%tracknr%" -T "Comment=%comment%" %source%
TOC извлечённого CD
     Трек |   Старт  | Длительность | Начальный сектор | Конечный сектор
    ---------------------------------------------------------------------
       1  |  0:00.00 |    3:01.36   |           0      |      13610
       2  |  3:01.36 |    3:14.41   |       13611      |      28201
       3  |  6:16.02 |    3:23.33   |       28202      |      43459
       4  |  9:39.35 |    4:04.07   |       43460      |      61766
       5  | 13:43.42 |    3:06.31   |       61767      |      75747
       6  | 16:49.73 |    3:41.70   |       75748      |      92392
       7  | 20:31.68 |    3:30.58   |       92393      |     108200
       8  | 24:02.51 |    2:54.48   |      108201      |     121298
       9  | 26:57.24 |    3:03.10   |      121299      |     135033
      10  | 30:00.34 |    4:04.47   |      135034      |     153380
      11  | 34:05.06 |    3:10.17   |      153381      |     167647
      12  | 37:15.23 |    3:02.38   |      167648      |     181335
      13  | 40:17.61 |    4:07.36   |      181336      |     199896
      14  | 44:25.22 |    4:06.72   |      199897      |     218418
Трек  1
     Имя файла F:\Музыка\01 Соловьи.wav
     Длина предзазора  0:00:02.00
     Пиковый уровень 86.5 %
     Скорость извлечения 2.2 X
     Качество трека 100.0 %
     CRC теста 0E927774
     CRC копии 0E927774
     Копирование... OK
Трек  2
     Имя файла F:\Музыка\02 Враг народа.wav
     Пиковый уровень 86.6 %
     Скорость извлечения 2.1 X
     Качество трека 99.9 %
     CRC теста C13CFE09
     CRC копии C13CFE09
     Копирование... OK
Трек  3
     Имя файла F:\Музыка\03 Жаба.wav
     Пиковый уровень 97.1 %
     Скорость извлечения 2.7 X
     Качество трека 100.0 %
     CRC теста 09E2CE64
     CRC копии 09E2CE64
     Копирование... OK
Трек  4
     Имя файла F:\Музыка\04 Падаем.wav
     Пиковый уровень 86.4 %
     Скорость извлечения 3.0 X
     Качество трека 100.0 %
     CRC теста 4128B95A
     CRC копии 4128B95A
     Копирование... OK
Трек  5
     Имя файла F:\Музыка\05 У меня есть ты.wav
     Пиковый уровень 97.2 %
     Скорость извлечения 3.0 X
     Качество трека 100.0 %
     CRC теста BB23E6FF
     CRC копии BB23E6FF
     Копирование... OK
Трек  6
     Имя файла F:\Музыка\06 Когда по жизни не везёт.wav
     Пиковый уровень 97.1 %
     Скорость извлечения 3.3 X
     Качество трека 100.0 %
     CRC теста 2C0A47CA
     CRC копии 2C0A47CA
     Копирование... OK
Трек  7
     Имя файла F:\Музыка\07 Казачья кошерная.wav
     Пиковый уровень 97.1 %
     Скорость извлечения 3.4 X
     Качество трека 100.0 %
     CRC теста D67A312C
     CRC копии D67A312C
     Копирование... OK
Трек  8
     Имя файла F:\Музыка\08 Что-то пошло не так.wav
     Пиковый уровень 97.2 %
     Скорость извлечения 2.9 X
     Качество трека 99.9 %
     CRC теста 57D6E594
     CRC копии 57D6E594
     Копирование... OK
Трек  9
     Имя файла F:\Музыка\09 Отче Серафиме.wav
     Пиковый уровень 86.6 %
     Скорость извлечения 3.6 X
     Качество трека 100.0 %
     CRC теста EF969385
     CRC копии EF969385
     Копирование... OK
Трек 10
     Имя файла F:\Музыка\10 Родина моя.wav
     Пиковый уровень 97.1 %
     Скорость извлечения 3.9 X
     Качество трека 100.0 %
     CRC теста 1371B5F1
     CRC копии 1371B5F1
     Копирование... OK
Трек 11
     Имя файла F:\Музыка\11 Народ.wav
     Пиковый уровень 98.8 %
     Скорость извлечения 3.4 X
     Качество трека 99.9 %
     CRC теста BC8CC298
     CRC копии BC8CC298
     Копирование... OK
Трек 12
     Имя файла F:\Музыка\12 Посередине.wav
     Пиковый уровень 86.5 %
     Скорость извлечения 3.9 X
     Качество трека 100.0 %
     CRC теста 1B9EC6DE
     CRC копии 1B9EC6DE
     Копирование... OK
Трек 13
     Имя файла F:\Музыка\13 Прогноз погоды.wav
     Пиковый уровень 97.1 %
     Скорость извлечения 4.3 X
     Качество трека 100.0 %
     CRC теста 6C2953F6
     CRC копии 6C2953F6
     Копирование... OK
Трек 14
     Имя файла F:\Музыка\14 Райский сад.wav
     Пиковый уровень 97.1 %
     Скорость извлечения 4.4 X
     Качество трека 100.0 %
     CRC теста D02F4A5A
     CRC копии D02F4A5A
     Копирование... OK
Ошибок не произошло
Конец отчёта

Индексная карта (non-compilant .cue)

Код:
REM GENRE Шансон
REM DATE 2017
REM DISCID B20B600E
REM COMMENT "ExactAudioCopy v1.3"
PERFORMER "Сергей Трофимов"
TITLE "Посередине"
REM COMPOSER ""
FILE "01 Соловьи.wav" WAVE
  TRACK 01 AUDIO
    TITLE "Соловьи"
    PERFORMER "Сергей Трофимов"
    REM COMPOSER ""
    INDEX 01 00:00:00
FILE "02 Враг народа.wav" WAVE
  TRACK 02 AUDIO
    TITLE "Враг народа"
    PERFORMER "Сергей Трофимов"
    REM COMPOSER ""
    INDEX 01 00:00:00
FILE "03 Жаба.wav" WAVE
  TRACK 03 AUDIO
    TITLE "Жаба"
    PERFORMER "Сергей Трофимов"
    REM COMPOSER ""
    INDEX 01 00:00:00
FILE "04 Падаем.wav" WAVE
  TRACK 04 AUDIO
    TITLE "Падаем"
    PERFORMER "Сергей Трофимов"
    REM COMPOSER ""
    INDEX 01 00:00:00
FILE "05 У меня есть ты.wav" WAVE
  TRACK 05 AUDIO
    TITLE "У меня есть ты"
    PERFORMER "Сергей Трофимов"
    REM COMPOSER ""
    INDEX 01 00:00:00
FILE "06 Когда по жизни не везёт.wav" WAVE
  TRACK 06 AUDIO
    TITLE "Когда по жизни не везёт"
    PERFORMER "Сергей Трофимов"
    REM COMPOSER ""
    INDEX 01 00:00:00
FILE "07 Казачья кошерная.wav" WAVE
  TRACK 07 AUDIO
    TITLE "Казачья кошерная"
    PERFORMER "Сергей Трофимов"
    REM COMPOSER ""
    INDEX 01 00:00:00
FILE "08 Что-то пошло не так.wav" WAVE
  TRACK 08 AUDIO
    TITLE "Что-то пошло не так"
    PERFORMER "Сергей Трофимов"
    REM COMPOSER ""
    INDEX 01 00:00:00
FILE "09 Отче Серафиме.wav" WAVE
  TRACK 09 AUDIO
    TITLE "Отче Серафиме"
    PERFORMER "Сергей Трофимов"
    REM COMPOSER ""
    INDEX 01 00:00:00
FILE "10 Родина моя.wav" WAVE
  TRACK 10 AUDIO
    TITLE "Родина моя"
    PERFORMER "Сергей Трофимов"
    REM COMPOSER ""
    INDEX 01 00:00:00
FILE "11 Народ.wav" WAVE
  TRACK 11 AUDIO
    TITLE "Народ"
    PERFORMER "Сергей Трофимов"
    REM COMPOSER ""
    INDEX 01 00:00:00
FILE "12 Посередине.wav" WAVE
  TRACK 12 AUDIO
    TITLE "Посередине"
    PERFORMER "Сергей Трофимов"
    REM COMPOSER ""
    INDEX 01 00:00:00
FILE "13 Прогноз погоды.wav" WAVE
  TRACK 13 AUDIO
    TITLE "Прогноз погоды"
    PERFORMER "Сергей Трофимов"
    REM COMPOSER ""
    INDEX 01 00:00:00
FILE "14 Райский сад.wav" WAVE
  TRACK 14 AUDIO
    TITLE "Райский сад"
    PERFORMER "Сергей Трофимов"
    REM COMPOSER ""
    INDEX 01 00:00:00
-- ---релиз подготовлен и оформлен sergej644

_________________
Other forum [Profile] [PM]
Display posts from previous:    
Reply to topic

The time now is: Today 03:50

All times are GMT + 3 Hours



You cannot post new topics in this forum
You cannot reply to topics in this forum
You cannot edit your posts in this forum
You cannot delete your posts in this forum
You cannot vote in polls in this forum
You cannot attach files in this forum
You cannot download files in this forum