Today is a free download without charge Download

Glorious Bankrobbers - Glorious Bankrobbers (2017) [FLAC|Lossless|image + .cue] <Hard Rock, Glam Rock>

Reply to topic
 
Author
Message

Soldat_5 ®

Longevity: 1 year

Posts: 155

Торрент-статистика

Post 14-Dec-2019 17:10

[Quote]

Glorious Bankrobbers - Glorious Bankrobbers (2017) - Жанр: Hard Rock, Glam Rock
Издание: Demon Doll / Metal Legacy Records - DDR125/ML025
Источник:[релизёр:] Kantor1975
Продолжительность: 00:31:38
Кодек: FLAC
Битрейт: Lossless
Тип рипа: image + .cue
Треклист:
1 Psycho Asshole
2 Too Much
3 More And More
4 Young Alcoholic "Part 1"
5 Did You No Wrong
6 Jamie
7 Wild 'n' Free
8 The Best Speed (Is Rock'n'Roll)
9 Young Alcoholic "Part 2"
10 Blood Shed Twist

Отчёт EAC&#58;

Exact Audio Copy V1.3 from 2. September 2016
Отчёт EAC об извлечении, выполненном 13. декабря 2019, 18:42
Glorious Bankrobbers / Glorious Bankrobbers
Дисковод: ASUS DRW-1612BL Adapter: 3 ID: 1
Режим чтения : Достоверность
Использование точного потока : Да
Отключение кэша аудио : Да
Использование указателей C2 : Нет
Коррекция смещения при чтении : 6
Способность читать области Lead-in и Lead-out : Нет
Заполнение пропущенных сэмплов тишиной : Да
Удаление блоков с тишиной в начале и конце : Нет
При вычислениях CRC использовались нулевые сэмплы : Да
Интерфейс : Установленный внешний ASPI-интерфейс
Выходной формат : Пользовательский кодировщик
Выбранный битрейт : 128 kBit/s
Качество : Высокий
Добавление ID3-тега : Нет
Утилита сжатия : C:\Program Files\Exact Audio Copy\Flac\flac.exe
Дополнительные параметры : -V -8 -T "Date=%year%" -T "Genre=%genre%" %source%
TOC извлечённого CD
Трек | Старт | Длительность | Начальный сектор | Конечный сектор
---------------------------------------------------------------------
1 | 0:00.00 | 3:25.01 | 0 | 15375
2 | 3:25.01 | 1:59.43 | 15376 | 24343
3 | 5:24.44 | 3:15.37 | 24344 | 39005
4 | 8:40.06 | 2:54.63 | 39006 | 52118
5 | 11:34.69 | 3:38.64 | 52119 | 68532
6 | 15:13.58 | 3:13.45 | 68533 | 83052
7 | 18:27.28 | 4:05.29 | 83053 | 101456
8 | 22:32.57 | 3:39.13 | 101457 | 117894
9 | 26:11.70 | 2:21.73 | 117895 | 128542
10 | 28:33.68 | 3:08.37 | 128543 | 142679
Характеристики диапазона извлечения и сообщения об ошибках
Выбранный диапазон
Имя файла D:\Glorious Bankrobbers - Glorious Bankrobbers.wav
Пиковый уровень 100.0 %
Скорость извлечения 6.9 X
Качество диапазона 100.0 %
CRC теста A910BC6E
CRC копии A910BC6E
Копирование... OK
Ошибок не произошло
AccurateRip: сводка
Трек 1 отсутствует в базе данных
Трек 2 отсутствует в базе данных
Трек 3 отсутствует в базе данных
Трек 4 отсутствует в базе данных
Трек 5 отсутствует в базе данных
Трек 6 отсутствует в базе данных
Трек 7 отсутствует в базе данных
Трек 8 отсутствует в базе данных
Трек 9 отсутствует в базе данных
Трек 10 отсутствует в базе данных
Ни одного трека нет в базе AccurateRip
Конец отчёта
---- CUETools DB Plugin V2.1.6
[CTDB TOCID: UfZmvxr7aBqfKdRToPacz2jf39Q-] disk not present in database
Submit result: UfZmvxr7aBqfKdRToPacz2jf39Q- has been uploaded
==== Контрольная сумма отчёта 4678088CFD17B280A16D97038D6CB3E59F9C36F83C373E6BD64AF69CB2B1BA61 ====
Other forum [Profile] [PM]
Display posts from previous:    
Reply to topic

The time now is: Today 02:18

All times are GMT + 3 Hours



You cannot post new topics in this forum
You cannot reply to topics in this forum
You cannot edit your posts in this forum
You cannot delete your posts in this forum
You cannot vote in polls in this forum
You cannot attach files in this forum
You cannot download files in this forum