Today is a free download without charge Download

Милен Фармер 2019 – в кино / Mylene Farmer 2019 – Le Film (Франсуа Ансс) [2019, Pop, Концерт, BDRip, 1080i]

Reply to topic
 
Author
Message

mayor ®

Gender:

Longevity: 6 months 1 day

Posts: 206

Location: РФ

Торрент-статистика

Post 14-Dec-2019 17:54

[Quote]

Милен Фармер 2019 – в кино / Mylene Farmer 2019 – Le Film - Производство: Франция / Stuffed Monkey, Sony Music
Жанр: Pop, Концерт
Режиссер: Франсуа Ансс
Участники: Милен Фармер-После шестилетнего перерыва Милен Фармер триумфально вернулась на сцену, дав серию концертов в знаменитом парижском La Defense Arena — самом большом зале Европы. В программу вошли как уже любимые публикой хиты, так и песни из нового альбома.
Возраст: 16+ (зрителям, достигшим 16 лет)
Дата российской премьеры: 7 ноября 2019, «CoolConnections»
Продолжительность: 02:08:01
Качество видео: BDRip
Субтитры: Отсутствуют
Видео: AVC/H.264, 1920x800, ~8 Mbps
Аудио #1: DTS, 6 ch, 1509 kbps - Французский

MediaInfo:

x264 info: frame I:1953 Avg QP:17.54 size:169238
x264 info: frame P:50317 Avg QP:18.57 size: 68832
x264 info: frame B:139766 Avg QP:20.46 size: 27803
Unique ID : 54370425411115772960068248000234257873 (0x28E75CF01CEF725622FBADD8EF17FDD1)
Complete name : D:\Temp\NNM\MF2019.1080p.mkv
Format : Matroska
Format version : Version 4 / Version 2
File size : 8.51 GiB
Duration : 2h 8mn
Overall bit rate : 9 515 Kbps
Writing library : Lavf57.71.100
Video
ID : 1
Format : AVC
Format/Info : Advanced Video Codec
Format profile : [email protected]
Format settings, CABAC : Yes
Format settings, ReFrames : 5 frames
Codec ID : V_MPEG4/ISO/AVC
Duration : 2h 8mn
Bit rate : 8 000 Kbps
Width : 1 920 pixels
Height : 800 pixels
Display aspect ratio : 2.40:1
Frame rate mode : Constant
Frame rate : 25.000 fps
Color space : YUV
Chroma subsampling : 4:2:0
Bit depth : 8 bits
Scan type : MBAFF
Bits/(Pixel*Frame) : 0.208
Stream size : 6.99 GiB (82%)
Writing library : x264 core 157 r2935 545de2f
Encoding settings : cabac=1 / ref=5 / deblock=1:-3:-3 / analyse=0x3:0x113 / me=umh / subme=9 / psy=1 / psy_rd=1.05:0.10 / mixed_ref=1 / me_range=24 / chroma_me=1 / trellis=2 / 8x8dct=1 / cqm=0 / deadzone=21,11 / fast_pskip=0 / chroma_qp_offset=-3 / threads=5 / lookahead_threads=1 / sliced_threads=0 / nr=0 / decimate=0 / interlaced=tff / bluray_compat=0 / constrained_intra=0 / bframes=6 / b_pyramid=2 / b_adapt=2 / b_bias=0 / direct=1 / weightb=1 / open_gop=0 / weightp=0 / keyint=250 / keyint_min=25 / scenecut=40 / intra_refresh=0 / rc=2pass / mbtree=0 / bitrate=8000 / ratetol=1.0 / qcomp=0.70 / qpmin=3 / qpmax=69 / qpstep=4 / cplxblur=20.0 / qblur=0.5 / ip_ratio=1.40 / pb_ratio=1.30 / aq=2:1.00
Default : Yes
Forced : No
Audio
ID : 2
Format : DTS
Format/Info : Digital Theater Systems
Mode : 16
Format settings, Endianness : Big
Codec ID : A_DTS
Duration : 2h 8mn
Bit rate mode : Constant
Bit rate : 1 509 Kbps
Channel(s) : 6 channels
Channel positions : Front: L C R, Side: L R, LFE
Sampling rate : 48.0 KHz
Bit depth : 24 bits
Compression mode : Lossy
Stream size : 1.35 GiB (16%)
Language : French
Default : Yes
Forced : No

Треклист:

Треклист:
01. Coming from the Vortex
02. Interstellaires
03. Sans logique
04. Rolling Stone
05. Pourvu qu'elles soient douces
06. Stolen Car
07. Des larmes
08. California
09. M'effondre
10. L'âme-stram-gram
11. Hard Hip Hop
12. Un jour ou l'autre
13. Ainsi soit je...
14. Innamoramento
15. Sans contrefaçon
16. Histoires de fesses
17. Sentimentale
18. Désenchantée
19. Rêver
20. Je te rends ton amour
21. Fuck Them All / C'est dans l'air
22. L'horloge
23. Générique de fin
Скриншоты:
       

_________________
Other forum [Profile] [PM]
Display posts from previous:    
Reply to topic

The time now is: Today 17:04

All times are GMT + 3 Hours



You cannot post new topics in this forum
You cannot reply to topics in this forum
You cannot edit your posts in this forum
You cannot delete your posts in this forum
You cannot vote in polls in this forum
You cannot attach files in this forum
You cannot download files in this forum