Today is a free download without charge Download

Одесский пароход (Сергей Урсуляк) [2020, Фильм, Комедия, Экранизация, SATRip]

Reply to topic
 
Author
Message

mayor ®

Gender:

Longevity: 4 months

Posts: 206

Location: РФ

Торрент-статистика

Post 01-Jan-2020 17:27

[Quote]

Одесский пароход--- Год выпуска: 2020
Страна: Россия
Жанр: Фильм, Комедия, Экранизация
Продолжительность: 01:22
Перевод: Не требуется- Режиссер: Сергей Урсуляк- В ролях:
Роман Мадянов, Чулпан Хаматова, Владимир Машков, Тимофей Трибунцев, Сергей Маковецкий, Марина Александрова, Павел Деревянко, Ирина Муравьёва, Михаил Пореченков, Сергей Гармаш
Описание:
По мотивам произведений Михаила Жванецкого. В основе сюжета новой комедии – знаменитые миниатюры Одесский пароход, Два яблока, Собрание на ликеро-водочном заводе и другие произведения одного из самых прославленных писателей-юмористов страны Михаила Жванецкого. Всего – 13 миниатюр. Судьбы героев каждой истории переплетаются, и перед зрителем предстанет панорама жизни, в которой так и не удалось заслушать начальника транспортного цеха, экипаж самолета интересуется у пассажиров, не умеет ли кто сажать самолет, буфетчица встает за штурвал парохода, а отец учит сына арифметике, уничтожая все яблоки в доме…

Качество: SATRip
Формат: MPEG-4
Видео кодек: XVID
Аудио кодек: MP3
Видео: AVC, 720x400 (16:9), 1 696 kbps, 25 fps
Аудио: AC3 / 2.0 / 48 kHz / 192 kbps /

ОтчетМедиаИнфо

General
Complete name : D:\Одесский пароход 2020.avi
Format : AVI
Format/Info : Audio Video Interleave
Format profile : OpenDML
File size : 1.09 GiB
Duration : 1 h 22 min
Overall bit rate : 1 905 kb/s
Movie name : # from 7turza #
Writing application : Lavf58.29.100
Video
ID : 0
Format : MPEG-4 Visual
Format profile : Advanced [email protected]
Format settings : BVOP1
Format settings, BVOP : 1
Format settings, QPel : No
Format settings, GMC : No warppoints
Format settings, Matrix : Default (H.263)
Codec ID : XVID
Codec ID/Hint : XviD
Duration : 1 h 22 min
Bit rate : 1 696 kb/s
Width : 720 pixels
Height : 400 pixels
Display aspect ratio : 16:9
Frame rate : 25.000 FPS
Color space : YUV
Chroma subsampling : 4:2:0
Bit depth : 8 bits
Scan type : Progressive
Compression mode : Lossy
Bits/(Pixel*Frame) : 0.236
Stream size : 996 MiB (89%)
Writing library : XviD 67
Audio
ID : 1
Format : MPEG Audio
Format version : Version 1
Format profile : Layer 3
Format settings : Joint stereo / MS Stereo
Codec ID : 55
Codec ID/Hint : MP3
Duration : 1 h 22 min
Bit rate mode : Constant
Bit rate : 192 kb/s
Channel(s) : 2 channels
Sampling rate : 48.0 kHz
Compression mode : Lossy
Stream size : 113 MiB (10%)
Alignment : Aligned on interleaves
Interleave, duration : 24 ms (0.60 video frame)
Скриншоты
         

_________________
Other forum [Profile] [PM]
Display posts from previous:    
Reply to topic

The time now is: Today 11:51

All times are GMT + 3 Hours



You cannot post new topics in this forum
You cannot reply to topics in this forum
You cannot edit your posts in this forum
You cannot delete your posts in this forum
You cannot vote in polls in this forum
You cannot attach files in this forum
You cannot download files in this forum