Today is a free download without charge Download

Argent - 7 albums, 1 Box-set, 13CD (1969-2015) [FLAC|Lossless|image + .cue] <Classic Rock, Prog Rock, Psychedelic Rock>

Reply to topic
 
Author
Message

Soldat_5 ®

Longevity: 1 year

Posts: 155

Торрент-статистика

Post 03-Jan-2020 14:19

[Quote]

Argent - 7 альбомов, 1 Box set, 13 CD (1969-2015) - -Жанр: Classic Rock, Prog Rock, Psychedelic Rock, Rock | Страна: London, England, UK | Продолжительность: 09:12:40 | Кодек: FLAC | Битрейт: Lossles | Тип рипа: image + .cue | tracks + .cue | Наличие полиграфии: full


Описание:

"Argent" - английская группа, существовавшая в 1969-1976 годах. Её основал бывший участник группы «The Zombies» вокалист и клавишник Род Арджент (Rod Argent). После того, как "зомби" разбежались кто куда, Род образовал собственный коллектив, назвав его своим именем. В него вошли двоюродный брат Арджента Джим Родфорд (Jim Rodford, бас, вокал, - экс-"The Mike Cotton Sound"), Расс Боллэрд (Russ Ballard, гитара, вокал) и Роберт Хенрит (Robert Henrit, ударные, экс-"The Roulettes"). B 1976 году группа «Argent» распалась, впоследствии никогда не воссоединялась, разве что для очень редких концертных выступлений, например в 1985-м году.
Треклист:
Список альбомов:
1972 | All Together Now
1973 | In Deep
1975 | Circus
1976 | The Argent Anthology: A Collection Of Greatest Hits
2000 | Argent | Ring Of Hands (2CD)
2005 | In Deep | Nexus (2CD)
2009 | Original Album Classics Box Set (Anthology) (5CD Box-Set)

1972 | All Together Now (2012 | Esoteric Recordings&#41;

Страна-производитель диска: EU
Номер по каталогу: ECLEC 2321
Тип раздачи: image+.cue
Особенность релиза: Reissue, Remastered
Источник (релизер): Alexharvey
Треклист:
--------------------------

01. Hold Your Head Up (6:19)
02. Keep On Rollin' (4:29)
03. Tragedy (4:49)
04. I Am The Dance Of Ages (3:47)
05. Be My Lover, Be My Friend (5:21)
06. He's A Dynamo (3:49)
07. Pure Love: (13:10)
I. Fantasia
II. Prelude
III. Pure Love
IV. Finale
08. Closer To Heaven (Bonus Track) (3:30)

Лог создания рипа

Код:
Exact Audio Copy V1.3 from 2. September 2016
EAC extraction logfile from 23. January 2019, 18:28
Argent / All Together Now
Used drive  : TSSTcorpCDDVDW TS-L633B   Adapter: 1  ID: 0
Read mode               : Secure
Utilize accurate stream : Yes
Defeat audio cache      : Yes
Make use of C2 pointers : No
Read offset correction                      : 6
Overread into Lead-In and Lead-Out          : No
Fill up missing offset samples with silence : Yes
Delete leading and trailing silent blocks   : No
Null samples used in CRC calculations       : Yes
Used interface                              : Native Win32 interface for Win NT & 2000
Used output format : Internal WAV Routines
Sample format      : 44.100 Hz; 16 Bit; Stereo
TOC of the extracted CD
Track |   Start  |  Length  | Start sector | End sector
---------------------------------------------------------
1  |  0:00.00 |  6:19.18 |         0    |    28442
2  |  6:19.18 |  4:29.36 |     28443    |    48653
3  | 10:48.54 |  4:49.37 |     48654    |    70365
4  | 15:38.16 |  3:46.60 |     70366    |    87375
5  | 19:25.01 |  5:20.48 |     87376    |   111423
6  | 24:45.49 |  3:49.07 |    111424    |   128605
7  | 28:34.56 | 13:10.07 |    128606    |   187862
8  | 41:44.63 |  3:30.16 |    187863    |   203628
Range status and errors
Selected range
Filename F:\Alexharvey\Argent - All Together Now.wav
Peak level 98.8 %
Extraction speed 2.7 X
Range quality 100.0 %
Test CRC 9D5D866F
Copy CRC 9D5D866F
Copy OK
No errors occurred
AccurateRip summary
Track  1  accurately ripped (confidence 5)  [0348B156]  (AR v2)
Track  2  accurately ripped (confidence 5)  [605A3DC8]  (AR v2)
Track  3  accurately ripped (confidence 5)  [77406833]  (AR v2)
Track  4  accurately ripped (confidence 5)  [1E5887FB]  (AR v2)
Track  5  accurately ripped (confidence 5)  [75529702]  (AR v2)
Track  6  accurately ripped (confidence 5)  [A852CB58]  (AR v2)
Track  7  accurately ripped (confidence 5)  [6C5B49D4]  (AR v2)
Track  8  accurately ripped (confidence 5)  [CDFDA60A]  (AR v2)
All tracks accurately ripped
End of status report
---- CUETools DB Plugin V2.1.6
[CTDB TOCID: 7NS__qQx8d5VaTW7jzojpYYbSw4-] found
Submit result: already submitted
Track | CTDB Status
1   | (14/14) Accurately ripped
2   | (14/14) Accurately ripped
3   | (14/14) Accurately ripped
4   | (14/14) Accurately ripped
5   | (14/14) Accurately ripped
6   | (14/14) Accurately ripped
7   | (14/14) Accurately ripped
8   | (14/14) Accurately ripped
==== Log checksum EEDBB4DDE76ACDBDC808F42515C55F5E445857509468C08BEEC634734160F1D5 ====

Об альбоме (сборнике&#41;&#58;

С этим альбомом Argent удалось добиться серьёзного коммерческого успеха. В частности сингл Hold Your Head Up вошёл в Топ-5 по обе стороны Атлантики. По сравнению с предыдущими абсолютно "прогрессивными" работами музыканты несколько ужесточили свой саунд, сделав его более роковым. В целом альбом получился чрезвычайно музыкально пёстрым. В нём гармонично сочетаются унаследованная от Zombies балладная мелодичность и изящные аранжировки в стиле прогрессив-рока, сдобренные жёсткими гитарными партиями.

Line-up / Musicians:
– Jim Rodford / Bass
– Robert Henrit / Drums
– Russ Ballard / Guitar, Vocals
– Rod Argent / Organ, Vocals
Written-By – C. White (tracks: A1, A2, A4, B1, B3), R. Argent (tracks: A1, A2, A4, B1, B3), R. Ballard (tracks: A3, B2)
Producer – Chris White (2), Rod Argent
Official DR value: 10
discogs
Прoдолжительность: 00:45:15

1973 | In Deep (2014 | Talking Elephant&#41;

Страна-производитель диска: EU
Номер по каталогу: TECD241
Тип раздачи: image+.cue
Особенность релиза: Reissue
Источник (релизер): Alexharvey
Треклист:
--------------------------

01. God Gave Rock & Roll to You (6:47)
02. It's Only Money Part I (4:08)
03. It's Only Money Part II (5:12)
04. Loosing Hold (5:32)
05. Be Glad (8:39)
06. Christmas For The Free (4:17)
07. Candles On The River (7:05)
08. Rosie (3:42)

Лог создания рипа

Код:
Exact Audio Copy V1.3 from 2. September 2016
EAC extraction logfile from 24. January 2019, 21:48
Argent / In Deep
Used drive  : TSSTcorpCDDVDW TS-L633B   Adapter: 1  ID: 0
Read mode               : Secure
Utilize accurate stream : Yes
Defeat audio cache      : Yes
Make use of C2 pointers : No
Read offset correction                      : 6
Overread into Lead-In and Lead-Out          : No
Fill up missing offset samples with silence : Yes
Delete leading and trailing silent blocks   : No
Null samples used in CRC calculations       : Yes
Used interface                              : Native Win32 interface for Win NT & 2000
Used output format : Internal WAV Routines
Sample format      : 44.100 Hz; 16 Bit; Stereo
TOC of the extracted CD
Track |   Start  |  Length  | Start sector | End sector
---------------------------------------------------------
1  |  0:00.00 |  6:46.67 |         0    |    30516
2  |  6:46.67 |  4:07.63 |     30517    |    49104
3  | 10:54.55 |  5:12.10 |     49105    |    72514
4  | 16:06.65 |  5:31.60 |     72515    |    97399
5  | 21:38.50 |  8:39.05 |     97400    |   136329
6  | 30:17.55 |  4:17.00 |    136330    |   155604
7  | 34:34.55 |  7:05.32 |    155605    |   187511
8  | 41:40.12 |  3:42.05 |    187512    |   204166
Range status and errors
Selected range
Filename F:\Alexharvey\Argent - In Deep.wav
Peak level 100.0 %
Extraction speed 2.4 X
Range quality 100.0 %
Test CRC 80671A30
Copy CRC 80671A30
Copy OK
No errors occurred
AccurateRip summary
Track  1  accurately ripped (confidence 3)  [5D595FFE]  (AR v2)
Track  2  accurately ripped (confidence 3)  [7265255E]  (AR v2)
Track  3  accurately ripped (confidence 3)  [2E6E135B]  (AR v2)
Track  4  accurately ripped (confidence 3)  [49E4EA91]  (AR v2)
Track  5  accurately ripped (confidence 3)  [02B95877]  (AR v2)
Track  6  accurately ripped (confidence 3)  [246D7EE2]  (AR v2)
Track  7  accurately ripped (confidence 3)  [680FB1D0]  (AR v2)
Track  8  accurately ripped (confidence 3)  [A12F2CB6]  (AR v2)
All tracks accurately ripped
End of status report
---- CUETools DB Plugin V2.1.6
[CTDB TOCID: Na4t1ftW2lFCd2qgiIdrXDshx.M-] found
Submit result: Na4t1ftW2lFCd2qgiIdrXDshx.M- has been confirmed
Track | CTDB Status
1   | (56/56) Accurately ripped
2   | (55/56) Accurately ripped
3   | (56/56) Accurately ripped
4   | (56/56) Accurately ripped
5   | (56/56) Accurately ripped
6   | (56/56) Accurately ripped
7   | (56/56) Accurately ripped
8   | (56/56) Accurately ripped
==== Log checksum 2AF9936881FECC4BE55BF25F344364C66816E302BD612757A98D2DDDE5422771 ====

Об альбоме (сборнике&#41;&#58;

In Deep продолжает тенденцию, начавшуюся на предыдущем альбоме, а именно поиск баланса между длинными сложными синтезаторными эскападами Рода Арджента и короткими и броскими рок-песнями, к которым тяготел Расс Боллард. Противоречие, ставшее в конце концов причиной ухода Расса из группы, здесь вполне успешно решается. Особенно отчётливо это видно на вещи, открывающей альбом, God Gave Rock & Roll To You, которой суждено было стать одним из самых известных рок-гимнов.

Line-up / Musicians:
- Rod Argent / keyboards, vocals
- Russ Ballard / lead vocals, guitar
- Bob Henrit / drums
- Jim Rodford / bass
Producer – Chris White, Rod Argent
Official DR value: 12
discogs
Прoдолжительность: 00:45:22

1975 | Circus (2015 | Talking Elephant&#41;

Страна-производитель диска: EU
Номер по каталогу: TECD279
Тип раздачи: image+.cue
Особенность релиза: Reissue
Источник (релизер): Sket4er
Треклист:
--------------------------

01. Circus (3:50)
02. Highwire (9:04)
03. Clown (5:51)
04. Trapeze (8:49)
05. Shine On Sunshine (4:06)
06. The Ring (1:17)
07. The Jester (3:40)

Лог создания рипа

Код:
Exact Audio Copy V1.1 from 23. June 2015
EAC extraction logfile from 24. January 2016, 18:51
Argent / Circus
Used drive  : TSSTcorpCDDVDW SH-224DB   Adapter: 1  ID: 0
Read mode               : Secure
Utilize accurate stream : Yes
Defeat audio cache      : Yes
Make use of C2 pointers : No
Read offset correction                      : 6
Overread into Lead-In and Lead-Out          : No
Fill up missing offset samples with silence : Yes
Delete leading and trailing silent blocks   : No
Null samples used in CRC calculations       : Yes
Used interface                              : Native Win32 interface for Win NT & 2000
Used output format              : User Defined Encoder
Selected bitrate                : 1024 kBit/s
Quality                         : High
Add ID3 tag                     : No
Command line compressor         : C:\Program Files (x86)\Exact Audio Copy\win64\flac.exe
Additional command line options :  -V -8 -T "Date=%year%" -T "Genre=%genre%" %source%
TOC of the extracted CD
Track |   Start  |  Length  | Start sector | End sector
---------------------------------------------------------
1  |  0:00.00 |  3:49.66 |         0    |    17240
2  |  3:49.66 |  9:04.22 |     17241    |    58062
3  | 12:54.13 |  5:51.15 |     58063    |    84402
4  | 18:45.28 |  8:49.11 |     84403    |   124088
5  | 27:34.39 |  4:06.13 |    124089    |   142551
6  | 31:40.52 |  1:17.35 |    142552    |   148361
7  | 32:58.12 |  3:40.18 |    148362    |   164879
Range status and errors
Selected range
Filename C:\Sket4er\Argent - Circus (1975) 2015\Argent - Circus.wav
Peak level 98.9 %
Extraction speed 2.7 X
Range quality 100.0 %
Test CRC 4796C7CF
Copy CRC 4796C7CF
Copy OK
No errors occurred
AccurateRip summary
Track  1  not present in database
Track  2  not present in database
Track  3  not present in database
Track  4  not present in database
Track  5  not present in database
Track  6  not present in database
Track  7  not present in database
None of the tracks are present in the AccurateRip database
End of status report
---- CUETools DB Plugin V2.1.6
[CTDB TOCID: DBhRIjsidSMYQ8O4_BEBCoBjTPU-] disk not present in database
Submit result: DBhRIjsidSMYQ8O4_BEBCoBjTPU- has been uploaded
==== Log checksum 2F93656A0A0809A383DE623D2C24626E739F14AFA5BD62D88AC7DE7EF5007BD7 ====

Об альбоме (сборнике&#41;&#58;

Circus "Цирк" - шестой студийный альбом Argent, выпущенный в 1975 году Epic (PE 33422) и распространяемый CBS. Это был последний альбом в рамках их контракта с CBS Records и первый после ухода основателя/ ведущего вокалиста/ гитариста Расса Балларда. Новый вокалист Джон Верити был добавлен по рекомендации Балларда (группа Верити поддерживала Argent во время их предыдущего тура и произвела на Балларда впечатление).
Альбом был записан во время интенсивной сессии после того, как новый состав группы работал и практиковался в материале, написанном в основном Родом Арджентом (басист Джим Родфорд написал «Trapeze»). До этого альбома Argent работал со своим соавтором по написанию песен Крисом Уайтом (дуэт писал песни вместе и отдельно в The Zombies) над материалом для группы. Вскоре группа выпустила второй альбом Counterpoints в том же году (1975) для RCA Records на виниле, который так и не был официально выпущен на CD или в цифровом варианте.
Circus представляет собой концептуальный альбом, использующий цирк как метафору жизни. Альбом занял 171-ю позицию в Billboard. Цирк так-же издан на CD как два альбома на одном диске с альбомом Argent на Wounded Bird Records в 2005 году.

Line-up / Musicians:
- Rod Argent / keyboards, vocals
- John Grimaldi / lead guitar, cello, mandolin, violin
- Bob Henrit / drums
- Jim Rodford / bass
- John Verity / rhythm guitar, bass, vocals
All songs composed by Rod Argent except where indicated.
Official DR value: 9
discogs
Прoдолжительность: 00:36:38

1976 | The Argent Anthology&#58; A Collection Of Greatest Hits (1987 | Epic&#41;

Страна-производитель диска: USA
Номер по каталогу: EK 33955
Тип раздачи: tracks+.cue
Особенность релиза: Compilation, Series: Collector's Choice
Источник (релизер): R7D7
Треклист:
--------------------------

01. Hold Your Head Up (6:17)
02. Liar (3:14)
03. Pleasure (4:54)
04. God Gave Rock and Roll to You (6:46)
05. It's Only Money Part 1 (4:06)
06. Thunder and Lightning (5:09)
07. Tragedy (4:49)
08. Time of the Season (6:37)

Лог создания рипа

Код:
Exact Audio Copy V1.0 beta 3 from 29. August 2011
EAC extraction logfile from 16. October 2011, 22:35
Argent / The Argent Anthology
Used drive  : TEAC    DVD+-RW DVW28SLC   Adapter: 0  ID: 0
Read mode               : Secure
Utilize accurate stream : Yes
Defeat audio cache      : Yes
Make use of C2 pointers : No
Read offset correction                      : 48
Overread into Lead-In and Lead-Out          : No
Fill up missing offset samples with silence : Yes
Delete leading and trailing silent blocks   : No
Null samples used in CRC calculations       : Yes
Used interface                              : Native Win32 interface for Win NT & 2000
Gap handling                                : Appended to previous track
Used output format              : User Defined Encoder
Selected bitrate                : 128 kBit/s
Quality                         : High
Add ID3 tag                     : No
Command line compressor         : C:\Program Files (x86)\Exact Audio Copy\Flac\flac.exe
Additional command line options : -8 -V -T "ARTIST=%artist%" -T "TITLE=%title%" -T "ALBUM=%albumtitle%" -T "DATE=%year%" -T "TRACKNUMBER=%tracknr%" -T "GENRE=%genre%" -T "PERFORMER=%albuminterpret%" -T "COMPOSER=%composer%" %haslyrics%--tag-from-file=LYRICS="%lyricsfile%"%haslyrics% -T "ALBUMARTIST=%albumartist%" -T "ALBUM ARTIST=%albumartist%" -T "DISCNUMBER=%cdnumber%" -T "TOTALDISCS=%totalcds%" -T "TOTALTRACKS=%numtracks%" -T "COMMENT=EAC V1.0 beta 2, Secure Mode, Test & Copy, AccurateRip, FLAC -8" %source% -o %dest%
TOC of the extracted CD
Track |   Start  |  Length  | Start sector | End sector
---------------------------------------------------------
1  |  0:00.00 |  6:17.37 |         0    |    28311
2  |  6:17.37 |  3:14.05 |     28312    |    42866
3  |  9:31.42 |  4:54.05 |     42867    |    64921
4  | 14:25.47 |  6:45.38 |     64922    |    95334
5  | 21:11.10 |  4:06.35 |     95335    |   113819
6  | 25:17.45 |  5:09.20 |    113820    |   137014
7  | 30:26.65 |  4:48.62 |    137015    |   158676
8  | 35:15.52 |  6:37.28 |    158677    |   188479
Track  1
Filename C:\EAC Rips\Argent - The Argent Anthology (1976) [FLAC]\01 - Hold Your Head Up.wav
Pre-gap length  0:00:02.00
Peak level 81.2 %
Extraction speed 1.0 X
Track quality 99.9 %
Test CRC F87FF1EC
Copy CRC F87FF1EC
Accurately ripped (confidence 9)  [E322B241]  (AR v1)
Copy OK
Track  2
Filename C:\EAC Rips\Argent - The Argent Anthology (1976) [FLAC]\02 - Liar.wav
Pre-gap length  0:00:01.30
Peak level 63.8 %
Extraction speed 1.2 X
Track quality 100.0 %
Test CRC 8789F6F0
Copy CRC 8789F6F0
Accurately ripped (confidence 8)  [454E7AA2]  (AR v1)
Copy OK
Track  3
Filename C:\EAC Rips\Argent - The Argent Anthology (1976) [FLAC]\03 - Pleasure.wav
Pre-gap length  0:00:01.65
Peak level 77.7 %
Extraction speed 1.3 X
Track quality 100.0 %
Test CRC 7FDB29C5
Copy CRC 7FDB29C5
Accurately ripped (confidence 8)  [67AE303D]  (AR v1)
Copy OK
Track  4
Filename C:\EAC Rips\Argent - The Argent Anthology (1976) [FLAC]\04 - God Gave Rock and Roll to You.wav
Pre-gap length  0:00:01.05
Peak level 82.0 %
Extraction speed 1.5 X
Track quality 100.0 %
Test CRC 9ED3408E
Copy CRC 9ED3408E
Accurately ripped (confidence 8)  [7DC6C852]  (AR v1)
Copy OK
Track  5
Filename C:\EAC Rips\Argent - The Argent Anthology (1976) [FLAC]\05 - It's Only Money Part 1.wav
Pre-gap length  0:00:02.25
Peak level 76.9 %
Extraction speed 1.5 X
Track quality 100.0 %
Test CRC 31A9E076
Copy CRC 31A9E076
Accurately ripped (confidence 8)  [FA1EE909]  (AR v1)
Copy OK
Track  6
Filename C:\EAC Rips\Argent - The Argent Anthology (1976) [FLAC]\06 - Thunder and Lightning.wav
Pre-gap length  0:00:01.50
Peak level 86.1 %
Extraction speed 1.7 X
Track quality 100.0 %
Test CRC DFC2B357
Copy CRC DFC2B357
Accurately ripped (confidence 8)  [4B6B8260]  (AR v1)
Copy OK
Track  7
Filename C:\EAC Rips\Argent - The Argent Anthology (1976) [FLAC]\07 - Tragedy.wav
Peak level 75.9 %
Extraction speed 1.6 X
Track quality 99.9 %
Test CRC A7022FD8
Copy CRC A7022FD8
Accurately ripped (confidence 8)  [24D1BB44]  (AR v1)
Copy OK
Track  8
Filename C:\EAC Rips\Argent - The Argent Anthology (1976) [FLAC]\08 - Time of the Season.wav
Peak level 92.9 %
Extraction speed 1.9 X
Track quality 100.0 %
Test CRC 61111689
Copy CRC 61111689
Accurately ripped (confidence 8)  [0AB63498]  (AR v1)
Copy OK
All tracks accurately ripped
No errors occurred
End of status report
==== Log checksum F669F38BCBEDECF3989F3A57301769E5807AA41AD02CD4F426476917E2857973 ====

Об альбоме (сборнике&#41;&#58;

The Argent Anthology: A Collection Of Greatest Hits - Cборник лучших хитов - первый сборник, выпущенный британской рок-группой Argent. Он был выпущен на лейбле Epic в 1976 году. Британский релиз назывался The Best of Argent - Anhology и имел другой трек-лист.

Line-up / Musicians:
- Rod Argent / keyboards, vocals
- Russ Ballard / guitar, vocals
- Jim Rodford / bass guitar, vocals
- Robert Henrit / drums, percussion
Written-By – C. White (tracks: 1, 3), R. Argent (tracks: 1, 3, 8), R. Ballard (tracks: 2, 4 to 7)
Manufactured By – Epic Records
Manufactured By – CBS Inc.
Official DR value: 11
discogs
Прoдолжительность: 00:41:53

2000 | Argent | Ring Of Hands (2000 | BGO Records | 2CD&#41;

1970 | Argent

Страна-производитель диска: UK
Номер по каталогу: BGOCD480
Тип раздачи: image+.cue
Особенность релиза: 2CD, Reissue, Remastered, Compilation
Источник (релизер): Alexharvey
Треклист:
--------------------------

01. Like Honey (3:15)
02. Liar (3:14)
03. Be Free (3:52)
04. Schoolgirl (3:22)
05. Dance In The Smoke (6:19)
06. Lonely Hard Road (4:24)
07. The Feeling's Inside (3:51)
08. Freefall (3:21)
09. Stepping Stone (4:40)
10. Bring You Joy (4:11)

Лог создания рипа

Код:
Exact Audio Copy V1.3 from 2. September 2016
EAC extraction logfile from 21. January 2019, 23:05
Argent / Argent
Used drive  : TSSTcorpCDDVDW TS-L633B   Adapter: 1  ID: 0
Read mode               : Secure
Utilize accurate stream : Yes
Defeat audio cache      : Yes
Make use of C2 pointers : No
Read offset correction                      : 6
Overread into Lead-In and Lead-Out          : No
Fill up missing offset samples with silence : Yes
Delete leading and trailing silent blocks   : No
Null samples used in CRC calculations       : Yes
Used interface                              : Native Win32 interface for Win NT & 2000
Used output format : Internal WAV Routines
Sample format      : 44.100 Hz; 16 Bit; Stereo
TOC of the extracted CD
Track |   Start  |  Length  | Start sector | End sector
---------------------------------------------------------
1  |  0:00.00 |  3:14.55 |         0    |    14604
2  |  3:14.55 |  3:14.22 |     14605    |    29176
3  |  6:29.02 |  3:51.53 |     29177    |    46554
4  | 10:20.55 |  3:21.42 |     46555    |    61671
5  | 13:42.22 |  6:18.50 |     61672    |    90071
6  | 20:00.72 |  4:24.20 |     90072    |   109891
7  | 24:25.17 |  3:50.73 |    109892    |   127214
8  | 28:16.15 |  3:20.52 |    127215    |   142266
9  | 31:36.67 |  4:39.42 |    142267    |   163233
10  | 36:16.34 |  4:11.16 |    163234    |   182074
Range status and errors
Selected range
Filename F:\Alexharvey\Argent - Argent.wav
Peak level 98.8 %
Extraction speed 2.6 X
Range quality 100.0 %
Test CRC 88872791
Copy CRC 88872791
Copy OK
No errors occurred
AccurateRip summary
Track  1  accurately ripped (confidence 4)  [E671C1DE]  (AR v2)
Track  2  accurately ripped (confidence 4)  [4ACAD28B]  (AR v2)
Track  3  accurately ripped (confidence 4)  [895076D3]  (AR v2)
Track  4  accurately ripped (confidence 4)  [C8025F5A]  (AR v2)
Track  5  accurately ripped (confidence 4)  [BECFE127]  (AR v2)
Track  6  accurately ripped (confidence 4)  [A5D13779]  (AR v2)
Track  7  accurately ripped (confidence 4)  [A837FDD7]  (AR v2)
Track  8  accurately ripped (confidence 4)  [74A4C373]  (AR v2)
Track  9  accurately ripped (confidence 4)  [4ABE7CD5]  (AR v2)
Track 10  accurately ripped (confidence 4)  [840CA575]  (AR v2)
All tracks accurately ripped
End of status report
---- CUETools DB Plugin V2.1.6
[CTDB TOCID: vPQNqIl8YAg3QWthKVoEI8IwsgI-] found
Submit result: vPQNqIl8YAg3QWthKVoEI8IwsgI- has been confirmed
Track | CTDB Status
1   | (21/21) Accurately ripped
2   | (21/21) Accurately ripped
3   | (21/21) Accurately ripped
4   | (21/21) Accurately ripped
5   | (21/21) Accurately ripped
6   | (21/21) Accurately ripped
7   | (21/21) Accurately ripped
8   | (21/21) Accurately ripped
9   | (21/21) Accurately ripped
10   | (21/21) Accurately ripped
==== Log checksum E8A236338C08CDA97F80CFF3B30A76E90C5618561895AF3FF5DEFC12BD6F4178 ====
Прoдолжительность: 00:40:28

1971 | Ring Of Hands

Треклист:
--------------------------

01. Celebration (2:55)
02. Sweet Mary (4:06)
03. Cast Your Spell Uranus (4:31)
04. Lothlorien (7:50)
05. Chained (5:19)
06. Rejoice (3:46)
07. Pleasure (4:52)
08. Sleep Won't Help Me (5:11)
09. Where Are We Going Wrong (4:10)

Лог создания рипа

Код:
Exact Audio Copy V1.3 from 2. September 2016
EAC extraction logfile from 22. January 2019, 9:25
Argent / Ring Of Hands
Used drive  : TSSTcorpCDDVDW TS-L633B   Adapter: 1  ID: 0
Read mode               : Secure
Utilize accurate stream : Yes
Defeat audio cache      : Yes
Make use of C2 pointers : No
Read offset correction                      : 6
Overread into Lead-In and Lead-Out          : No
Fill up missing offset samples with silence : Yes
Delete leading and trailing silent blocks   : No
Null samples used in CRC calculations       : Yes
Used interface                              : Native Win32 interface for Win NT & 2000
Used output format : Internal WAV Routines
Sample format      : 44.100 Hz; 16 Bit; Stereo
TOC of the extracted CD
Track |   Start  |  Length  | Start sector | End sector
---------------------------------------------------------
1  |  0:00.00 |  2:54.42 |         0    |    13091
2  |  2:54.42 |  4:05.38 |     13092    |    31504
3  |  7:00.05 |  4:31.02 |     31505    |    51831
4  | 11:31.07 |  7:49.65 |     51832    |    87071
5  | 19:20.72 |  5:19.20 |     87072    |   111016
6  | 24:40.17 |  3:45.60 |    111017    |   127951
7  | 28:26.02 |  4:52.03 |    127952    |   149854
8  | 33:18.05 |  5:10.40 |    149855    |   173144
9  | 38:28.45 |  4:09.72 |    173145    |   191891
Range status and errors
Selected range
Filename F:\Alexharvey\Argent - Ring Of Hands.wav
Peak level 100.0 %
Extraction speed 2.6 X
Range quality 100.0 %
Test CRC B7756B09
Copy CRC B7756B09
Copy OK
No errors occurred
AccurateRip summary
Track  1  accurately ripped (confidence 4)  [8CF9026E]  (AR v2)
Track  2  accurately ripped (confidence 4)  [DDD86901]  (AR v2)
Track  3  accurately ripped (confidence 4)  [D3754CEA]  (AR v2)
Track  4  accurately ripped (confidence 4)  [3C07F5F4]  (AR v2)
Track  5  accurately ripped (confidence 4)  [A4EBA874]  (AR v2)
Track  6  accurately ripped (confidence 4)  [517A265A]  (AR v2)
Track  7  accurately ripped (confidence 4)  [F8549F84]  (AR v2)
Track  8  accurately ripped (confidence 4)  [567AAFA5]  (AR v2)
Track  9  accurately ripped (confidence 4)  [8ACBD071]  (AR v2)
All tracks accurately ripped
End of status report
---- CUETools DB Plugin V2.1.6
[CTDB TOCID: XaQ2z3geVKSpoVcBb88.GWLmo5A-] found
Submit result: XaQ2z3geVKSpoVcBb88.GWLmo5A- has been confirmed
Track | CTDB Status
1   | (21/21) Accurately ripped
2   | (21/21) Accurately ripped
3   | (21/21) Accurately ripped
4   | (21/21) Accurately ripped
5   | (21/21) Accurately ripped
6   | (21/21) Accurately ripped
7   | (21/21) Accurately ripped
8   | (21/21) Accurately ripped
9   | (21/21) Accurately ripped
==== Log checksum E7A911E32AB0AC946BC92B4ADE16EF2F5D3F0D342DC8BB2E3728222730894759 ====
Прoдолжительность: 00:42:39

Об альбоме (сборнике&#41;&#58;

Своим названием, Argent, группа обязана фамилии своего лидера - клавишника, автора песен и певца Рода Арджента, бывшего участника The Zombies. Первые два альбома новой команды и её концертные выступления вызвали значительный интерес по обе стороны Атлантики. Они позволили Argent занять почти такое же заметное положение в иерархии прогрессивного рока, как ELP, Yes и Genesis.

Line-up / Musicians:
– Jim Rodford / Bass Guitar
– Robert Henrit / Drums
– Rod Argent (tracks: 2-1 to 2-9) / Electric Piano
– Russ Ballard / Guitar
– Jim Rodford (tracks: 2-1 to 2-9) / Guitar, Vocals
– Jim Rodford (tracks: 1-1, 1-7, 1-8), Russ Ballard (tracks: 1-2 to 1-4, 1-6, 1-9, 1-10) / Lead Vocals
– Rod Argent / Organ, Piano, Vocals
– Robert Henrit (tracks: 1-1 to 1-10) / Percussion
– Russ Ballard (tracks: 1-6, 2-3) / Piano
– Rod Argent (tracks: 1-1 to 1-10) / Piano [Pianette]
– Russ Ballard (tracks: 2-1 to 2-9) / Vocals
Producer – Chris White (2), Rod Argent
Sleeve Notes [1969 (Original Sleevenote For 'Argent')] – Rod Argent
Sleeve Notes [Melody Maker, 1970 (Original Sleevenote From 'Ring Of Hands')] – Roy Hollingworth
Official DR value: 11
discogs

2005 | In Deep | Nexus (2005 | Edsel Records | 2CD&#41;

1973 | In Deep

Страна-производитель диска: UK
Номер по каталогу: MEDCD 759
Тип раздачи: image+.cue
Особенность релиза: 2CD, Reissue, Compilation
Источник (релизер): Alexharvey
Треклист:
--------------------------

01. God Gave Rock & Roll to You (6:47)
02. It's Only Money Part 1 (4:07)
03. It's Only Money Part 2 (5:09)
04. Losing Hold (5:32)
05. Be Glad (8:39)
06. Christmas For The Free (4:15)
07. Candles On The River (7:05)
08. Rosie (3:46)

Лог создания рипа

Код:
Exact Audio Copy V1.3 from 2. September 2016
EAC extraction logfile from 26. January 2019, 16:53
Argent / In Deep
Used drive  : TSSTcorpCDDVDW TS-L633B   Adapter: 1  ID: 0
Read mode               : Secure
Utilize accurate stream : Yes
Defeat audio cache      : Yes
Make use of C2 pointers : No
Read offset correction                      : 6
Overread into Lead-In and Lead-Out          : No
Fill up missing offset samples with silence : Yes
Delete leading and trailing silent blocks   : No
Null samples used in CRC calculations       : Yes
Used interface                              : Native Win32 interface for Win NT & 2000
Used output format : Internal WAV Routines
Sample format      : 44.100 Hz; 16 Bit; Stereo
TOC of the extracted CD
Track |   Start  |  Length  | Start sector | End sector
---------------------------------------------------------
1  |  0:00.00 |  6:46.65 |         0    |    30514
2  |  6:46.65 |  4:07.22 |     30515    |    49061
3  | 10:54.12 |  5:09.27 |     49062    |    72263
4  | 16:03.39 |  5:31.48 |     72264    |    97136
5  | 21:35.12 |  8:38.71 |     97137    |   136057
6  | 30:14.08 |  4:15.31 |    136058    |   155213
7  | 34:29.39 |  7:04.60 |    155214    |   187073
8  | 41:34.24 |  3:46.27 |    187074    |   204050
Range status and errors
Selected range
Filename F:\Alexharvey\Argent - In Deep.wav
Peak level 99.8 %
Extraction speed 2.7 X
Range quality 100.0 %
Test CRC 7745B05F
Copy CRC 7745B05F
Copy OK
No errors occurred
AccurateRip summary
Track  1  accurately ripped (confidence 4)  [B0F0A589]  (AR v2)
Track  2  accurately ripped (confidence 4)  [F9C4C604]  (AR v2)
Track  3  accurately ripped (confidence 4)  [BA0565A6]  (AR v2)
Track  4  accurately ripped (confidence 4)  [3E8E0025]  (AR v2)
Track  5  accurately ripped (confidence 4)  [579FB8C0]  (AR v2)
Track  6  accurately ripped (confidence 4)  [6F2AB4AD]  (AR v2)
Track  7  accurately ripped (confidence 4)  [DC2CC77C]  (AR v2)
Track  8  accurately ripped (confidence 4)  [4AB4CC78]  (AR v2)
All tracks accurately ripped
End of status report
---- CUETools DB Plugin V2.1.6
[CTDB TOCID: Rm4mS4eVBJ3wk7CP2N0awowCVRs-] found
Submit result: Rm4mS4eVBJ3wk7CP2N0awowCVRs- has been confirmed
Track | CTDB Status
1   | (7/7) Accurately ripped
2   | (7/7) Accurately ripped
3   | (7/7) Accurately ripped
4   | (7/7) Accurately ripped
5   | (7/7) Accurately ripped
6   | (7/7) Accurately ripped
7   | (7/7) Accurately ripped
8   | (7/7) Accurately ripped
==== Log checksum 30F00985EE4491752E40A1714A38CC2DEA9F2112537B40089108A9AF19BD7AC5 ====
Прoдолжительность: 00:45:21

1974 | Nexus

Треклист:
--------------------------

01. The Coming Of Kohoutek (3:03)
02. Once Around The Sun (2:49)
03. Infinite Wanderer (3:45)
04. Love (3:56)
05. Music From The Spheres (8:11)
06. Thunder And Lightning (5:08)
07. Keeper Of The Flame (6:05)
08. Man For All Reasons (4:46)
09. Gonna Meet My Maker (4:38)

Лог создания рипа

Код:
Exact Audio Copy V1.3 from 2. September 2016
EAC extraction logfile from 26. January 2019, 18:21
Argent / Nexus
Used drive  : TSSTcorpCDDVDW TS-L633B   Adapter: 1  ID: 0
Read mode               : Secure
Utilize accurate stream : Yes
Defeat audio cache      : Yes
Make use of C2 pointers : No
Read offset correction                      : 6
Overread into Lead-In and Lead-Out          : No
Fill up missing offset samples with silence : Yes
Delete leading and trailing silent blocks   : No
Null samples used in CRC calculations       : Yes
Used interface                              : Native Win32 interface for Win NT & 2000
Used output format : Internal WAV Routines
Sample format      : 44.100 Hz; 16 Bit; Stereo
TOC of the extracted CD
Track |   Start  |  Length  | Start sector | End sector
---------------------------------------------------------
1  |  0:00.00 |  3:03.00 |         0    |    13724
2  |  3:03.00 |  2:48.62 |     13725    |    26386
3  |  5:51.62 |  3:44.66 |     26387    |    43252
4  |  9:36.53 |  3:55.59 |     43253    |    60936
5  | 13:32.37 |  8:11.16 |     60937    |    97777
6  | 21:43.53 |  5:07.41 |     97778    |   120843
7  | 26:51.19 |  6:05.05 |    120844    |   148223
8  | 32:56.24 |  4:46.07 |    148224    |   169680
9  | 37:42.31 |  4:38.01 |    169681    |   190531
Range status and errors
Selected range
Filename F:\Alexharvey\Argent - Nexus.wav
Peak level 99.8 %
Extraction speed 2.6 X
Range quality 100.0 %
Test CRC 2BE09D39
Copy CRC 2BE09D39
Copy OK
No errors occurred
AccurateRip summary
Track  1  accurately ripped (confidence 4)  [8D82A9AD]  (AR v2)
Track  2  accurately ripped (confidence 4)  [3925236C]  (AR v2)
Track  3  accurately ripped (confidence 4)  [7FE2D983]  (AR v2)
Track  4  accurately ripped (confidence 4)  [E1819560]  (AR v2)
Track  5  accurately ripped (confidence 4)  [038180B0]  (AR v2)
Track  6  accurately ripped (confidence 4)  [1509DA59]  (AR v2)
Track  7  accurately ripped (confidence 4)  [0F6E02F7]  (AR v2)
Track  8  accurately ripped (confidence 4)  [C6DEC12C]  (AR v2)
Track  9  accurately ripped (confidence 4)  [FA4322CB]  (AR v2)
All tracks accurately ripped
End of status report
---- CUETools DB Plugin V2.1.6
[CTDB TOCID: cTGkNYxEq_TbpebD_EwuSZL3AkM-] found
Submit result: cTGkNYxEq_TbpebD_EwuSZL3AkM- has been confirmed
Track | CTDB Status
1   | (7/7) Accurately ripped
2   | (7/7) Accurately ripped
3   | (7/7) Accurately ripped
4   | (7/7) Accurately ripped
5   | (7/7) Accurately ripped
6   | (7/7) Accurately ripped
7   | (7/7) Accurately ripped
8   | (7/7) Accurately ripped
9   | (7/7) Accurately ripped
==== Log checksum 19640D9AF4B8EBCA3E5C20EE5F6F0DA5A3B7A692B7100CE8BD8889E9AAEEF8AE ====
Прoдолжительность: 00:42:20

Об альбоме (сборнике&#41;&#58;

Альбом Nexus довольно разнообразен в смысле присутствия нескольких музыкальных жанров. Первые три трека альбома - самые прогрессивные вещи в дискографии Argent. Здесь доминируют Хэммонд, меллотрон и муг, в которые Род Арджент вложил всё своё мастерство и всю свою фантазию. Затем следуют мягкая баллада усыпляющего действия под названием Love и "сантаноподобная" Music From The Spheres. Далее через фанковые ритмы Thunder And Lightning Арджент возвращается к более проговым органо-ориентированным композициям Keeper Of The Flame и Man For All Reasons. Завершает альбом совершенно неожиданно тяжелый блюз Gonna Meet My Maker в духе Deep Purple Mark III.

Line-up / Musicians:
Producer – Chris White (tracks: 1-1 to 1-8, 2-1 to 2-9), Rod Argent (tracks: 1-1 to 1-8, 2-1 to 2-9)
Written-By – White (tracks: 1-4 to 1-7, 2-1 to 2-3, 2-5, 2-7), Argent (tracks: 1-4 to 1-7, 2-1 to 2-3, 2-5, 2-7), Ballard (tracks: 1-1 to 1-3, 1-8, 2-4, 2-6, 2-8, 2-9)
Official DR value: 11 | 10
discogs

2009 | Original Album Classics Box Set (Anthology&#41; (2009 | Epic | Sony | Legacy | 5CD Box-Set&#41;

1969 | Argent

Страна-производитель диска: EU
Номер по каталогу: 88697445472
Тип раздачи: tracks+.cue
Особенность релиза: 5CD Box-Set, Compilation, Series: Original Album Classics –
Источник (релизер): dalaylama
Треклист:
--------------------------

01. Like Honey (3:15)
02. Liar (3:15)
03. Be Free (3:53)
04. Schoolgirl (3:22)
05. Dance in the Smoke (6:19)
06. Lonely Hard Road (4:26)
07. The Feeling's Inside (3:52)
08. Freefall (3:22)
09. Stepping Stone (4:40)
10. Bring You Joy (4:13)

Лог создания рипа

Код:
Exact Audio Copy V1.3 from 2. September 2016
EAC extraction logfile from 23. January 2019, 20:47
Argent / Original Album Classics Box Set
Used drive  : TSSTcorpCD/DVDW SH-S182D   Adapter: 1  ID: 1
Read mode               : Secure
Utilize accurate stream : Yes
Defeat audio cache      : Yes
Make use of C2 pointers : No
Read offset correction                      : 6
Overread into Lead-In and Lead-Out          : No
Fill up missing offset samples with silence : Yes
Delete leading and trailing silent blocks   : No
Null samples used in CRC calculations       : Yes
Used interface                              : Native Win32 interface for Win NT & 2000
Gap handling                                : Appended to previous track
Used output format              : User Defined Encoder
Selected bitrate                : 896 kBit/s
Quality                         : High
Add ID3 tag                     : No
Command line compressor         : C:\Program Files (x86)\Exact Audio Copy\FLAC\FLAC.EXE
Additional command line options : -6 -V -T "ARTIST=%artist%" -T "TITLE=%title%" -T "ALBUM=%albumtitle%" -T "DATE=%year%" -T "TRACKNUMBER=%tracknr%" -T "GENRE=%genre%" -T "COMMENT=rip by waddaw" -T "BAND=%albuminterpret%" -T "ALBUMARTIST=%albuminterpret%" -T "COMPOSER=%composer%" %haslyrics%--tag-from-file=LYRICS="%lyricsfile%"%haslyrics% -T "DISCNUMBER=%cdnumber%" -T "TOTALDISCS=%totalcds%" -T "TOTALTRACKS=%numtracks%" %hascover%--picture="%coverfile%"%hascover% %source% -o %dest%
TOC of the extracted CD
Track |   Start  |  Length  | Start sector | End sector
---------------------------------------------------------
1  |  0:00.00 |  3:15.31 |         0    |    14655
2  |  3:15.31 |  3:15.06 |     14656    |    29286
3  |  6:30.37 |  3:52.73 |     29287    |    46759
4  | 10:23.35 |  3:22.19 |     46760    |    61928
5  | 13:45.54 |  6:18.73 |     61929    |    90351
6  | 20:04.52 |  4:26.11 |     90352    |   110312
7  | 24:30.63 |  3:51.62 |    110313    |   127699
8  | 28:22.50 |  3:21.47 |    127700    |   142821
9  | 31:44.22 |  4:40.37 |    142822    |   163858
10  | 36:24.59 |  4:12.50 |    163859    |   182808
Track  1
Filename E:\22\Original Album Classics\Argent - Original Album Classics (2009) [FLAC 5CD]\CD1 - Argent (1969)\01 Like Honey.wav
Pre-gap length  0:00:02.00
Peak level 100.0 %
Extraction speed 4.4 X
Track quality 100.0 %
Test CRC 048DA669
Copy CRC 048DA669
Accurately ripped (confidence 28)  [080C4E8F]  (AR v2)
Copy OK
Track  2
Filename E:\22\Original Album Classics\Argent - Original Album Classics (2009) [FLAC 5CD]\CD1 - Argent (1969)\02 Liar.wav
Peak level 100.0 %
Extraction speed 4.9 X
Track quality 100.0 %
Test CRC CF7E86BC
Copy CRC CF7E86BC
Accurately ripped (confidence 28)  [90D587E5]  (AR v2)
Copy OK
Track  3
Filename E:\22\Original Album Classics\Argent - Original Album Classics (2009) [FLAC 5CD]\CD1 - Argent (1969)\03 Be Free.wav
Peak level 100.0 %
Extraction speed 5.4 X
Track quality 100.0 %
Test CRC 85C37BB7
Copy CRC 85C37BB7
Accurately ripped (confidence 28)  [08388022]  (AR v2)
Copy OK
Track  4
Filename E:\22\Original Album Classics\Argent - Original Album Classics (2009) [FLAC 5CD]\CD1 - Argent (1969)\04 Schoolgirl.wav
Peak level 100.0 %
Extraction speed 5.7 X
Track quality 100.0 %
Test CRC 5A0215C2
Copy CRC 5A0215C2
Accurately ripped (confidence 28)  [445A52C4]  (AR v2)
Copy OK
Track  5
Filename E:\22\Original Album Classics\Argent - Original Album Classics (2009) [FLAC 5CD]\CD1 - Argent (1969)\05 Dance in the Smoke.wav
Peak level 100.0 %
Extraction speed 6.5 X
Track quality 100.0 %
Test CRC A53E6321
Copy CRC A53E6321
Accurately ripped (confidence 29)  [171D2349]  (AR v2)
Copy OK
Track  6
Filename E:\22\Original Album Classics\Argent - Original Album Classics (2009) [FLAC 5CD]\CD1 - Argent (1969)\06 Lonely Hard Road.wav
Pre-gap length  0:00:01.32
Peak level 100.0 %
Extraction speed 6.6 X
Track quality 100.0 %
Test CRC C11F079B
Copy CRC C11F079B
Accurately ripped (confidence 28)  [2309C604]  (AR v2)
Copy OK
Track  7
Filename E:\22\Original Album Classics\Argent - Original Album Classics (2009) [FLAC 5CD]\CD1 - Argent (1969)\07 The Feeling's Inside.wav
Pre-gap length  0:00:02.77
Peak level 100.0 %
Extraction speed 6.9 X
Track quality 100.0 %
Test CRC B49C1553
Copy CRC B49C1553
Accurately ripped (confidence 28)  [8CE4D49B]  (AR v2)
Copy OK
Track  8
Filename E:\22\Original Album Classics\Argent - Original Album Classics (2009) [FLAC 5CD]\CD1 - Argent (1969)\08 Freefall.wav
Peak level 100.0 %
Extraction speed 7.0 X
Track quality 100.0 %
Test CRC 5B9BFC79
Copy CRC 5B9BFC79
Accurately ripped (confidence 28)  [522742CA]  (AR v2)
Copy OK
Track  9
Filename E:\22\Original Album Classics\Argent - Original Album Classics (2009) [FLAC 5CD]\CD1 - Argent (1969)\09 Stepping Stone.wav
Pre-gap length  0:00:01.78
Peak level 100.0 %
Extraction speed 6.7 X
Track quality 99.9 %
Test CRC 87668F7C
Copy CRC 87668F7C
Accurately ripped (confidence 28)  [14F94A34]  (AR v2)
Copy OK
Track 10
Filename E:\22\Original Album Classics\Argent - Original Album Classics (2009) [FLAC 5CD]\CD1 - Argent (1969)\10 Bring You Joy.wav
Peak level 100.0 %
Extraction speed 6.8 X
Track quality 99.9 %
Test CRC 18D420B0
Copy CRC 18D420B0
Accurately ripped (confidence 28)  [4A9A299F]  (AR v2)
Copy OK
All tracks accurately ripped
No errors occurred
End of status report
---- AcoustID Plugin V1.2.0
Total fingerprints: 10
---- CUETools DB Plugin V2.1.6
[CTDB TOCID: olgDIVC9wsWo53Qv9ODUdfOwMJc-] found
Submit result: olgDIVC9wsWo53Qv9ODUdfOwMJc- has been confirmed
Track | CTDB Status
1   | (48/49) Accurately ripped
2   | (48/49) Accurately ripped
3   | (48/49) Accurately ripped
4   | (48/49) Accurately ripped
5   | (48/49) Accurately ripped
6   | (48/49) Accurately ripped
7   | (48/49) Accurately ripped
8   | (48/49) Accurately ripped
9   | (48/49) Accurately ripped
10   | (48/49) Accurately ripped
==== Log checksum D07C96D651E243A1633CAA26B38C82DCFC01E9435AEE5F75F0E493360239D704 ====
Прoдолжительность: 00:40:37

1971 | Ring Of Hands

Трeклист:
--------------------------

01. Celebration (2:55)
02. Sweet Mary (4:08)
03. Cast Your Spell Uranus (4:32)
04. Lothlorien (7:53)
05. Chained (5:21)
06. Rejoice (3:47)
07. Pleasure (4:53)
08. Sleep Won't Help Me (5:12)
09. Where Are We Going Wrong (4:10)

Лог создания рипа

Код:
Exact Audio Copy V1.3 from 2. September 2016
EAC extraction logfile from 23. January 2019, 20:47
Argent / Original Album Classics Box Set
Used drive  : ASUS    DRW-24D5MT   Adapter: 1  ID: 0
Read mode               : Secure
Utilize accurate stream : Yes
Defeat audio cache      : Yes
Make use of C2 pointers : No
Read offset correction                      : 6
Overread into Lead-In and Lead-Out          : No
Fill up missing offset samples with silence : Yes
Delete leading and trailing silent blocks   : No
Null samples used in CRC calculations       : Yes
Used interface                              : Native Win32 interface for Win NT & 2000
Gap handling                                : Appended to previous track
Used output format              : User Defined Encoder
Selected bitrate                : 896 kBit/s
Quality                         : High
Add ID3 tag                     : No
Command line compressor         : C:\Program Files (x86)\Exact Audio Copy\FLAC\FLAC.EXE
Additional command line options : -6 -V -T "ARTIST=%artist%" -T "TITLE=%title%" -T "ALBUM=%albumtitle%" -T "DATE=%year%" -T "TRACKNUMBER=%tracknr%" -T "GENRE=%genre%" -T "COMMENT=rip by waddaw" -T "BAND=%albuminterpret%" -T "ALBUMARTIST=%albuminterpret%" -T "COMPOSER=%composer%" %haslyrics%--tag-from-file=LYRICS="%lyricsfile%"%haslyrics% -T "DISCNUMBER=%cdnumber%" -T "TOTALDISCS=%totalcds%" -T "TOTALTRACKS=%numtracks%" %hascover%--picture="%coverfile%"%hascover% %source% -o %dest%
TOC of the extracted CD
Track |   Start  |  Length  | Start sector | End sector
---------------------------------------------------------
1  |  0:00.00 |  2:55.17 |         0    |    13141
2  |  2:55.17 |  4:07.44 |     13142    |    31710
3  |  7:02.61 |  4:32.13 |     31711    |    52123
4  | 11:34.74 |  7:52.53 |     52124    |    87576
5  | 19:27.52 |  5:20.44 |     87577    |   111620
6  | 24:48.21 |  3:46.52 |    111621    |   128622
7  | 28:34.73 |  4:53.11 |    128623    |   150608
8  | 33:28.09 |  5:11.68 |    150609    |   174001
9  | 38:40.02 |  4:10.26 |    174002    |   192777
Track  1
Filename E:\22\Original Album Classics\Argent - Original Album Classics (2009) [FLAC 5CD]\CD2 - Ring Of Hands (1971)\01 Celebration.wav
Pre-gap length  0:00:02.00
Peak level 100.0 %
Extraction speed 4.1 X
Track quality 100.0 %
Test CRC C3C46EB1
Copy CRC C3C46EB1
Accurately ripped (confidence 29)  [BB433BAB]  (AR v2)
Copy OK
Track  2
Filename E:\22\Original Album Classics\Argent - Original Album Classics (2009) [FLAC 5CD]\CD2 - Ring Of Hands (1971)\02 Sweet Mary.wav
Pre-gap length  0:00:02.64
Peak level 100.0 %
Extraction speed 5.1 X
Track quality 100.0 %
Test CRC B5163F00
Copy CRC B5163F00
Accurately ripped (confidence 29)  [7EA9A467]  (AR v2)
Copy OK
Track  3
Filename E:\22\Original Album Classics\Argent - Original Album Classics (2009) [FLAC 5CD]\CD2 - Ring Of Hands (1971)\03 Cast Your Spell Uranus.wav
Pre-gap length  0:00:01.89
Peak level 100.0 %
Extraction speed 5.6 X
Track quality 100.0 %
Test CRC 83A252D7
Copy CRC 83A252D7
Accurately ripped (confidence 29)  [133EE85C]  (AR v2)
Copy OK
Track  4
Filename E:\22\Original Album Classics\Argent - Original Album Classics (2009) [FLAC 5CD]\CD2 - Ring Of Hands (1971)\04 Lothlorien.wav
Pre-gap length  0:00:02.13
Peak level 100.0 %
Extraction speed 6.5 X
Track quality 100.0 %
Test CRC 56EA5538
Copy CRC 56EA5538
Accurately ripped (confidence 29)  [2904D933]  (AR v2)
Copy OK
Track  5
Filename E:\22\Original Album Classics\Argent - Original Album Classics (2009) [FLAC 5CD]\CD2 - Ring Of Hands (1971)\05 Chained.wav
Pre-gap length  0:00:01.81
Peak level 100.0 %
Extraction speed 6.8 X
Track quality 100.0 %
Test CRC C7ED75BA
Copy CRC C7ED75BA
Accurately ripped (confidence 29)  [62832CDA]  (AR v2)
Copy OK
Track  6
Filename E:\22\Original Album Classics\Argent - Original Album Classics (2009) [FLAC 5CD]\CD2 - Ring Of Hands (1971)\06 Rejoice.wav
Pre-gap length  0:00:01.86
Peak level 96.0 %
Extraction speed 6.8 X
Track quality 100.0 %
Test CRC A42999A4
Copy CRC A42999A4
Accurately ripped (confidence 29)  [A458CD93]  (AR v2)
Copy OK
Track  7
Filename E:\22\Original Album Classics\Argent - Original Album Classics (2009) [FLAC 5CD]\CD2 - Ring Of Hands (1971)\07 Pleasure.wav
Pre-gap length  0:00:01.72
Peak level 100.0 %
Extraction speed 6.3 X
Track quality 99.9 %
Test CRC 7CE31D8F
Copy CRC 7CE31D8F
Accurately ripped (confidence 29)  [714FE671]  (AR v2)
Copy OK
Track  8
Filename E:\22\Original Album Classics\Argent - Original Album Classics (2009) [FLAC 5CD]\CD2 - Ring Of Hands (1971)\08 Sleep Won't Help Me.wav
Pre-gap length  0:00:01.70
Peak level 100.0 %
Extraction speed 7.8 X
Track quality 100.0 %
Test CRC 09304875
Copy CRC 09304875
Accurately ripped (confidence 29)  [724A9561]  (AR v2)
Copy OK
Track  9
Filename E:\22\Original Album Classics\Argent - Original Album Classics (2009) [FLAC 5CD]\CD2 - Ring Of Hands (1971)\09 Where Are We Going Wrong.wav
Pre-gap length  0:00:02.25
Peak level 100.0 %
Extraction speed 6.5 X
Track quality 99.9 %
Test CRC D3621980
Copy CRC D3621980
Accurately ripped (confidence 29)  [5015E752]  (AR v2)
Copy OK
All tracks accurately ripped
No errors occurred
End of status report
---- AcoustID Plugin V1.2.0
Total fingerprints: 9
---- CUETools DB Plugin V2.1.6
[CTDB TOCID: GvP8W0rWyhAMKybPGicIAsIVEl8-] found
Submit result: GvP8W0rWyhAMKybPGicIAsIVEl8- has been confirmed
Track | CTDB Status
1   | (44/45) Accurately ripped
2   | (44/45) Accurately ripped
3   | (44/45) Accurately ripped
4   | (44/45) Accurately ripped
5   | (45/45) Accurately ripped
6   | (45/45) Accurately ripped
7   | (45/45) Accurately ripped
8   | (45/45) Accurately ripped
9   | (45/45) Accurately ripped
==== Log checksum E828BA0DD11AA591F95959938E1161B40E6215B45304166F6AB9B3FB6BA49FC3 ====
Прoдолжительность: 00:42:50

1972 | All Together Now

Трeклист:
--------------------------

01. Hold Your Head Up (6:20)
02. Keep on Rollin' (4:32)
03. Tragedy (4:50)
04. I Am the Dance of the Ages (3:47)
05. Be My Lover, Be My Friend (5:21)
06. He's a Dynamo (3:50)
07. Pure Love (Fantasia-Prelude-Pure Love-Finale) (13:06)

Лог создания рипа

Код:
Exact Audio Copy V1.3 from 2. September 2016
EAC extraction logfile from 23. January 2019, 21:28
Argent / Original Album Classics Box Set
Used drive  : TSSTcorpCD/DVDW SH-S182D   Adapter: 1  ID: 1
Read mode               : Secure
Utilize accurate stream : Yes
Defeat audio cache      : Yes
Make use of C2 pointers : No
Read offset correction                      : 6
Overread into Lead-In and Lead-Out          : No
Fill up missing offset samples with silence : Yes
Delete leading and trailing silent blocks   : No
Null samples used in CRC calculations       : Yes
Used interface                              : Native Win32 interface for Win NT & 2000
Gap handling                                : Appended to previous track
Used output format              : User Defined Encoder
Selected bitrate                : 896 kBit/s
Quality                         : High
Add ID3 tag                     : No
Command line compressor         : C:\Program Files (x86)\Exact Audio Copy\FLAC\FLAC.EXE
Additional command line options : -6 -V -T "ARTIST=%artist%" -T "TITLE=%title%" -T "ALBUM=%albumtitle%" -T "DATE=%year%" -T "TRACKNUMBER=%tracknr%" -T "GENRE=%genre%" -T "COMMENT=rip by waddaw" -T "BAND=%albuminterpret%" -T "ALBUMARTIST=%albuminterpret%" -T "COMPOSER=%composer%" %haslyrics%--tag-from-file=LYRICS="%lyricsfile%"%haslyrics% -T "DISCNUMBER=%cdnumber%" -T "TOTALDISCS=%totalcds%" -T "TOTALTRACKS=%numtracks%" %hascover%--picture="%coverfile%"%hascover% %source% -o %dest%
TOC of the extracted CD
Track |   Start  |  Length  | Start sector | End sector
---------------------------------------------------------
1  |  0:00.00 |  6:19.72 |         0    |    28496
2  |  6:19.72 |  4:31.50 |     28497    |    48871
3  | 10:51.47 |  4:50.30 |     48872    |    70651
4  | 15:42.02 |  3:46.50 |     70652    |    87651
5  | 19:28.52 |  5:21.05 |     87652    |   111731
6  | 24:49.57 |  3:49.65 |    111732    |   128971
7  | 28:39.47 | 13:06.20 |    128972    |   187941
Track  1
Filename E:\22\Original Album Classics\Argent - Original Album Classics (2009) [FLAC 5CD]\CD3 - All Together Now (1972)\01 Hold Your Head Up.wav
Pre-gap length  0:00:02.00
Peak level 84.7 %
Extraction speed 5.2 X
Track quality 100.0 %
Test CRC 7398DC19
Copy CRC 7398DC19
Accurately ripped (confidence 27)  [D9FF40FC]  (AR v2)
Copy OK
Track  2
Filename E:\22\Original Album Classics\Argent - Original Album Classics (2009) [FLAC 5CD]\CD3 - All Together Now (1972)\02 Keep on Rollin'.wav
Pre-gap length  0:00:02.40
Peak level 88.8 %
Extraction speed 5.6 X
Track quality 100.0 %
Test CRC 17D89121
Copy CRC 17D89121
Accurately ripped (confidence 25)  [805ED9A7]  (AR v2)
Copy OK
Track  3
Filename E:\22\Original Album Classics\Argent - Original Album Classics (2009) [FLAC 5CD]\CD3 - All Together Now (1972)\03 Tragedy.wav
Pre-gap length  0:00:02.66
Peak level 80.4 %
Extraction speed 6.0 X
Track quality 100.0 %
Test CRC C3BCF8BB
Copy CRC C3BCF8BB
Accurately ripped (confidence 26)  [2675113D]  (AR v2)
Copy OK
Track  4
Filename E:\22\Original Album Classics\Argent - Original Album Classics (2009) [FLAC 5CD]\CD3 - All Together Now (1972)\04 I Am the Dance of the Ages.wav
Pre-gap length  0:00:02.13
Peak level 86.2 %
Extraction speed 6.2 X
Track quality 100.0 %
Test CRC F6C4369A
Copy CRC F6C4369A
Accurately ripped (confidence 26)  [691E04AB]  (AR v2)
Copy OK
Track  5
Filename E:\22\Original Album Classics\Argent - Original Album Classics (2009) [FLAC 5CD]\CD3 - All Together Now (1972)\05 Be My Lover, Be My Friend.wav
Pre-gap length  0:00:01.36
Peak level 95.5 %
Extraction speed 6.8 X
Track quality 100.0 %
Test CRC 3AB33171
Copy CRC 3AB33171
Accurately ripped (confidence 26)  [DC0B6743]  (AR v2)
Copy OK
Track  6
Filename E:\22\Original Album Classics\Argent - Original Album Classics (2009) [FLAC 5CD]\CD3 - All Together Now (1972)\06 He's a Dynamo.wav
Pre-gap length  0:00:01.09
Peak level 97.6 %
Extraction speed 6.9 X
Track quality 100.0 %
Test CRC A588188B
Copy CRC A588188B
Accurately ripped (confidence 26)  [BB4E614C]  (AR v2)
Copy OK
Track  7
Filename E:\22\Original Album Classics\Argent - Original Album Classics (2009) [FLAC 5CD]\CD3 - All Together Now (1972)\07 Pure Love (Fantasia-Prelude-Pure Love-Finale).wav
Pre-gap length  0:00:01.93
Peak level 97.7 %
Extraction speed 8.3 X
Track quality 100.0 %
Test CRC CACD9F9D
Copy CRC CACD9F9D
Accurately ripped (confidence 26)  [2A8F9A0B]  (AR v2)
Copy OK
All tracks accurately ripped
No errors occurred
End of status report
---- AcoustID Plugin V1.2.0
Total fingerprints: 7
---- CUETools DB Plugin V2.1.6
[CTDB TOCID: omCigop.dLZhaTWLy4vXtPhHkr0-] found
Submit result: omCigop.dLZhaTWLy4vXtPhHkr0- has been confirmed
Track | CTDB Status
1   | (59/59) Accurately ripped
2   | (57/59) Accurately ripped
3   | (59/59) Accurately ripped
4   | (59/59) Accurately ripped
5   | (59/59) Accurately ripped
6   | (58/59) Accurately ripped
7   | (58/59) Accurately ripped
==== Log checksum 3DD33890AB8CAEBF683AC5DB50677B6D6B868633FBCB0F432907B9D0B2541716 ====
Прoдолжительность: 00:41:46

1973 | In Deep

Трeклист:
--------------------------

01. God Gave Rock and Roll to You (6:47)
02. It's Only Money, Part 1 (4:08)
03. It's Only Money, Part 2 (5:12)
04. Losing Hold (5:32)
05. Be Glad (8:39)
06. Christmas for the Free (4:17)
07. Candles on the River (7:05)
08. Rosie (3:42)

Лог создания рипа

Код:
Exact Audio Copy V1.3 from 2. September 2016
EAC extraction logfile from 23. January 2019, 21:29
Argent / Original Album Classics Box Set
Used drive  : ASUS    DRW-24D5MT   Adapter: 1  ID: 0
Read mode               : Secure
Utilize accurate stream : Yes
Defeat audio cache      : Yes
Make use of C2 pointers : No
Read offset correction                      : 6
Overread into Lead-In and Lead-Out          : No
Fill up missing offset samples with silence : Yes
Delete leading and trailing silent blocks   : No
Null samples used in CRC calculations       : Yes
Used interface                              : Native Win32 interface for Win NT & 2000
Gap handling                                : Appended to previous track
Used output format              : User Defined Encoder
Selected bitrate                : 896 kBit/s
Quality                         : High
Add ID3 tag                     : No
Command line compressor         : C:\Program Files (x86)\Exact Audio Copy\FLAC\FLAC.EXE
Additional command line options : -6 -V -T "ARTIST=%artist%" -T "TITLE=%title%" -T "ALBUM=%albumtitle%" -T "DATE=%year%" -T "TRACKNUMBER=%tracknr%" -T "GENRE=%genre%" -T "COMMENT=rip by waddaw" -T "BAND=%albuminterpret%" -T "ALBUMARTIST=%albuminterpret%" -T "COMPOSER=%composer%" %haslyrics%--tag-from-file=LYRICS="%lyricsfile%"%haslyrics% -T "DISCNUMBER=%cdnumber%" -T "TOTALDISCS=%totalcds%" -T "TOTALTRACKS=%numtracks%" %hascover%--picture="%coverfile%"%hascover% %source% -o %dest%
TOC of the extracted CD
Track |   Start  |  Length  | Start sector | End sector
---------------------------------------------------------
1  |  0:00.00 |  6:46.67 |         0    |    30516
2  |  6:46.67 |  4:07.63 |     30517    |    49104
3  | 10:54.55 |  5:12.10 |     49105    |    72514
4  | 16:06.65 |  5:31.60 |     72515    |    97399
5  | 21:38.50 |  8:39.05 |     97400    |   136329
6  | 30:17.55 |  4:17.00 |    136330    |   155604
7  | 34:34.55 |  7:05.32 |    155605    |   187511
8  | 41:40.12 |  3:42.05 |    187512    |   204166
Track  1
Filename E:\22\Original Album Classics\Argent - Original Album Classics (2009) [FLAC 5CD]\CD4 - In Deep (1973)\01 God Gave Rock and Roll to You.wav
Pre-gap length  0:00:02.00
Peak level 86.4 %
Extraction speed 5.2 X
Track quality 100.0 %
Test CRC 722F2EAD
Copy CRC 722F2EAD
Accurately ripped (confidence 28)  [D129AE0F]  (AR v2)
Copy OK
Track  2
Filename E:\22\Original Album Classics\Argent - Original Album Classics (2009) [FLAC 5CD]\CD4 - In Deep (1973)\02 It's Only Money, Part 1.wav
Pre-gap length  0:00:03.36
Peak level 83.5 %
Extraction speed 5.5 X
Track quality 100.0 %
Test CRC 23FAF66A
Copy CRC 23FAF66A
Accurately ripped (confidence 27)  [4373FEF9]  (AR v2)
Copy OK
Track  3
Filename E:\22\Original Album Classics\Argent - Original Album Classics (2009) [FLAC 5CD]\CD4 - In Deep (1973)\03 It's Only Money, Part 2.wav
Pre-gap length  0:00:03.93
Peak level 100.0 %
Extraction speed 6.1 X
Track quality 100.0 %
Test CRC F55446FF
Copy CRC F55446FF
Accurately ripped (confidence 28)  [FE826AF0]  (AR v2)
Copy OK
Track  4
Filename E:\22\Original Album Classics\Argent - Original Album Classics (2009) [FLAC 5CD]\CD4 - In Deep (1973)\04 Losing Hold.wav
Pre-gap length  0:00:02.77
Peak level 100.0 %
Extraction speed 6.6 X
Track quality 100.0 %
Test CRC C72101D0
Copy CRC C72101D0
Accurately ripped (confidence 28)  [BB2D116C]  (AR v2)
Copy OK
Track  5
Filename E:\22\Original Album Classics\Argent - Original Album Classics (2009) [FLAC 5CD]\CD4 - In Deep (1973)\05 Be Glad.wav
Pre-gap length  0:00:01.37
Peak level 88.0 %
Extraction speed 7.4 X
Track quality 100.0 %
Test CRC AA335C00
Copy CRC AA335C00
Accurately ripped (confidence 28)  [42F01388]  (AR v2)
Copy OK
Track  6
Filename E:\22\Original Album Classics\Argent - Original Album Classics (2009) [FLAC 5CD]\CD4 - In Deep (1973)\06 Christmas for the Free.wav
Peak level 69.4 %
Extraction speed 7.3 X
Track quality 100.0 %
Test CRC BDDB1449
Copy CRC BDDB1449
Accurately ripped (confidence 28)  [C4753499]  (AR v2)
Copy OK
Track  7
Filename E:\22\Original Album Classics\Argent - Original Album Classics (2009) [FLAC 5CD]\CD4 - In Deep (1973)\07 Candles on the River.wav
Pre-gap length  0:00:01.40
Peak level 100.0 %
Extraction speed 8.1 X
Track quality 100.0 %
Test CRC C7F4DB70
Copy CRC C7F4DB70
Accurately ripped (confidence 28)  [4D6AF57C]  (AR v2)
Copy OK
Track  8
Filename E:\22\Original Album Classics\Argent - Original Album Classics (2009) [FLAC 5CD]\CD4 - In Deep (1973)\08 Rosie.wav
Pre-gap length  0:00:04.56
Peak level 85.1 %
Extraction speed 7.8 X
Track quality 100.0 %
Test CRC 0588D5FB
Copy CRC 0588D5FB
Accurately ripped (confidence 28)  [288E95E4]  (AR v2)
Copy OK
All tracks accurately ripped
No errors occurred
End of status report
---- AcoustID Plugin V1.2.0
Total fingerprints: 8
---- CUETools DB Plugin V2.1.6
[CTDB TOCID: Na4t1ftW2lFCd2qgiIdrXDshx.M-] found
Submit result: Na4t1ftW2lFCd2qgiIdrXDshx.M- has been confirmed
Track | CTDB Status
1   | (55/55) Accurately ripped
2   | (54/55) Accurately ripped
3   | (55/55) Accurately ripped
4   | (55/55) Accurately ripped
5   | (55/55) Accurately ripped
6   | (55/55) Accurately ripped
7   | (55/55) Accurately ripped
8   | (55/55) Accurately ripped
==== Log checksum 38EF3F029DED17C71FD0FBD92AE9930019C7637D52C472408D29BF3ECCF1FB68 ====
Прoдолжительность: 00:45:22

1974 | Nexus

Трeклист:
--------------------------

01. The Coming of Kohoutek (3:02)
02. Once Around the Sun (2:49)
03. Infinite Wanderer (3:43)
04. Love (3:53)
05. Music From the Spheres (8:10)
06. Thunder and Lightning (5:07)
07. Keeper of the Flame (6:01)
08. Man for All Reasons (4:45)
09. Gonna Meet My Maker (4:38)

Лог создания рипа

Код:
Exact Audio Copy V1.3 from 2. September 2016
EAC extraction logfile from 23. January 2019, 22:20
Argent / Original Album Classics Box Set
Used drive  : TSSTcorpCD/DVDW SH-S182D   Adapter: 1  ID: 1
Read mode               : Secure
Utilize accurate stream : Yes
Defeat audio cache      : Yes
Make use of C2 pointers : No
Read offset correction                      : 6
Overread into Lead-In and Lead-Out          : No
Fill up missing offset samples with silence : Yes
Delete leading and trailing silent blocks   : No
Null samples used in CRC calculations       : Yes
Used interface                              : Native Win32 interface for Win NT & 2000
Gap handling                                : Appended to previous track
Used output format              : User Defined Encoder
Selected bitrate                : 896 kBit/s
Quality                         : High
Add ID3 tag                     : No
Command line compressor         : C:\Program Files (x86)\Exact Audio Copy\FLAC\FLAC.EXE
Additional command line options : -6 -V -T "ARTIST=%artist%" -T "TITLE=%title%" -T "ALBUM=%albumtitle%" -T "DATE=%year%" -T "TRACKNUMBER=%tracknr%" -T "GENRE=%genre%" -T "COMMENT=rip by waddaw" -T "BAND=%albuminterpret%" -T "ALBUMARTIST=%albuminterpret%" -T "COMPOSER=%composer%" %haslyrics%--tag-from-file=LYRICS="%lyricsfile%"%haslyrics% -T "DISCNUMBER=%cdnumber%" -T "TOTALDISCS=%totalcds%" -T "TOTALTRACKS=%numtracks%" %hascover%--picture="%coverfile%"%hascover% %source% -o %dest%
TOC of the extracted CD
Track |   Start  |  Length  | Start sector | End sector
---------------------------------------------------------
1  |  0:00.00 |  3:01.70 |         0    |    13644
2  |  3:01.70 |  2:49.02 |     13645    |    26321
3  |  5:50.72 |  3:43.25 |     26322    |    43071
4  |  9:34.22 |  3:52.70 |     43072    |    60541
5  | 13:27.17 |  8:10.33 |     60542    |    97324
6  | 21:37.50 |  5:07.17 |     97325    |   120366
7  | 26:44.67 |  6:00.65 |    120367    |   147431
8  | 32:45.57 |  4:44.48 |    147432    |   168779
9  | 37:30.30 |  4:37.60 |    168780    |   189614
Track  1
Filename E:\22\Original Album Classics\Argent - Original Album Classics (2009) [FLAC 5CD]\CD5 - Nexus (1974)\01 The Coming of Kohoutek.wav
Pre-gap length  0:00:02.00
Peak level 99.2 %
Extraction speed 3.9 X
Track quality 99.9 %
Test CRC 5EF10DE4
Copy CRC 5EF10DE4
Accurately ripped (confidence 30)  [55618F95]  (AR v2)
Copy OK
Track  2
Filename E:\22\Original Album Classics\Argent - Original Album Classics (2009) [FLAC 5CD]\CD5 - Nexus (1974)\02 Once Around the Sun.wav
Peak level 92.7 %
Extraction speed 4.8 X
Track quality 100.0 %
Test CRC A41B1AEE
Copy CRC A41B1AEE
Accurately ripped (confidence 30)  [745D15B9]  (AR v2)
Copy OK
Track  3
Filename E:\22\Original Album Classics\Argent - Original Album Classics (2009) [FLAC 5CD]\CD5 - Nexus (1974)\03 Infinite Wanderer.wav
Peak level 97.2 %
Extraction speed 5.4 X
Track quality 100.0 %
Test CRC CB382BB9
Copy CRC CB382BB9
Accurately ripped (confidence 30)  [EC29E861]  (AR v2)
Copy OK
Track  4
Filename E:\22\Original Album Classics\Argent - Original Album Classics (2009) [FLAC 5CD]\CD5 - Nexus (1974)\04 Love.wav
Pre-gap length  0:00:02.36
Peak level 87.6 %
Extraction speed 5.7 X
Track quality 100.0 %
Test CRC 21E6832B
Copy CRC 21E6832B
Accurately ripped (confidence 30)  [D1BBBA09]  (AR v2)
Copy OK
Track  5
Filename E:\22\Original Album Classics\Argent - Original Album Classics (2009) [FLAC 5CD]\CD5 - Nexus (1974)\05 Music From the Spheres.wav
Peak level 98.5 %
Extraction speed 6.7 X
Track quality 100.0 %
Test CRC 4BA6EA79
Copy CRC 4BA6EA79
Accurately ripped (confidence 30)  [8E124E0A]  (AR v2)
Copy OK
Track  6
Filename E:\22\Original Album Classics\Argent - Original Album Classics (2009) [FLAC 5CD]\CD5 - Nexus (1974)\06 Thunder and Lightning.wav
Peak level 95.0 %
Extraction speed 7.0 X
Track quality 100.0 %
Test CRC DE182703
Copy CRC DE182703
Accurately ripped (confidence 30)  [D0072EB4]  (AR v2)
Copy OK
Track  7
Filename E:\22\Original Album Classics\Argent - Original Album Classics (2009) [FLAC 5CD]\CD5 - Nexus (1974)\07 Keeper of the Flame.wav
Pre-gap length  0:00:01.26
Peak level 94.8 %
Extraction speed 6.9 X
Track quality 99.9 %
Test CRC 97721EFD
Copy CRC 97721EFD
Accurately ripped (confidence 30)  [C427EDD9]  (AR v2)
Copy OK
Track  8
Filename E:\22\Original Album Classics\Argent - Original Album Classics (2009) [FLAC 5CD]\CD5 - Nexus (1974)\08 Man for All Reasons.wav
Peak level 95.7 %
Extraction speed 7.7 X
Track quality 100.0 %
Test CRC B77B6158
Copy CRC B77B6158
Accurately ripped (confidence 30)  [25E146FE]  (AR v2)
Copy OK
Track  9
Filename E:\22\Original Album Classics\Argent - Original Album Classics (2009) [FLAC 5CD]\CD5 - Nexus (1974)\09 Gonna Meet My Maker.wav
Pre-gap length  0:00:02.04
Peak level 92.3 %
Extraction speed 8.0 X
Track quality 100.0 %
Test CRC E88AFA53
Copy CRC E88AFA53
Accurately ripped (confidence 30)  [A297E2CC]  (AR v2)
Copy OK
All tracks accurately ripped
No errors occurred
End of status report
---- AcoustID Plugin V1.2.0
Total fingerprints: 9
---- CUETools DB Plugin V2.1.6
[CTDB TOCID: WSCCH5L5aerL3PVfysdnt34HVgE-] found
Submit result: WSCCH5L5aerL3PVfysdnt34HVgE- has been confirmed
Track | CTDB Status
1   | (51/51) Accurately ripped
2   | (51/51) Accurately ripped
3   | (51/51) Accurately ripped
4   | (51/51) Accurately ripped
5   | (51/51) Accurately ripped
6   | (51/51) Accurately ripped
7   | (51/51) Accurately ripped
8   | (51/51) Accurately ripped
9   | (51/51) Accurately ripped
==== Log checksum 7268BB984F47E1C5BFBDC86CB214EBB71D7F3FBA1529BDB98C11DD50157387ED ====
Прoдолжительность: 00:42:08

Об альбоме (сборнике&#41;&#58;

Пятидисковый бокс-сет - антология группы. Переиздание вышло на рекорд-лейбле Sony Music Entertainment в Европе 2009 году. Оформление обложек в картоне в виде мини-винилов, слипкейсы.
2009 UK five CD set containing a quintet of albums from the British rockers led by former Zombies member Rod Argent: Argent (1969), Ring Of Hands (1971), All Together Now (1972), In Deep (1973) and more. Sony/BMG.
Sony/BMG repackaged and re-released five of Argent's earliest LPs on Epic - Argent, Ring of Hands, All Together Now, In Deep, and Nexus - as a slipcased box set. It's not a bad way to acquire the albums if you don't already own them, but isn't recommended for the casual fan.
CDs come in cardsleeves, replicas of the original vinyl albumsleeves, housed in a cardboard case.
© 2009 Sony Music Entertainment / Originally Released 1969, 1971, 1972, 1973, 1974 / ℗ 2009 Sony Music Entertainment / Manufactured and Distributed by Sony Music Entertainment

Official DR value: 10 | 10 | 10 | 12 | 10
discogs

О группе (исполнителе&#41;&#58;


[youtube]QsG5V-o6uxY[/youtube]
[youtube]Vt-cmi3MdUY[/youtube]


Когда сингл "Time Of The Season" возглавил американские чарты, а его тираж перевалил за миллион, группа "Zombies", записавшая пластинку, уже давно была распущена. И хотя за ее воссоединение промоутеры начали предлагать сотни тысяч долларов, один из "зомби"-лидеров, клавишник Род Арджент (р. 14 июня 1945) отказался от подобных ангажементов и собрал проект, работавший в более прогрессивном направлении. В состав группы, скромно озаглавленной "Argent", также вошли кузен Рода, басист Джим Родфорд (p. 7 июля 1945) и бывших участника "Unit 4+2" и "The Roulettes", барабанщик Боб Хенрит (p. 2 мая 1946) и гитарист Расс Баллард (p. 31 октября 1947). Последний из них (наряду с Родом) также оказался главным поставщиком материала для первых альбомов ансамбля, а за львиную долю текстов отвечал экс-басист "Zombies" Крис Уайт.
Заключив европейский контракт с "CBS Records" и американский с "Epic Records", в 1970 году "Argent" выпустили одноименный лонгплей. Альбом, большей частью являвшийся продолжением творчества "Zombies", стал лишь робкой попыткой заглянуть на новые территории и не содержал ярких номеров. Впрочем, кое-какие исключения все же были, и песня "Liar" чуть позже превратилась в хит, но не в оригинальном исполнении, а в перепевке "Three Dog Night".

Летом 1970-го этот номер пробил горячую десятку "Billboard" и тем самым помог команде поприсутствовать на престижных площадках Нью-Йорка и Лос-Анжелеса. Альбом "Ring Of Hands", поступивший в продажу 1971-го, получился куда более прогрессивным, чем его прямолинейный старший собрат, что достигалось в основном за счет изысканных клавишных пассажей Рода. И хотя критики восприняли работу с энтузиазмом, из-за отсутствия потенциальных хитов публика отнеслась к ней прохладцей. Добиться серьезного успеха "Argent" удалось лишь с третьей попытки, когда вышел их бестселлер "All Together Now". Отбросив раннюю эклектику, команда утяжелила саунд и сделала его более роковым. Лучшими номерами были признаны "Tragedy", "He's A Dynamo" и, конечно же, открывашка "Hold Your Head Up", которая даже в урезанном сингловом варианте (без фирменного соло Арджента) стала трансатлантическим хитом.
Наибольшая же прогрессивность альбома оказалась сосредоточена в закрывающем 13-минутном эпике "Pure Love", где Род насолировался вволю. Но если "All Together Now" побывал в британской двадцатке, то диск "In Deep" очутился уже на 49-м месте национального списка. Впрочем, такое положение дел было удивительно, поскольку "Argent", продолжая играть хэви-прог, заодно сотворили один из самых известных рок-гимнов "God Gave Rock'N'Roll To You".

Песня эта вошла в английский Топ 20, ее долго гоняли в американском эфире, а в 90-х ей дали второе рождение "Kiss". На альбоме "Nexus" музыкальные структуры стали гораздо более сложными, а особенно это касалось композиций, принадлежавших Ардженту. Балларда же, тяготевшего к более мелодичным вещам, излишнее погружение в прог не вдохновляло, и после выхода диска он ушел работать соло. Восполнить потерю удалось лишь двумя людьми, Джоном Гримальди (p. 25 мая 1955) и Джоном Верити (р. 2 мая 1944), однако Род был настолько рад обновленному составу, что даже отказался занять место Рика Уэйкмана в "Yes". На самом деле ситуация была не такой радужной, как предполагал Арджент, ведь с отставкой Балларда команда лишилась не только одаренного композитора, но и хорошего вокалиста.
Повинуясь воле своего лидера, в 1975 году "Argent" выпустили пару джазово-ориентированных пластинок, но ни "Circus", ни "Counterpoints" не были предназначены для широкой публики и потому коммерческого успеха не имели. Кончилось все закономерным распадом, после чего Род сессионил, а также пробовал записывать сольники, ставить мюзиклы и заниматься продюсированием других артистов. Верити, Родфорд и Хенрит выпустили пару пластинок под маркой "Phoenix", а позже Джон сколотил собственный бэнд, а Джим обосновался в "Kinks".


Английская арт-роковая команда образовалась в первой половине 70-х годов. Своим названием группа была обязана фамилии своего лидера - клавишника, автора песен и певца Рода Арджента. Первые шаги к славе Арджент (p. 14 июня 1945, Сент-Олбенс) сделал еще в 1964 году как участник «Zombies», первая же записанная на сингле песня которых была лишь второй из сочиненных им и принесла группе известность. Разногласия с фирмой «Decca» ускорили печальный конец «Zombies», и летом 1969-го Арджент собрал в Лондоне новую команду, в состав которой кроме него вошли его двоюродный брат Джим Родфорд (p. 7 июля 1945, Сент-Олбенс; бас) и два бывших члена поп-группы «Unit 4+2» - Расс Баллард (p. 31 октября 1947, Уолтэм Кросс; гитара, вокал) и Боб Хенрит (p. 2 мая 1946, Броксбурн; ударные). Тогда же он вместе с коллегой по «Zombies» Крисом Уайтом открыл свою продюсерско-авторскую фирму «Nexus Production». «Argent» получили контракт от «Epic» и выпустили в январе 1970-го дебютный альбом.
Присутствующие на диске эфирные мелодии и импрессионистские тексты напоминали «Odessey And Oracle». Пластинке не довелось оказаться в чартах, хотя песня Балларда «Liar» в исполнении «Three dog night» попала в августе 1971-го в штатовский Топ 10, заняв седьмое место. В 1970-м «Argent» предприняли первое американское турне, выступая в наиболее престижных и крупных залах страны.

В феврале 1971-го вышел второй альбом группы «Ring Of Hands», в котором ее звучание приобрело индивидуальность: ее технически совершенный и изящный арт-рок был близок к музыке «ELP», «Genesis» и «Yes», сохраняя при этом мелодическую свежесть баллад «Zombies». Популярность «Argent» в этот период достигла своего пика. К сожалению, уже на следующем диске, «All Together Now» 1972 года, участники «Argent» стали играть длинные сольные фрагменты. Правда, той же весной они сделали свой первый собственный хит: песня «Hold Your Head Up» стала 5-й в Англии и США. Вышедший в марте 1973-го альбом «In Deep» подтвердил опасения, высказанные наиболее прозорливыми критиками: группа все сильнее заостряла внимание не на творчестве, а на своих амбициях.
В марте 1973-го «Argent» отметились в британских чартах с композицией «God Gave Rock’n’Roll To You» (№ 18), однако это было их последним достойным результатом. В феврале 1974-го сразу после выхода еще одного альбома, «Nexus», Баллард решил уйти. Заменой ему стал гитарист Джон Гримальди (p. 25 мая 1955). Также в команде появился второй гитарист и певец Джон Верити (р. 2 мая 1944), группа «John Verity Band» которого разогревала зал перед выступлениями «Argent» во время их последнего британского тура. В конце 1974 года появился двойной альбом «Encore», включавший концертные версии лучших номеров группы. За ним весной 1975-го последовал неудачный «Circus», после чего «Argent» расстались с «Epic» и перешли на небольшой лейбл «Good Earth».

Надеясь вернуть утраченные позиции, группа ушла в девятимесячную самоизоляцию, сочиняя материал нового альбома, но когда в октябре 1975-го вышел «Counterpoint», стало ясно, что чуда не произошло. В июне следующего года Гримальди объявил о своем уходе, а Род Арджент принял решение распустить команду. В том же году Гримальди организовал проект «Cheap flights», а Родфорд, Верити и Хенрит еще раз попытали счастья под вывеской «Phoenix». Верити впоследствии вернулся к собственным планам, а Родфорд и Хенрит вновь встретились в «Kinks». В дальнейшем Арджент работал как сессионный музыкант, сочинял музыку для театра и кино. В июне 1978-го он записал инструментальную пьесу «Argentine Melody», которая стала хитом в Британии после того, как была использована в качестве лейтмотива в телерепортажах с чемпионата мира по футболу в Буэнос-Айресе. Он выступал и как продюсер, а позднее открыл в Вест-Энде комиссионный магазин клавишных инструментов.
Арджент принимал участие в ряде постановок Эндрю Ллойд Уэббера и записи «Variations» в 1978-м. В том же году он сделал на «MCA» сольный альбом «Moving Home». В 1983-84 Род исполнил композиции, которые вошли в два альбома известной джазовой саксофонистки Барбары Томпсон, а также записывался с «Who». В 1985-м оригинальный состав «Argent» собрался, чтобы принять участие в благотворительном концерте, посвященном жертвам пожара в футбольном клубе Брэдфорда. В 1988-м свою версию «God Gave Rock’n’Roll To You» сделали музыканты «Truth», а в 1992-м, спустя почти двадцать лет, песня вернулась в чарты в исполнении «Kiss», которые спели ее в популярной киноленте «Bill And Ted’s Bogus Journey».

В первых трёх демо-записях от Арджента, записанных осенью 1968 г., участвует Мак МакЛеод на бас-гитаре. Другие участники: ударник Боб Хенрит и басист Джим Родфорд (позже ставшие участниками «The Kinks») и гитарист/клавишник Расс Бэллард, участвовавший в создании нескольких композиций на протяжении истории группы (некоторые компоиции Бэлларда стали хитами, когда их исполнили другие музыканты, такие как Rainbow и Карлос Сантана). Когда Расс Бэллард ушёл из группы в 1973 г., его заменил гитарист/вокалист Джон Верити и гитарист Джон Гримальди и затем последовал период интенсивных записей и гастролей, пока группа не распалась в конце 1976 г.
Самым большим хитом Арджента стала песня «Hold Your Head Up». Группа также записала оригинальную версию «God Gave Rock ‘N’ Roll To You», впоследствии перепетую «Kiss» под названием «God Gave Rock ‘N’ Roll To You II». Она также стала гимном современного христианского рока и была дважды перепета группой «Petra» в 1977 и в 1984 гг., хотя и с изменённым текстом. Звучание группы было смесью рока и поп-музыки, но также охватывало и територию более прогрессивного рока в таких песнях, как «The Coming of Kohoutek» — инструментальной композиции из их альбома «Nexus». Когда Расс Бэллард покинул группу после записи «живого» альбома «Encore», они стали двигаться ещё больше в сторону прогрессивного рока и фьюжна и подписали контракт с новым лейблом («RCA Records») о выпуске двух последних альбомов. К 2005 г. все альбомы, включая сборники, были переизданы на CD, кроме «Counterpoints».

Argent are:
- Rod Argent / keyboards, backing and lead vocals (1969–1976, 2010, 2012, 2013)
- Bob Henrit / drums (1969–1976, 2010, 2012, 2013)
- Russ Ballard / guitar, lead vocals (1969–1974, 2010, 2012, 2013)
- Jim Rodford / bass guitar, backing vocals (1969–1976, 2010, 2012, 2013; died 2018)
- John Verity / guitar, vocals (1974–1976)
- John Grimaldi / guitar, lead vocals (1974–1976; died 1983)



1970 Argent
1971 Ring Of Hands
1972 All Together Now
1973 In Deep
1974 Nexus
1975 Circus
1976 Counterpoints

1974 Encore: Live in Concert
1995 BBC Radio 1 In Concert
1997 The Complete BBC Sessions

1976 The Best Of Argent — An Anthology
1978 Hold Your Head Up
1991 Music From The Spheres


rodargent.com
allmusic
progarchives
rockfaces
en.wikipedia
ru.wikipedia
rock-musicland
discogs
Other forum [Profile] [PM]
Display posts from previous:    
Reply to topic

The time now is: Today 00:51

All times are GMT + 3 Hours



You cannot post new topics in this forum
You cannot reply to topics in this forum
You cannot edit your posts in this forum
You cannot delete your posts in this forum
You cannot vote in polls in this forum
You cannot attach files in this forum
You cannot download files in this forum