Today is a free download without charge Download

Rashni - Baboushka (2007) [FLAC|Lossless|image + .cue] <Euro House, Trance>

Reply to topic
 
Author
Message

Soldat_5 ®

Longevity: 8 months 27 days

Posts: 129

Торрент-статистика

Post 06-Jan-2020 17:00

[Quote]

Rashni - Baboushka (2007) - Жанр: Euro House, Trance
Издание: ZYX Music - ZYX 9989-8
Источник: (релизёр:) s-p-m2009
Продолжительность: 00:18:23
Кодек: FLAC
Битрейт: Lossless
Тип рипа: image + .cue
Треклист:
1 Baboushka (Radio Mix) 3:06
2 Baboushka (Kolchose Mix) 5:14
3 Baboushka (Punkbusters Remix) 6:08
4 Baboushka (Video Mix) 3:38

Отчёт EAC&#58;

Exact Audio Copy V1.0 beta 3 from 29. August 2011
Отчёт EAC об извлечении, выполненном 1. января 2020, 22:34
Rashni / Baboushka
Дисковод: TSSTcorpCDDVDW SH-224DB Adapter: 1 ID: 0
Режим чтения : Достоверность
Использование точного потока : Да
Отключение кэша аудио : Да
Использование указателей C2 : Нет
Коррекция смещения при чтении : 6
Способность читать области Lead-in и Lead-out : Нет
Заполнение пропущенных сэмплов тишиной : Да
Удаление блоков с тишиной в начале и конце : Нет
При вычислениях CRC использовались нулевые сэмплы : Да
Интерфейс : Встроенный Win32-интерфейс для Win NT/2000
Выходной формат : Пользовательский кодировщик
Выбранный битрейт : 128 kBit/s
Качество : Высокий
Добавление ID3-тега : Нет
Утилита сжатия : C:\Program Files (x86)\FLAC\flac.exe
Дополнительные параметры : -V -8 -T "Date=%year%" -T "Genre=%genre%" %source%
TOC извлечённого CD
Трек | Старт | Длительность | Начальный сектор | Конечный сектор
---------------------------------------------------------------------
1 | 0:00.00 | 3:11.42 | 0 | 14366
2 | 3:11.42 | 5:17.10 | 14367 | 38151
3 | 8:28.52 | 6:14.68 | 38152 | 66269
4 | 14:43.45 | 3:38.52 | 66270 | 82671
5 | 20:54.22 | 24:20.18 | 94072 | 203589
Характеристики диапазона извлечения и сообщения об ошибках
Выбранный диапазон
Имя файла C:\EAC\Rashni - Baboushka - 2007 CDM\Rashni - Baboushka.wav
Пиковый уровень 98.8 %
Скорость извлечения 2.4 X
Качество диапазона 100.0 %
CRC теста 7BD124A8
CRC копии 7BD124A8
Копирование... OK
Ошибок не произошло
AccurateRip: сводка
Трек 1 отсутствует в базе данных
Трек 2 отсутствует в базе данных
Трек 3 отсутствует в базе данных
Трек 4 отсутствует в базе данных
Ни одного трека нет в базе AccurateRip
Конец отчёта
==== Контрольная сумма отчёта 1B2830FA89057C57B44A6B64454F261358BBD45014AFB7D4736A6BC23B990B21 ====
Other forum [Profile] [PM]
Display posts from previous:    
Reply to topic

The time now is: Today 22:11

All times are GMT + 3 Hours



You cannot post new topics in this forum
You cannot reply to topics in this forum
You cannot edit your posts in this forum
You cannot delete your posts in this forum
You cannot vote in polls in this forum
You cannot attach files in this forum
You cannot download files in this forum