Today is a free download without charge Download

[email protected] | Программист 2020..2030 (2019) [unpacked]

Topic locked
 
Author
Message

mayor ®

Gender:

Longevity: 1 month 24 days

Posts: 206

Location: РФ

Торрент-статистика

Post 06-Jan-2020 20:47

[Quote]

- [email protected] | Программист 2020..2030 - Автор (издатель): Bad_guy
Сайт производителя: exelab.ru (crack.lab)
Жанр: Обучающий интерактивный диск
Системные требования:
• Операционная система: Microsoft Windows 98/Me/200/XP/Vista/7
• Процессор: Pentium II 500 Мгц
• 128 Мб оперативной памяти
• Разрешение экрана: 1024x768 с глубиной цвета 16 бит

Формат: unpacked
Описание:
Вы программист или хотите им быть? Между прочим, это всё ещё перспективная специальность в наш «век информации» для вас и ваших детей. Кроме того, именно программисты чаще всего переходят в новые специальности, связанные с информационными технологиями, которых не было ещё пару лет назад. Будучи программистом и повышая свои знания, вы всегда будете актуальным на рынке труда и актуальным для самого себя.
Общая продолжительность: 91:40:16
Качество видео: PCRec
Видео: TSCC, AVC/H.264, 1024-1280x720-768, ~1000 Kbps
Аудио: MP3, AAC, 1-2 ch, 64-126 Kbps

MediaInfo:

[scroll][[email protected]] Программист 2020...2030\Top Secrets\01-Языки выоскооплачиваемые.avi
Format : AVI
Format/Info : Audio Video Interleave
File size : 37.3 MiB
Duration : 21 min 24 s
Overall bit rate : 244 kb/s
Video
ID : 0
Format : TechSmith
Codec ID : tscc
Codec ID/Info : TechSmith Screen Capture
Duration : 21 min 24 s
Bit rate : 176 kb/s
Width : 1 024 pixels
Height : 768 pixels
Display aspect ratio : 4:3
Frame rate : 10.000 FPS
Bits/(Pixel*Frame) : 0.022
Stream size : 26.9 MiB (72%)
Audio
ID : 1
Format : MPEG Audio
Format version : Version 2
Format profile : Layer 3
Codec ID : 55
Codec ID/Hint : MP3
Duration : 21 min 24 s
Bit rate mode : Constant
Bit rate : 64.0 kb/s
Channel(s) : 1 channel
Sampling rate : 22.05 kHz
Compression mode : Lossy
Stream size : 9.80 MiB (26%)
Alignment : Split across interleaves
Interleave, duration : 999 ms (9.99 video frames)
Interleave, preload duratio : 750 ms
Writing library : LAME+̼"dÇFAî[email protected]»•
[[email protected]] Программист 2020...2030\Swift Pattern\Урок 2. Одиночка (Singletone) - паттерны проектирования в iOS.mp4
Format : MPEG-4
Format profile : Base Media
Codec ID : isom (isom/iso2/avc1/mp41)
File size : 11.2 MiB
Duration : 5 min 30 s
Overall bit rate : 285 kb/s
Writing application : Lavf58.20.100
Video
ID : 1
Format : AVC
Format/Info : Advanced Video Codec
Format profile : [url=mailto:[email protected]][email protected][/url]
Format settings : CABAC / 3 Ref Frames
Format settings, CABAC : Yes
Format settings, Reference : 3 frames
Codec ID : avc1
Codec ID/Info : Advanced Video Coding
Duration : 5 min 30 s
Bit rate : 152 kb/s
Width : 1 152 pixels
Height : 720 pixels
Display aspect ratio : 16:10
Frame rate mode : Variable
Frame rate : 29.970 (30000/1001) FPS
Minimum frame rate : 29.960 FPS
Maximum frame rate : 29.970 FPS
Color space : YUV
Chroma subsampling : 4:2:0
Bit depth : 8 bits
Scan type : Progressive
Bits/(Pixel*Frame) : 0.006
Stream size : 5.97 MiB (53%)
Color range : Limited
Color primaries : BT.709
Transfer characteristics : BT.709
Matrix coefficients : BT.709
Codec configuration box : avcC
Audio
ID : 2
Format : AAC LC
Format/Info : Advanced Audio Codec Low Complexity
Codec ID : mp4a-40-2
Duration : 5 min 30 s
Bit rate mode : Constant
Bit rate : 126 kb/s
Channel(s) : 2 channels
Channel layout : L R
Sampling rate : 44.1 kHz
Frame rate : 43.066 FPS (1024 SPF)
Compression mode : Lossy
Stream size : 4.95 MiB (44%)
Default : Yes
Alternate group : 1
[[email protected]] Программист 2020...2030\Go\Погружение в Google Go Введение [v2].mp4
Format : MPEG-4
Format profile : Base Media
Codec ID : isom (isom/iso2/avc1/mp41)
File size : 24.2 MiB
Duration : 13 min 23 s
Overall bit rate : 253 kb/s
Writing application : Lavf58.20.100
Video
ID : 1
Format : AVC
Format/Info : Advanced Video Codec
Format profile : [url=mailto:[email protected]][email protected][/url]
Format settings : CABAC / 3 Ref Frames
Format settings, CABAC : Yes
Format settings, Reference : 3 frames
Codec ID : avc1
Codec ID/Info : Advanced Video Coding
Duration : 13 min 23 s
Bit rate : 122 kb/s
Width : 1 280 pixels
Height : 720 pixels
Display aspect ratio : 16:9
Frame rate mode : Constant
Frame rate : 24.000 FPS
Color space : YUV
Chroma subsampling : 4:2:0
Bit depth : 8 bits
Scan type : Progressive
Bits/(Pixel*Frame) : 0.006
Stream size : 11.7 MiB (48%)
Codec configuration box : avcC
Audio
ID : 2
Format : AAC LC
Format/Info : Advanced Audio Codec Low Complexity
Codec ID : mp4a-40-2
Duration : 13 min 23 s
Bit rate mode : Constant
Bit rate : 126 kb/s
Channel(s) : 2 channels
Channel layout : L R
Sampling rate : 44.1 kHz
Frame rate : 43.066 FPS (1024 SPF)
Compression mode : Lossy
Stream size : 12.0 MiB (50%)
Default : Yes
Alternate group : 1 [/scroll]

Продолжение описания:

В видеокурсе Программист 2020..2030 раскрываются темы, которые находятся «в работе» и будут наиболее популярны в программирование на ближайшие 10 лет: цифровая экономика (биткойн, блокчейны, смарт-контракты), искусственный интеллект (нейросети, современная робототехника), большие данные (из соц.сетей, наука о данных, статистическая обработка, бизнес применение). Также продолжатся разработки прошлых десятилетий: веб-сайты, игры для смартфонов и планшетов, облачные сервисы.
Как начинающему, так и опытному программисту обязательно необходимо быть внимательным к новым тенденциям, чтобы не остаться без работы в ближайшие несколько лет. И это не шутки: кому сейчас нужно программирование на языках Паскаль и Дельфи? А ведь всего 10 лет назад эти специалисты были очень востребованы. Но не волнуйтесь, со мной вам не о чем волноваться. Ведь я (Bad_guy) последние 15 лет сосредоточен на выпуске видеокурсов для программистов, крэкеров и хакеров. Будьте уверены, Видеокурс Программист 2020..2030, созданный мной, вам точно поможет. В видеоуроках приводится как креативная теоретическая часть, которая обязательно подкинет отличную идею, в какую сторону можно двигаться самостоятельно, так и практика, то есть, непосредственное изучение языков программирование и написание кода.
Кстати, если вы видите себя больше хакером, а не программистом, то популярные в ближайшие 10 лет вышеприведенные темы (более подробно раскрытые в видеокурсе), и вам дадут пищу для ума и поле для деятельности.
Вы сможете без проблем просматривать и использовать все материалы видеокурса на Windows, смарфтонах и планшетах Android и Apple, Linux, MacOS.
У видеокурса есть специализированная Windows-оболочка Autorun, которая написана на C++, обладает встроенным HTML движком, включает описание для всех материалов курса и удобна в навигации.
Скриншоты:
       

_________________
Other forum [Profile] [PM]
Display posts from previous:    
Topic locked

The time now is: Today 00:22

All times are GMT + 3 Hours



You cannot post new topics in this forum
You cannot reply to topics in this forum
You cannot edit your posts in this forum
You cannot delete your posts in this forum
You cannot vote in polls in this forum
You cannot attach files in this forum
You cannot download files in this forum