Today is a free download without charge Download

Александр Новиков - Box Set 22 CD (1981-2003) [FLAC|Lossless|image + .cue]<Шансон>

Reply to topic
 
Author
Message

Soldat_5 ®

Longevity: 3 months 12 days

Posts: 103

Торрент-статистика

Post 13-Feb-2020 10:04

[Quote]

Александр Новиков - Box Set 22 CD (1981-2003)-
Год: 1981-2003 Жанр: Шансон
Лейбл: ООО"Уральский электронный завод", © 2003г. Александр Новиков, © 2003г. Компания Новик-рекордз
Кодек: FLAC Тип рипа: image + .cue Битрейт: Lossless

1981 - Рок-Полигон

[img=right]http://nnmclub.ch/forum/image.php?link=http://i077....e928cf.jpg[/img]
Треклиcт:
01. Иллюзион (6:25)
02. Дискотека (3:52)
03. Гена-Крокодил (7:09)
04. Велосипедист (3:15)
05. Черепаха (13:16)
06. Миг удачи (3:32)
07. Мыльный пузырь (4:28)
08. Мотор (3:17)
Продолжительноcть: 00:45:14
Описание:
Полное собрание на 22 CD.

Отчёт ЕАС&#58;

Код:
Exact Audio Copy V0.99 prebeta 4 from 23. January 2008
Отчёт EAC об извлечении, выполненном 14. января 2010, 22:01
Александр Новиков / Рок-Полигон
Дисковод: ASUS    DRW-1814BLT   Adapter: 3  ID: 0
Режим чтения                 : Достоверность
Использование точного потока : Да
Отключение кэша аудио        : Да
Использование указателей C2  : Нет
Коррекция смещения при чтении                     : 6
Способность читать области Lead-in и Lead-out     : Нет
Заполнение пропущенных сэмплов тишиной            : Да
Удаление блоков с тишиной в начале и конце        : Нет
При вычислениях CRC использовались нулевые сэмплы : Да
Интерфейс                                         : Установленный внешний ASPI-интерфейс
Выходной формат : Внутренние WAV-операции
Формат сэмплов  : 44.100 Гц; 16 бит; стерео
TOC извлечённого CD
     Трек |   Старт  | Длительность | Начальный сектор | Конечный сектор
    ---------------------------------------------------------------------
       1  |  0:00.00 |    6:24.42   |           0      |      28841
       2  |  6:24.42 |    3:51.67   |       28842      |      46233
       3  | 10:16.34 |    7:08.44   |       46234      |      78377
       4  | 17:25.03 |    3:15.12   |       78378      |      93014
       5  | 20:40.15 |   13:16.36   |       93015      |     152750
       6  | 33:56.51 |    3:32.07   |      152751      |     168657
       7  | 37:28.58 |    4:28.31   |      168658      |     188788
       8  | 41:57.14 |    3:17.18   |      188789      |     203581
Характеристики диапазона извлечения и сообщения об ошибках
Выбранный диапазон
     Имя файла C:\Documents and Settings\Admin\Мои документы\Александр Новиков - Рок-Полигон.wav
     Пиковый уровень 99.9 %
     Качество диапазона 99.9 %
     CRC теста B2F39A75
     CRC копии B2F39A75
     Копирование... OK
Ошибок не произошло
AccurateRip: сводка
Трек  1  нет в базе данных
Трек  2  нет в базе данных
Трек  3  нет в базе данных
Трек  4  нет в базе данных
Трек  5  нет в базе данных
Трек  6  нет в базе данных
Трек  7  нет в базе данных
Трек  8  нет в базе данных
Ни одного трека нет в базе AccurateRip
Конец отчёта
Производство:
ООО"Уральский электронный завод", © 2003г. Александр Новиков, © 2003г. Компания Новик-рекордз

Отчёт auCDtect Task manager&#58;

Код:
-----------------------
DON'T MODIFY THIS FILE
-----------------------
PERFORMER: auCDtect Task Manager, ver. 1.6.0 RC1 build 1.6.0.1
Copyright (c) 2008-2010 y-soft. All rights reserved
http://y-soft.org
ANALYZER: auCDtect: CD records authenticity detector, version 0.8.2
Copyright (c) 2004 Oleg Berngardt. All rights reserved.
Copyright (c) 2004 Alexander Djourik. All rights reserved.
FILE: Александр Новиков - Рок-Полигон.flac
  Size: 292397195 Hash: 6D4717C7826AE0D539E130E52CA7151F Accuracy: -m0
  Conclusion: CDDA 100%
  Signature: 9A582F485E0AD7B400FAC8C8C49C83332637236A

1984 - Вези меня, извозчик

Треклиcт:
01. Вези меня, извозчик (4:59)
02. Куда ведут пути-дорожки (3:21)
03. Я вышел родом из еврейского квартала (3:39)
04. Город древний (3:58)
05. Гостиничная история (4:26)
06. В захолустном ресторане (4:02)
07. Рублики-копеечки (2:40)
08. Похороны Абрама (3:43)
09. Кляузник-сосед (3:34)
10. Телефонный разговор (2:59)
11. Фаэтон (4:14)
12. Меня ещё не раз посадят в лужу... (2:39)
13. Помнишь, девочка?... (3:36)
14. Вы уезжаете... (3:35)
15. Катилась по асфальту... (4:25)
16. Улица Восточная (4:08)
17. Развязать бы мой язык (5:13)
18. В магазине грампластинок (3:58)
Продолжительноcть: 01:09:09

Отчёт ЕАС&#58;

Код:
Exact Audio Copy V0.99 prebeta 4 from 23. January 2008
Отчёт EAC об извлечении, выполненном 13. января 2010, 23:38
Александр Новиков / Вези меня, извозчик
Дисковод: _NEC    CD-RW NR-9300A   Adapter: 4  ID: 0
Режим чтения                 : Достоверность
Использование точного потока : Да
Отключение кэша аудио        : Да
Использование указателей C2  : Нет
Коррекция смещения при чтении                     : 685
Способность читать области Lead-in и Lead-out     : Нет
Заполнение пропущенных сэмплов тишиной            : Да
Удаление блоков с тишиной в начале и конце        : Нет
При вычислениях CRC использовались нулевые сэмплы : Да
Интерфейс                                         : Установленный внешний ASPI-интерфейс
Выходной формат : Внутренние WAV-операции
Формат сэмплов  : 44.100 Гц; 16 бит; стерео
TOC извлечённого CD
     Трек |   Старт  | Длительность | Начальный сектор | Конечный сектор
    ---------------------------------------------------------------------
       1  |  0:00.08 |    4:58.70   |           8      |      22427
       2  |  4:59.03 |    3:20.60   |       22428      |      37487
       3  |  8:19.63 |    3:39.17   |       37488      |      53929
       4  | 11:59.05 |    3:58.30   |       53930      |      71809
       5  | 15:57.35 |    4:25.50   |       71810      |      91734
       6  | 20:23.10 |    4:01.65   |       91735      |     109874
       7  | 24:25.00 |    2:39.73   |      109875      |     121872
       8  | 27:04.73 |    3:43.02   |      121873      |     138599
       9  | 30:48.00 |    3:33.65   |      138600      |     154639
      10  | 34:21.65 |    2:59.30   |      154640      |     168094
      11  | 37:21.20 |    4:13.63   |      168095      |     187132
      12  | 41:35.08 |    2:39.05   |      187133      |     199062
      13  | 44:14.13 |    3:35.67   |      199063      |     215254
      14  | 47:50.05 |    3:35.20   |      215255      |     231399
      15  | 51:25.25 |    4:24.50   |      231400      |     251249
      16  | 55:50.00 |    4:07.63   |      251250      |     269837
      17  | 59:57.63 |    5:12.65   |      269838      |     293302
      18  | 65:10.53 |    3:58.22   |      293303      |     311174
Характеристики диапазона извлечения и сообщения об ошибках
Выбранный диапазон
     Имя файла C:\Documents and Settings\Admin\Мои документы\Александр Новиков - Вези меня, извозчик.wav
     Пиковый уровень 100.0 %
     Качество диапазона 99.9 %
     CRC теста FDB6CEBE
     CRC копии FDB6CEBE
     Копирование... OK
Ошибок не произошло
AccurateRip: сводка
Трек  1  нет в базе данных
Трек  2  нет в базе данных
Трек  3  нет в базе данных
Трек  4  нет в базе данных
Трек  5  нет в базе данных
Трек  6  нет в базе данных
Трек  7  нет в базе данных
Трек  8  нет в базе данных
Трек  9  нет в базе данных
Трек 10  нет в базе данных
Трек 11  нет в базе данных
Трек 12  нет в базе данных
Трек 13  нет в базе данных
Трек 14  нет в базе данных
Трек 15  нет в базе данных
Трек 16  нет в базе данных
Трек 17  нет в базе данных
Трек 18  нет в базе данных
Ни одного трека нет в базе AccurateRip
Конец отчёта

Отчёт auCDtect Task manager&#58;

Код:
-----------------------
DON'T MODIFY THIS FILE
-----------------------
PERFORMER: auCDtect Task Manager, ver. 1.6.0 RC1 build 1.6.0.1
Copyright (c) 2008-2010 y-soft. All rights reserved
http://y-soft.org
ANALYZER: auCDtect: CD records authenticity detector, version 0.8.2
Copyright (c) 2004 Oleg Berngardt. All rights reserved.
Copyright (c) 2004 Alexander Djourik. All rights reserved.
FILE: Александр Новиков - Вези меня, извозчик.flac
  Size: 456000514 Hash: 42CA5A937FDC2D994DE362081E73D62A Accuracy: -m0
  Conclusion: CDDA 100%
  Signature: D6B02EADB206591632D0DED7C228A0CE5715D269

1991 - Вези меня, извозчик

Треклиcт:
01. Вези меня, извозчик (5:05)
02. Гостиничная история (4:51)
03. Я вышел родом из еврейского квартала (4:12)
04. Улица Восточная (5:17)
05. Город древний (4:12)
06. Помнишь, девочка?... (3:49)
07. Вы уезжаете... (4:01)
08. Похороны Абрама (3:47)
09. Телефонный разговор (3:13)
Продолжительноcть: 00:38:27

Отчёт ЕАС&#58;

Код:
Exact Audio Copy V0.99 prebeta 4 from 23. January 2008
Отчёт EAC об извлечении, выполненном 13. января 2010, 23:56
Александр Новиков / Вези меня, извозчик
Дисковод: _NEC    CD-RW NR-9300A   Adapter: 4  ID: 0
Режим чтения                 : Достоверность
Использование точного потока : Да
Отключение кэша аудио        : Да
Использование указателей C2  : Нет
Коррекция смещения при чтении                     : 685
Способность читать области Lead-in и Lead-out     : Нет
Заполнение пропущенных сэмплов тишиной            : Да
Удаление блоков с тишиной в начале и конце        : Нет
При вычислениях CRC использовались нулевые сэмплы : Да
Интерфейс                                         : Установленный внешний ASPI-интерфейс
Выходной формат : Внутренние WAV-операции
Формат сэмплов  : 44.100 Гц; 16 бит; стерео
TOC извлечённого CD
     Трек |   Старт  | Длительность | Начальный сектор | Конечный сектор
    ---------------------------------------------------------------------
       1  |  0:00.00 |    5:05.01   |           0      |      22875
       2  |  5:05.01 |    4:51.16   |       22876      |      44716
       3  |  9:56.17 |    4:11.61   |       44717      |      63602
       4  | 14:08.03 |    5:17.19   |       63603      |      87396
       5  | 19:25.22 |    4:11.73   |       87397      |     106294
       6  | 23:37.20 |    3:48.69   |      106295      |     123463
       7  | 27:26.14 |    4:00.58   |      123464      |     141521
       8  | 31:26.72 |    3:47.16   |      141522      |     158562
       9  | 35:14.13 |    3:13.06   |      158563      |     173043
Характеристики диапазона извлечения и сообщения об ошибках
Выбранный диапазон
     Имя файла C:\Documents and Settings\Admin\Мои документы\Александр Новиков - Вези меня, извозчик.wav
     Пиковый уровень 94.6 %
     Качество диапазона 100.0 %
     CRC теста B6561931
     CRC копии B6561931
     Копирование... OK
Ошибок не произошло
AccurateRip: сводка
Трек  1  нет в базе данных
Трек  2  нет в базе данных
Трек  3  нет в базе данных
Трек  4  нет в базе данных
Трек  5  нет в базе данных
Трек  6  нет в базе данных
Трек  7  нет в базе данных
Трек  8  нет в базе данных
Трек  9  нет в базе данных
Ни одного трека нет в базе AccurateRip
Конец отчёта

Отчёт auCDtect Task manager&#58;

Код:
-----------------------
DON'T MODIFY THIS FILE
-----------------------
PERFORMER: auCDtect Task Manager, ver. 1.6.0 RC1 build 1.6.0.1
Copyright (c) 2008-2010 y-soft. All rights reserved
http://y-soft.org
ANALYZER: auCDtect: CD records authenticity detector, version 0.8.2
Copyright (c) 2004 Oleg Berngardt. All rights reserved.
Copyright (c) 2004 Alexander Djourik. All rights reserved.
FILE: Александр Новиков - Вези меня, извозчик.flac
  Size: 247720117 Hash: 8B0C69901B7316BF650511DF146677B7 Accuracy: -m0
  Conclusion: CDDA 99%
  Signature: 3E1CCB0CACC1F6655400C1E2FCCA46CD989C7E91

1993 - Ожерелье Магадана

Треклиcт:
01. Товарищ Генеральный Секретарь!... (4:12)
02. Ожерелье Магадана (3:46)
03. Женский этап (3:38)
04. Юродивый (5:00)
05. Божьи коровки (2:24)
06. Красные и белые (4:25)
07. О названиях городов (3:27)
08. Трактат о дураках (3:43)
09. Родня (3:24)
10. Дом под снос (4:13)
11. Войнушка (3:17)
12. Серые цветы (5:09)
Продолжительноcть: 00:46:38

Отчёт ЕАС&#58;

Код:
Exact Audio Copy V0.99 prebeta 4 from 23. January 2008
Отчёт EAC об извлечении, выполненном 14. января 2010, 22:26
Александр Новиков / Ожерелье Магадана
Дисковод: ASUS    DRW-1814BLT   Adapter: 3  ID: 0
Режим чтения                 : Достоверность
Использование точного потока : Да
Отключение кэша аудио        : Да
Использование указателей C2  : Нет
Коррекция смещения при чтении                     : 6
Способность читать области Lead-in и Lead-out     : Нет
Заполнение пропущенных сэмплов тишиной            : Да
Удаление блоков с тишиной в начале и конце        : Нет
При вычислениях CRC использовались нулевые сэмплы : Да
Интерфейс                                         : Установленный внешний ASPI-интерфейс
Выходной формат : Внутренние WAV-операции
Формат сэмплов  : 44.100 Гц; 16 бит; стерео
TOC извлечённого CD
     Трек |   Старт  | Длительность | Начальный сектор | Конечный сектор
    ---------------------------------------------------------------------
       1  |  0:00.00 |    4:12.17   |           0      |      18916
       2  |  4:12.17 |    3:45.65   |       18917      |      35856
       3  |  7:58.07 |    3:38.20   |       35857      |      52226
       4  | 11:36.27 |    4:59.48   |       52227      |      74699
       5  | 16:36.00 |    2:24.07   |       74700      |      85506
       6  | 19:00.07 |    4:24.50   |       85507      |     105356
       7  | 23:24.57 |    3:27.00   |      105357      |     120881
       8  | 26:51.57 |    3:43.35   |      120882      |     137641
       9  | 30:35.17 |    3:23.53   |      137642      |     152919
      10  | 33:58.70 |    4:13.22   |      152920      |     171916
      11  | 38:12.17 |    3:17.20   |      171917      |     186711
      12  | 41:29.37 |    5:08.63   |      186712      |     209874
Характеристики диапазона извлечения и сообщения об ошибках
Выбранный диапазон
     Имя файла C:\Documents and Settings\Admin\Мои документы\Александр Новиков - Ожерелье Магадана.wav
     Пиковый уровень 100.0 %
     Качество диапазона 100.0 %
     CRC теста CE582C79
     CRC копии CE582C79
     Копирование... OK
Ошибок не произошло
AccurateRip: сводка
Трек  1  нет в базе данных
Трек  2  нет в базе данных
Трек  3  нет в базе данных
Трек  4  нет в базе данных
Трек  5  нет в базе данных
Трек  6  нет в базе данных
Трек  7  нет в базе данных
Трек  8  нет в базе данных
Трек  9  нет в базе данных
Трек 10  нет в базе данных
Трек 11  нет в базе данных
Трек 12  нет в базе данных
Ни одного трека нет в базе AccurateRip
Конец отчёта

Отчёт auCDtect Task manager&#58;

Код:
-----------------------
DON'T MODIFY THIS FILE
-----------------------
PERFORMER: auCDtect Task Manager, ver. 1.6.0 RC1 build 1.6.0.1
Copyright (c) 2008-2010 y-soft. All rights reserved
http://y-soft.org
ANALYZER: auCDtect: CD records authenticity detector, version 0.8.2
Copyright (c) 2004 Oleg Berngardt. All rights reserved.
Copyright (c) 2004 Alexander Djourik. All rights reserved.
FILE: Александр Новиков - Ожерелье Магадана.flac
  Size: 278652112 Hash: 49A422B89A75E36ADDF4A3111A47E89B Accuracy: -m0
  Conclusion: CDDA 100%
  Signature: 56CD50EAC43F52EC81296374ECFEDD5936391C3D

1995 - Городской роман

Треклиcт:
01. Во дворе (6:38)
02. На прощанье (4:18)
03. Шлюха (4:05)
04. Катилась по асфальту... (5:08)
05. Айседора (4:43)
06. Троица (3:47)
07. Рояль (4:12)
08. Пьяный (3:39)
09. Кино-кино... (3:28)
10. В Екатеринбурге (2:56)
11. На Восточной улице (3:29)
12. Мариночка (3:30)
13. День рожденья (3:09)
14. Такси (3:13)
15. Городской роман (3:58)
Продолжительноcть: 01:00:13

Отчёт ЕАС&#58;

Код:
Exact Audio Copy V0.99 prebeta 4 from 23. January 2008
Отчёт EAC об извлечении, выполненном 14. января 2010, 23:22
Александр Новиков / Городской Роман
Дисковод: ASUS    DRW-1814BLT   Adapter: 3  ID: 0
Режим чтения                 : Достоверность
Использование точного потока : Да
Отключение кэша аудио        : Да
Использование указателей C2  : Нет
Коррекция смещения при чтении                     : 6
Способность читать области Lead-in и Lead-out     : Нет
Заполнение пропущенных сэмплов тишиной            : Да
Удаление блоков с тишиной в начале и конце        : Нет
При вычислениях CRC использовались нулевые сэмплы : Да
Интерфейс                                         : Установленный внешний ASPI-интерфейс
Выходной формат : Внутренние WAV-операции
Формат сэмплов  : 44.100 Гц; 16 бит; стерео
TOC извлечённого CD
     Трек |   Старт  | Длительность | Начальный сектор | Конечный сектор
    ---------------------------------------------------------------------
       1  |  0:00.00 |    6:38.07   |           0      |      29856
       2  |  6:38.07 |    4:18.15   |       29857      |      49221
       3  | 10:56.22 |    4:04.65   |       49222      |      67586
       4  | 15:01.12 |    5:07.63   |       67587      |      90674
       5  | 20:09.00 |    4:43.17   |       90675      |     111916
       6  | 24:52.17 |    3:46.68   |      111917      |     128934
       7  | 28:39.10 |    4:12.15   |      128935      |     147849
       8  | 32:51.25 |    3:39.00   |      147850      |     164274
       9  | 36:30.25 |    3:28.00   |      164275      |     179874
      10  | 39:58.25 |    2:55.62   |      179875      |     193061
      11  | 42:54.12 |    3:28.63   |      193062      |     208724
      12  | 46:23.00 |    3:30.10   |      208725      |     224484
      13  | 49:53.10 |    3:09.15   |      224485      |     238674
      14  | 53:02.25 |    3:12.42   |      238675      |     253116
      15  | 56:14.67 |    3:57.58   |      253117      |     270949
Характеристики диапазона извлечения и сообщения об ошибках
Выбранный диапазон
     Имя файла C:\Documents and Settings\Admin\Мои документы\Александр Новиков - Городской Роман.wav
     Пиковый уровень 100.0 %
     Качество диапазона 100.0 %
     CRC теста 00415FAC
     CRC копии 00415FAC
     Копирование... OK
Ошибок не произошло
AccurateRip: сводка
Трек  1  нет в базе данных
Трек  2  нет в базе данных
Трек  3  нет в базе данных
Трек  4  нет в базе данных
Трек  5  нет в базе данных
Трек  6  нет в базе данных
Трек  7  нет в базе данных
Трек  8  нет в базе данных
Трек  9  нет в базе данных
Трек 10  нет в базе данных
Трек 11  нет в базе данных
Трек 12  нет в базе данных
Трек 13  нет в базе данных
Трек 14  нет в базе данных
Трек 15  нет в базе данных
Ни одного трека нет в базе AccurateRip
Конец отчёта

Отчёт auCDtect Task manager&#58;

Код:
-----------------------
DON'T MODIFY THIS FILE
-----------------------
PERFORMER: auCDtect Task Manager, ver. 1.6.0 RC1 build 1.6.0.1
Copyright (c) 2008-2010 y-soft. All rights reserved
http://y-soft.org
ANALYZER: auCDtect: CD records authenticity detector, version 0.8.2
Copyright (c) 2004 Oleg Berngardt. All rights reserved.
Copyright (c) 2004 Alexander Djourik. All rights reserved.
FILE: Александр Новиков - Городской Роман.flac
  Size: 399200491 Hash: 9FCBADCF603FCC5E609A284DBA199DC9 Accuracy: -m0
  Conclusion: CDDA 100%
  Signature: 275FD86ABB1F48902DA029F5706F706E5CAB1D5C

1995 - Концерт в филармонии г. Екатеринбург (I-ое отделение&#41;

Треклиcт:
01. Вступление (0:50)
02. В Екатеринбурге (3:00)
03. На Восточной улице (3:27)
04. Дом под снос (4:08)
05. Город древний (4:37)
06. Помнишь, девочка?.. (3:46)
07. Вези меня, извозчик (4:15)
08. Вы уезжаете (3:19)
09. Катилась по асфальту (3:18)
10. Айседора (4:36)
11. Пускай ты выпита другим (4:05)
12. Батум (4:11)
13. Пой же, пой... (4:49)
14. Похороны Абрама (3:10)
15. Вано, прочти (2:47)
16. Записки (3:25)
17. Симфонии двора (3:52)
18. Воробьи (3:40)
19. Это не лето (4:15)
Продолжительноcть: 01:09:30

Отчёт ЕАС&#58;

Код:
Exact Audio Copy V0.99 prebeta 4 from 23. January 2008
Отчёт EAC об извлечении, выполненном 16. января 2010, 11:13
Александр Новиков / Концерт в филармонии г. Екатеринбург (I-ое отделение)
Дисковод: ASUS    DRW-1814BLT   Adapter: 3  ID: 0
Режим чтения                 : Достоверность
Использование точного потока : Да
Отключение кэша аудио        : Да
Использование указателей C2  : Нет
Коррекция смещения при чтении                     : 6
Способность читать области Lead-in и Lead-out     : Нет
Заполнение пропущенных сэмплов тишиной            : Да
Удаление блоков с тишиной в начале и конце        : Нет
При вычислениях CRC использовались нулевые сэмплы : Да
Интерфейс                                         : Установленный внешний ASPI-интерфейс
Выходной формат : Внутренние WAV-операции
Формат сэмплов  : 44.100 Гц; 16 бит; стерео
TOC извлечённого CD
     Трек |   Старт  | Длительность | Начальный сектор | Конечный сектор
    ---------------------------------------------------------------------
       1  |  0:00.00 |    0:49.43   |           0      |       3717
       2  |  0:49.43 |    3:00.04   |        3718      |      17221
       3  |  3:49.47 |    3:26.40   |       17222      |      32711
       4  |  7:16.12 |    4:07.52   |       32712      |      51288
       5  | 11:23.64 |    4:37.25   |       51289      |      72088
       6  | 16:01.14 |    3:46.07   |       72089      |      89045
       7  | 19:47.21 |    4:15.32   |       89046      |     108202
       8  | 24:02.53 |    3:18.54   |      108203      |     123106
       9  | 27:21.32 |    3:18.30   |      123107      |     137986
      10  | 30:39.62 |    4:36.24   |      137987      |     158710
      11  | 35:16.11 |    4:04.44   |      158711      |     177054
      12  | 39:20.55 |    4:10.53   |      177055      |     195857
      13  | 43:31.33 |    4:49.14   |      195858      |     217546
      14  | 48:20.47 |    3:10.26   |      217547      |     231822
      15  | 51:30.73 |    2:46.49   |      231823      |     244321
      16  | 54:17.47 |    3:25.37   |      244322      |     259733
      17  | 57:43.09 |    3:51.58   |      259734      |     277116
      18  | 61:34.67 |    3:39.57   |      277117      |     293598
      19  | 65:14.49 |    4:15.16   |      293599      |     312739
Характеристики диапазона извлечения и сообщения об ошибках
Выбранный диапазон
     Имя файла C:\Documents and Settings\Admin\Мои документы\Александр Новиков - Концерт в филармонии г. Екатеринбург (I-ое отделение).wav
     Пиковый уровень 99.9 %
     Качество диапазона 100.0 %
     CRC теста E29AC774
     CRC копии E29AC774
     Копирование... OK
Ошибок не произошло
AccurateRip: сводка
Трек  1  нет в базе данных
Трек  2  нет в базе данных
Трек  3  нет в базе данных
Трек  4  нет в базе данных
Трек  5  нет в базе данных
Трек  6  нет в базе данных
Трек  7  нет в базе данных
Трек  8  нет в базе данных
Трек  9  нет в базе данных
Трек 10  нет в базе данных
Трек 11  нет в базе данных
Трек 12  нет в базе данных
Трек 13  нет в базе данных
Трек 14  нет в базе данных
Трек 15  нет в базе данных
Трек 16  нет в базе данных
Трек 17  нет в базе данных
Трек 18  нет в базе данных
Трек 19  нет в базе данных
Ни одного трека нет в базе AccurateRip
Конец отчёта

Отчёт auCDtect Task manager&#58;

Код:
-----------------------
DON'T MODIFY THIS FILE
-----------------------
PERFORMER: auCDtect Task Manager, ver. 1.6.0 RC1 build 1.6.0.1
Copyright (c) 2008-2010 y-soft. All rights reserved
http://y-soft.org
ANALYZER: auCDtect: CD records authenticity detector, version 0.8.2
Copyright (c) 2004 Oleg Berngardt. All rights reserved.
Copyright (c) 2004 Alexander Djourik. All rights reserved.
FILE: Александр Новиков - Концерт в филармонии г. Екатеринбург (I-ое отделение).flac
  Size: 440823404 Hash: 0359A51138055724496712D6A0FB3D42 Accuracy: -m0
  Conclusion: CDDA 99%
  Signature: D567CFB5D79CC7C5D186EEACE5FB42250828B0BE

1995 - Концерт в филармонии г. Екатеринбург (II-ое отделение&#41;

[img=right]http://nnmclub.ch/forum/image.php?link=http://s019....d1ea08.jpg[/img]
Треклиcт:
01. Белый голубь (3:54)
02. Побрякушка (2:41)
03. Троица (3:33)
04. День рождения (2:57)
05. Пароходишко (3:43)
06. А музыка одна (2:57)
07. Уличная красотка (3:23)
08. Шансоньетка (4:38)
Продолжительноcть: 00:27:46

Отчёт ЕАС&#58;

Код:
Exact Audio Copy V0.99 prebeta 4 from 23. January 2008
Отчёт EAC об извлечении, выполненном 16. января 2010, 11:33
Александр Новиков / Концерт в филармонии г. Екатеринбург (II-ое отделение)
Дисковод: ASUS    DRW-1814BLT   Adapter: 3  ID: 0
Режим чтения                 : Достоверность
Использование точного потока : Да
Отключение кэша аудио        : Да
Использование указателей C2  : Нет
Коррекция смещения при чтении                     : 6
Способность читать области Lead-in и Lead-out     : Нет
Заполнение пропущенных сэмплов тишиной            : Да
Удаление блоков с тишиной в начале и конце        : Нет
При вычислениях CRC использовались нулевые сэмплы : Да
Интерфейс                                         : Установленный внешний ASPI-интерфейс
Выходной формат : Внутренние WAV-операции
Формат сэмплов  : 44.100 Гц; 16 бит; стерео
TOC извлечённого CD
     Трек |   Старт  | Длительность | Начальный сектор | Конечный сектор
    ---------------------------------------------------------------------
       1  |  0:00.00 |    3:54.12   |           0      |      17561
       2  |  3:54.12 |    2:41.37   |       17562      |      29673
       3  |  6:35.49 |    3:32.57   |       29674      |      45630
       4  | 10:08.31 |    2:57.29   |       45631      |      58934
       5  | 13:05.60 |    3:42.55   |       58935      |      75639
       6  | 16:48.40 |    2:56.55   |       75640      |      88894
       7  | 19:45.20 |    3:22.61   |       88895      |     104105
       8  | 23:08.06 |    4:37.72   |      104106      |     124952
Характеристики диапазона извлечения и сообщения об ошибках
Выбранный диапазон
     Имя файла C:\Documents and Settings\Admin\Мои документы\Александр Новиков - Концерт в филармонии г. Екатеринбург (II-ое отделение).wav
     Пиковый уровень 100.0 %
     Качество диапазона 100.0 %
     CRC теста 7BB543AA
     CRC копии 7BB543AA
     Копирование... OK
Ошибок не произошло
AccurateRip: сводка
Трек  1  нет в базе данных
Трек  2  нет в базе данных
Трек  3  нет в базе данных
Трек  4  нет в базе данных
Трек  5  нет в базе данных
Трек  6  нет в базе данных
Трек  7  нет в базе данных
Трек  8  нет в базе данных
Ни одного трека нет в базе AccurateRip
Конец отчёта

Отчёт auCDtect Task manager&#58;

Код:
-----------------------
DON'T MODIFY THIS FILE
-----------------------
PERFORMER: auCDtect Task Manager, ver. 1.6.0 RC1 build 1.6.0.1
Copyright (c) 2008-2010 y-soft. All rights reserved
http://y-soft.org
ANALYZER: auCDtect: CD records authenticity detector, version 0.8.2
Copyright (c) 2004 Oleg Berngardt. All rights reserved.
Copyright (c) 2004 Alexander Djourik. All rights reserved.
FILE: Александр Новиков - Концерт в филармонии г. Екатеринбург (II-ое отделение).flac
  Size: 170034385 Hash: 22FE099BBD36F8C081F116D9BE58F241 Accuracy: -m0
  Conclusion: CDDA 100%
  Signature: F900E088BB9ECDEB36FA144679C8E1C6515E31DA

1995 - Через 10 лет (часть I&#41;

Треклиcт:
01. В Екатеринбурге (3:01)
02. На Восточной улице (3:25)
03. Ожерелье Магадана (3:50)
04. Женский этап (3:19)
05. Красные и белые (4:24)
06. Дом под снос (4:28)
07. Город древний (4:09)
08. Я вышел родом из еврейского квартала (3:48)
09. Улица Восточная (4:45)
10. Помнишь, девочка?.. (4:04)
11. Вы уезжаете (4:06)
12. Катилась по асфальту... (5:19)
13. День рожденья (3:15)
14. Вано, послушай... (3:12)
15. Похороны Абрама (3:57)
Продолжительноcть: 00:59:00

Отчёт ЕАС&#58;

Код:
Exact Audio Copy V0.99 prebeta 4 from 23. January 2008
Отчёт EAC об извлечении, выполненном 15. января 2010, 0:14
Александр Новиков / Через 10 лет (часть 1)
Дисковод: ASUS    DRW-1814BLT   Adapter: 3  ID: 0
Режим чтения                 : Достоверность
Использование точного потока : Да
Отключение кэша аудио        : Да
Использование указателей C2  : Нет
Коррекция смещения при чтении                     : 6
Способность читать области Lead-in и Lead-out     : Нет
Заполнение пропущенных сэмплов тишиной            : Да
Удаление блоков с тишиной в начале и конце        : Нет
При вычислениях CRC использовались нулевые сэмплы : Да
Интерфейс                                         : Установленный внешний ASPI-интерфейс
Выходной формат : Внутренние WAV-операции
Формат сэмплов  : 44.100 Гц; 16 бит; стерео
TOC извлечённого CD
     Трек |   Старт  | Длительность | Начальный сектор | Конечный сектор
    ---------------------------------------------------------------------
       1  |  0:00.00 |    3:00.60   |           0      |      13559
       2  |  3:00.60 |    3:24.57   |       13560      |      28916
       3  |  6:25.42 |    3:49.48   |       28917      |      46139
       4  | 10:15.15 |    3:19.00   |       46140      |      61064
       5  | 13:34.15 |    4:23.41   |       61065      |      80830
       6  | 17:57.56 |    4:28.18   |       80831      |     100948
       7  | 22:25.74 |    4:08.49   |      100949      |     119597
       8  | 26:34.48 |    3:48.09   |      119598      |     136706
       9  | 30:22.57 |    4:44.63   |      136707      |     158069
      10  | 35:07.45 |    4:03.66   |      158070      |     176360
      11  | 39:11.36 |    4:05.67   |      176361      |     194802
      12  | 43:17.28 |    5:19.17   |      194803      |     218744
      13  | 48:36.45 |    3:14.54   |      218745      |     233348
      14  | 51:51.24 |    3:11.51   |      233349      |     247724
      15  | 55:03.00 |    3:57.15   |      247725      |     265514
Характеристики диапазона извлечения и сообщения об ошибках
Выбранный диапазон
     Имя файла C:\Documents and Settings\Admin\Мои документы\Александр Новиков - Через 10 лет (часть 1).wav
     Пиковый уровень 97.7 %
     Качество диапазона 99.9 %
     CRC теста 8A6756F7
     CRC копии 8A6756F7
     Копирование... OK
Ошибок не произошло
AccurateRip: сводка
Трек  1  нет в базе данных
Трек  2  нет в базе данных
Трек  3  нет в базе данных
Трек  4  нет в базе данных
Трек  5  нет в базе данных
Трек  6  нет в базе данных
Трек  7  нет в базе данных
Трек  8  нет в базе данных
Трек  9  нет в базе данных
Трек 10  нет в базе данных
Трек 11  нет в базе данных
Трек 12  нет в базе данных
Трек 13  нет в базе данных
Трек 14  нет в базе данных
Трек 15  нет в базе данных
Ни одного трека нет в базе AccurateRip
Конец отчёта

Отчёт auCDtect Task manager&#58;

Код:
-----------------------
DON'T MODIFY THIS FILE
-----------------------
PERFORMER: auCDtect Task Manager, ver. 1.6.0 RC1 build 1.6.0.1
Copyright (c) 2008-2010 y-soft. All rights reserved
http://y-soft.org
ANALYZER: auCDtect: CD records authenticity detector, version 0.8.2
Copyright (c) 2004 Oleg Berngardt. All rights reserved.
Copyright (c) 2004 Alexander Djourik. All rights reserved.
FILE: Александр Новиков - Через 10 лет (часть 1).flac
  Size: 319728419 Hash: D6D63641752981726FEDF97536F44450 Accuracy: -m0
  Conclusion: CDDA 87%
  Signature: DA525C1B536E35E79355F2D946870C14FE1B7C94

1995 - Через 10 лет (часть II&#41;

Треклиcт:
01. Вези меня, извозчик (оркестровая версия) (5:01)
02. Уличная красотка (3:39)
03. Безработный музыкант (3:44)
04. Содержанка (3:52)
05. На прощанье (4:19)
06. Айседора (4:41)
07. Белый голубь (4:12)
08. Женщина ушла (4:31)
09. Золотая Рыба (4:08)
10. Шансоньетка (4:21)
11. Девочка-иголка (3:41)
12. Сватовство жигана (4:22)
13. Косой (3:14)
14. Роза (5:16)
15. Вези меня, извозчик (5:42)
Продолжительноcть: 01:04:42

Отчёт ЕАС&#58;

Код:
Exact Audio Copy V0.99 prebeta 4 from 23. January 2008
Отчёт EAC об извлечении, выполненном 15. января 2010, 0:48
Александр Новиков / Через 10 лет (часть 2)
Дисковод: ASUS    DRW-1814BLT   Adapter: 3  ID: 0
Режим чтения                 : Достоверность
Использование точного потока : Да
Отключение кэша аудио        : Да
Использование указателей C2  : Нет
Коррекция смещения при чтении                     : 6
Способность читать области Lead-in и Lead-out     : Нет
Заполнение пропущенных сэмплов тишиной            : Да
Удаление блоков с тишиной в начале и конце        : Нет
При вычислениях CRC использовались нулевые сэмплы : Да
Интерфейс                                         : Установленный внешний ASPI-интерфейс
Выходной формат : Внутренние WAV-операции
Формат сэмплов  : 44.100 Гц; 16 бит; стерео
TOC извлечённого CD
     Трек |   Старт  | Длительность | Начальный сектор | Конечный сектор
    ---------------------------------------------------------------------
       1  |  0:00.00 |    5:01.14   |           0      |      22588
       2  |  5:01.14 |    3:39.33   |       22589      |      39046
       3  |  8:40.47 |    3:43.42   |       39047      |      55813
       4  | 12:24.14 |    3:51.61   |       55814      |      73199
       5  | 16:16.00 |    4:19.15   |       73200      |      92639
       6  | 20:35.15 |    4:40.44   |       92640      |     113683
       7  | 25:15.59 |    4:12.00   |      113684      |     132583
       8  | 29:27.59 |    4:30.51   |      132584      |     152884
       9  | 33:58.35 |    4:07.42   |      152885      |     171451
      10  | 38:06.02 |    4:20.74   |      171452      |     191025
      11  | 42:27.01 |    3:40.49   |      191026      |     207574
      12  | 46:07.50 |    4:22.07   |      207575      |     227231
      13  | 50:29.57 |    3:13.59   |      227232      |     241765
      14  | 53:43.41 |    5:15.70   |      241766      |     265460
      15  | 58:59.36 |    5:42.30   |      265461      |     291140
Характеристики диапазона извлечения и сообщения об ошибках
Выбранный диапазон
     Имя файла C:\Documents and Settings\Admin\Мои документы\Александр Новиков - Через 10 лет (часть 2).wav
     Пиковый уровень 100.0 %
     Качество диапазона 100.0 %
     CRC теста 2DCC4A93
     CRC копии 2DCC4A93
     Копирование... OK
Ошибок не произошло
AccurateRip: сводка
Трек  1  нет в базе данных
Трек  2  нет в базе данных
Трек  3  нет в базе данных
Трек  4  нет в базе данных
Трек  5  нет в базе данных
Трек  6  нет в базе данных
Трек  7  нет в базе данных
Трек  8  нет в базе данных
Трек  9  нет в базе данных
Трек 10  нет в базе данных
Трек 11  нет в базе данных
Трек 12  нет в базе данных
Трек 13  нет в базе данных
Трек 14  нет в базе данных
Трек 15  нет в базе данных
Ни одного трека нет в базе AccurateRip
Конец отчёта

Отчёт auCDtect Task manager&#58;

Код:
-----------------------
DON'T MODIFY THIS FILE
-----------------------
PERFORMER: auCDtect Task Manager, ver. 1.6.0 RC1 build 1.6.0.1
Copyright (c) 2008-2010 y-soft. All rights reserved
http://y-soft.org
ANALYZER: auCDtect: CD records authenticity detector, version 0.8.2
Copyright (c) 2004 Oleg Berngardt. All rights reserved.
Copyright (c) 2004 Alexander Djourik. All rights reserved.
FILE: Александр Новиков - Через 10 лет (часть 2).flac
  Size: 370285710 Hash: D0246CA3B26D375FE187158048616DE4 Accuracy: -m0
  Conclusion: CDDA 100%
  Signature: 9E113ACF4206B5AE07CFA8D6AC5DCAFA01511E8C

1995 - Шансоньетка

Треклиcт:
01. Шансоньетка (4:30)
02. Уличная красотка (3:43)
03. Безработный музыкант (3:27)
04. Девочка-иголка (3:55)
05. Женщина ушла (4:38)
06. Белый голубь (4:13)
07. Содержанка (3:36)
08. Золотая Рыба (3:48)
09. Она-не моя... (4:39)
10. Городской роман (3:29)
Продолжительноcть: 00:39:57

Отчёт ЕАС&#58;

Код:
Exact Audio Copy V0.99 prebeta 4 from 23. January 2008
Отчёт EAC об извлечении, выполненном 14. января 2010, 23:46
Александр Новиков / Шансоньетка
Дисковод: ASUS    DRW-1814BLT   Adapter: 3  ID: 0
Режим чтения                 : Достоверность
Использование точного потока : Да
Отключение кэша аудио        : Да
Использование указателей C2  : Нет
Коррекция смещения при чтении                     : 6
Способность читать области Lead-in и Lead-out     : Нет
Заполнение пропущенных сэмплов тишиной            : Да
Удаление блоков с тишиной в начале и конце        : Нет
При вычислениях CRC использовались нулевые сэмплы : Да
Интерфейс                                         : Установленный внешний ASPI-интерфейс
Выходной формат : Внутренние WAV-операции
Формат сэмплов  : 44.100 Гц; 16 бит; стерео
TOC извлечённого CD
     Трек |   Старт  | Длительность | Начальный сектор | Конечный сектор
    ---------------------------------------------------------------------
       1  |  0:00.00 |    4:29.40   |           0      |      20214
       2  |  4:29.40 |    3:43.05   |       20215      |      36944
       3  |  8:12.45 |    3:26.43   |       36945      |      52437
       4  | 11:39.13 |    3:55.01   |       52438      |      70063
       5  | 15:34.14 |    4:38.00   |       70064      |      90913
       6  | 20:12.14 |    4:13.12   |       90914      |     109900
       7  | 24:25.26 |    3:35.46   |      109901      |     126071
       8  | 28:00.72 |    3:47.63   |      126072      |     143159
       9  | 31:48.60 |    4:39.35   |      143160      |     164119
      10  | 36:28.20 |    3:29.05   |      164120      |     179799
Характеристики диапазона извлечения и сообщения об ошибках
Выбранный диапазон
     Имя файла C:\Documents and Settings\Admin\Мои документы\Александр Новиков - Шансоньетка.wav
     Пиковый уровень 88.4 %
     Качество диапазона 100.0 %
     CRC теста DADF6E2A
     CRC копии DADF6E2A
     Копирование... OK
Ошибок не произошло
AccurateRip: сводка
Трек  1  нет в базе данных
Трек  2  нет в базе данных
Трек  3  нет в базе данных
Трек  4  нет в базе данных
Трек  5  нет в базе данных
Трек  6  нет в базе данных
Трек  7  нет в базе данных
Трек  8  нет в базе данных
Трек  9  нет в базе данных
Трек 10  нет в базе данных
Ни одного трека нет в базе AccurateRip
Конец отчёта

Отчёт auCDtect Task manager&#58;

Код:
-----------------------
DON'T MODIFY THIS FILE
-----------------------
PERFORMER: auCDtect Task Manager, ver. 1.6.0 RC1 build 1.6.0.1
Copyright (c) 2008-2010 y-soft. All rights reserved
http://y-soft.org
ANALYZER: auCDtect: CD records authenticity detector, version 0.8.2
Copyright (c) 2004 Oleg Berngardt. All rights reserved.
Copyright (c) 2004 Alexander Djourik. All rights reserved.
FILE: Александр Новиков - Шансоньетка.flac
  Size: 263457385 Hash: 46006466692AE796AA603037C09EFA15 Accuracy: -m0
  Conclusion: CDDA 99%
  Signature: E584EC8BF05908DD7DE3A4DB200DCCCAF892E712

1996 - В захолустном ресторане

Треклиcт:
01. В захолустном ресторане (4:26)
02. Песнь о честном менте (3:25)
03. Сватовство жигана (4:40)
04. Косой (3:22)
05. О козле и экстрасенсах (4:01)
06. Роза (4:08)
07. О профессии древней (3:51)
08. Безалкогольная свадьба (4:48)
09. Веня-корешок (3:36)
10. Галёрка, ша!.. (2:58)
11. Ах, Одесса!.. (3:42)
12. Поймали вора! (3:00)
13. О женском атлетизме (2:33)
Продолжительноcть: 00:48:28

Отчёт ЕАС&#58;

Код:
Exact Audio Copy V0.99 prebeta 4 from 23. January 2008
Отчёт EAC об извлечении, выполненном 15. января 2010, 19:44
Aлександр Новиков / В Захолустном Ресторане
Дисковод: ASUS    DRW-1814BLT   Adapter: 3  ID: 0
Режим чтения                 : Достоверность
Использование точного потока : Да
Отключение кэша аудио        : Да
Использование указателей C2  : Нет
Коррекция смещения при чтении                     : 6
Способность читать области Lead-in и Lead-out     : Нет
Заполнение пропущенных сэмплов тишиной            : Да
Удаление блоков с тишиной в начале и конце        : Нет
При вычислениях CRC использовались нулевые сэмплы : Да
Интерфейс                                         : Установленный внешний ASPI-интерфейс
Выходной формат : Внутренние WAV-операции
Формат сэмплов  : 44.100 Гц; 16 бит; стерео
TOC извлечённого CD
     Трек |   Старт  | Длительность | Начальный сектор | Конечный сектор
    ---------------------------------------------------------------------
       1  |  0:00.00 |    4:26.07   |           0      |      19956
       2  |  4:26.07 |    3:24.48   |       19957      |      35304
       3  |  7:50.55 |    4:39.50   |       35305      |      56279
       4  | 12:30.30 |    3:21.62   |       56280      |      71416
       5  | 15:52.17 |    4:00.53   |       71417      |      89469
       6  | 19:52.70 |    4:07.40   |       89470      |     108034
       7  | 24:00.35 |    3:51.00   |      108035      |     125359
       8  | 27:51.35 |    4:47.57   |      125360      |     146941
       9  | 32:39.17 |    3:35.48   |      146942      |     163114
      10  | 36:14.65 |    2:58.00   |      163115      |     176464
      11  | 39:12.65 |    3:42.07   |      176465      |     193121
      12  | 42:54.72 |    3:00.25   |      193122      |     206646
      13  | 45:55.22 |    2:33.03   |      206647      |     218124
Характеристики диапазона извлечения и сообщения об ошибках
Выбранный диапазон
     Имя файла C:\Documents and Settings\Admin\Мои документы\Aлександр Новиков - В Захолустном Ресторане.wav
     Пиковый уровень 100.0 %
     Качество диапазона 100.0 %
     CRC теста 9B91BF37
     CRC копии 9B91BF37
     Копирование... OK
Ошибок не произошло
AccurateRip: сводка
Трек  1  нет в базе данных
Трек  2  нет в базе данных
Трек  3  нет в базе данных
Трек  4  нет в базе данных
Трек  5  нет в базе данных
Трек  6  нет в базе данных
Трек  7  нет в базе данных
Трек  8  нет в базе данных
Трек  9  нет в базе данных
Трек 10  нет в базе данных
Трек 11  нет в базе данных
Трек 12  нет в базе данных
Трек 13  нет в базе данных
Ни одного трека нет в базе AccurateRip
Конец отчёта

Отчёт auCDtect Task manager&#58;

Код:
-----------------------
DON'T MODIFY THIS FILE
-----------------------
PERFORMER: auCDtect Task Manager, ver. 1.6.0 RC1 build 1.6.0.1
Copyright (c) 2008-2010 y-soft. All rights reserved
http://y-soft.org
ANALYZER: auCDtect: CD records authenticity detector, version 0.8.2
Copyright (c) 2004 Oleg Berngardt. All rights reserved.
Copyright (c) 2004 Alexander Djourik. All rights reserved.
FILE: Aлександр Новиков - В Захолустном Ресторане.flac
  Size: 356800172 Hash: 5404B29D00C47B2BE9BB1C716819C635 Accuracy: -m0
  Conclusion: CDDA 100%
  Signature: B39517AB39E9ECB6322EBAC39FDC5BCFB1BD4307

1996 - С красавицей в обнимку

[img=right]http://nnmclub.ch/forum/image.php?link=http://s52.r...058730.jpg[/img]
Треклиcт:
01. С красавицей в обнимку (2:36)
02. Когда мне было 20 лет (4:08)
03. Я так хотел... (5:06)
04. Танцуйте, девочки!.. (4:20)
05. Пять минут ходьбы (3:38)
06. Побрякушка (2:41)
07. Медсестричка (3:18)
08. Белый параходик (3:45)
09. Это не лето... (4:18)
10. Я вышел из лагеря (3:20)
11. Вано, прочти... (2:56)
12. Парикмахер (2:42)
Продолжительноcть: 00:42:48

Отчёт ЕАС&#58;

Код:
Exact Audio Copy V0.99 prebeta 4 from 23. January 2008
Отчёт EAC об извлечении, выполненном 15. января 2010, 7:15
Александр Новиков / С красавицей в обнимку
Дисковод: ASUS    DRW-1814BLT   Adapter: 3  ID: 0
Режим чтения                 : Достоверность
Использование точного потока : Да
Отключение кэша аудио        : Да
Использование указателей C2  : Нет
Коррекция смещения при чтении                     : 6
Способность читать области Lead-in и Lead-out     : Нет
Заполнение пропущенных сэмплов тишиной            : Да
Удаление блоков с тишиной в начале и конце        : Нет
При вычислениях CRC использовались нулевые сэмплы : Да
Интерфейс                                         : Установленный внешний ASPI-интерфейс
Выходной формат : Внутренние WAV-операции
Формат сэмплов  : 44.100 Гц; 16 бит; стерео
TOC извлечённого CD
     Трек |   Старт  | Длительность | Начальный сектор | Конечный сектор
    ---------------------------------------------------------------------
       1  |  0:00.00 |    2:35.55   |           0      |      11679
       2  |  2:35.55 |    4:07.61   |       11680      |      30265
       3  |  6:43.41 |    5:06.04   |       30266      |      53219
       4  | 11:49.45 |    4:20.01   |       53220      |      72720
       5  | 16:09.46 |    3:38.31   |       72721      |      89101
       6  | 19:48.02 |    2:41.03   |       89102      |     101179
       7  | 22:29.05 |    3:17.63   |      101180      |     116017
       8  | 25:46.68 |    3:45.14   |      116018      |     132906
       9  | 29:32.07 |    4:17.70   |      132907      |     152251
      10  | 33:50.02 |    3:19.70   |      152252      |     167246
      11  | 37:09.72 |    2:56.23   |      167247      |     180469
      12  | 40:06.20 |    2:41.38   |      180470      |     192582
Характеристики диапазона извлечения и сообщения об ошибках
Выбранный диапазон
     Имя файла C:\Documents and Settings\Admin\Мои документы\Александр Новиков - С красавицей в обнимку.wav
     Пиковый уровень 76.1 %
     Качество диапазона 100.0 %
     CRC теста 72ACE29E
     CRC копии 72ACE29E
     Копирование... OK
Ошибок не произошло
AccurateRip: сводка
Трек  1  нет в базе данных
Трек  2  нет в базе данных
Трек  3  нет в базе данных
Трек  4  нет в базе данных
Трек  5  нет в базе данных
Трек  6  нет в базе данных
Трек  7  нет в базе данных
Трек  8  нет в базе данных
Трек  9  нет в базе данных
Трек 10  нет в базе данных
Трек 11  нет в базе данных
Трек 12  нет в базе данных
Ни одного трека нет в базе AccurateRip
Конец отчёта

Отчёт auCDtect Task manager&#58;

Код:
-----------------------
DON'T MODIFY THIS FILE
-----------------------
PERFORMER: auCDtect Task Manager, ver. 1.6.0 RC1 build 1.6.0.1
Copyright (c) 2008-2010 y-soft. All rights reserved
http://y-soft.org
ANALYZER: auCDtect: CD records authenticity detector, version 0.8.2
Copyright (c) 2004 Oleg Berngardt. All rights reserved.
Copyright (c) 2004 Alexander Djourik. All rights reserved.
FILE: Александр Новиков - С красавицей в обнимку.flac
  Size: 260055375 Hash: 3434168E18060C9F3CCB09047E2937F3 Accuracy: -m0
  Conclusion: CDDA 100%
  Signature: 74E9348E01545DC1390EC1F6FC10D1E6C3129E93

1997 - Записки уголовного барда

[img=right]http://nnmclub.ch/forum/image.php?link=http://s012....c99227.jpg[/img]
Треклиcт:
01. Записки (3:33)
02. Воробьи (4:08)
03. Послушаем магнитофон (3:19)
04. Симфония двора (4:04)
05. Чайная роза (2:52)
06. Друг мой Колька (3:27)
07. А на нарах... (3:52)
08. Персона вне закона (3:28)
09. Каторжанские байки (3:10)
10. Полудурок (2:44)
11. Шплинт (3:37)
12. Вальс под фанфары (2:47)
Продолжительноcть: 00:41:00

Отчёт ЕАС&#58;

Код:
Exact Audio Copy V0.99 prebeta 4 from 23. January 2008
Отчёт EAC об извлечении, выполненном 15. января 2010, 20:42
Александр Новиков / Записки уголовного барда
Дисковод: ASUS    DRW-1814BLT   Adapter: 3  ID: 0
Режим чтения                 : Достоверность
Использование точного потока : Да
Отключение кэша аудио        : Да
Использование указателей C2  : Нет
Коррекция смещения при чтении                     : 6
Способность читать области Lead-in и Lead-out     : Нет
Заполнение пропущенных сэмплов тишиной            : Да
Удаление блоков с тишиной в начале и конце        : Нет
При вычислениях CRC использовались нулевые сэмплы : Да
Интерфейс                                         : Установленный внешний ASPI-интерфейс
Выходной формат : Внутренние WAV-операции
Формат сэмплов  : 44.100 Гц; 16 бит; стерео
TOC извлечённого CD
     Трек |   Старт  | Длительность | Начальный сектор | Конечный сектор
    ---------------------------------------------------------------------
       1  |  0:00.00 |    3:32.57   |           0      |      15956
       2  |  3:32.57 |    4:07.63   |       15957      |      34544
       3  |  7:40.45 |    3:18.53   |       34545      |      49447
       4  | 10:59.23 |    4:04.11   |       49448      |      67758
       5  | 15:03.34 |    2:51.43   |       67759      |      80626
       6  | 17:55.02 |    3:27.08   |       80627      |      96159
       7  | 21:22.10 |    3:52.19   |       96160      |     113578
       8  | 25:14.29 |    3:28.01   |      113579      |     129179
       9  | 28:42.30 |    3:09.61   |      129180      |     143415
      10  | 31:52.16 |    2:43.53   |      143416      |     155693
      11  | 34:35.69 |    3:36.68   |      155694      |     171961
      12  | 38:12.62 |    2:47.13   |      171962      |     184499
Характеристики диапазона извлечения и сообщения об ошибках
Выбранный диапазон
     Имя файла C:\Documents and Settings\Admin\Мои документы\Александр Новиков - Записки уголовного барда.wav
     Пиковый уровень 99.7 %
     Качество диапазона 100.0 %
     CRC теста D331E7DE
     CRC копии D331E7DE
     Копирование... OK
Ошибок не произошло
AccurateRip: сводка
Трек  1  нет в базе данных
Трек  2  нет в базе данных
Трек  3  нет в базе данных
Трек  4  нет в базе данных
Трек  5  нет в базе данных
Трек  6  нет в базе данных
Трек  7  нет в базе данных
Трек  8  нет в базе данных
Трек  9  нет в базе данных
Трек 10  нет в базе данных
Трек 11  нет в базе данных
Трек 12  нет в базе данных
Ни одного трека нет в базе AccurateRip
Конец отчёта

Отчёт auCDtect Task manager&#58;

Код:
-----------------------
DON'T MODIFY THIS FILE
-----------------------
PERFORMER: auCDtect Task Manager, ver. 1.6.0 RC1 build 1.6.0.1
Copyright (c) 2008-2010 y-soft. All rights reserved
http://y-soft.org
ANALYZER: auCDtect: CD records authenticity detector, version 0.8.2
Copyright (c) 2004 Oleg Berngardt. All rights reserved.
Copyright (c) 2004 Alexander Djourik. All rights reserved.
FILE: Александр Новиков - Записки уголовного барда.flac
  Size: 262408669 Hash: D061339AA17B8F86FE64051461B74BF7 Accuracy: -m0
  Conclusion: CDDA 100%
  Signature: E4342F5A530B1A5867E6701DFDD1346B7AA92246

1997 - Сергей Есенин

Треклиcт:
01. "Ты прохладой меня не мучай..." (3:33)
02. "Пускай ты выпита другим..." (4:06)
03. "Всё живое особой мечтой..." (2:42)
04. "Батум" (4:28)
05. "Пой же, пой..." (4:28)
06. "Папиросники" (2:46)
07. "Годы молодые с забубённой славой..." (3:33)
08. "Цветы на подоконнике..." (3:08)
09. "Сыпь гармоника!.." (4:18)
10. "Снова пьют здесь, дерутся и плачут..." (3:47)
Продолжительноcть: 00:36:50

Отчёт ЕАС&#58;

Код:
Exact Audio Copy V0.99 prebeta 4 from 23. January 2008
Отчёт EAC об извлечении, выполненном 15. января 2010, 20:13
Александр Новиков / Сергей Есенин
Дисковод: ASUS    DRW-1814BLT   Adapter: 3  ID: 0
Режим чтения                 : Достоверность
Использование точного потока : Да
Отключение кэша аудио        : Да
Использование указателей C2  : Нет
Коррекция смещения при чтении                     : 6
Способность читать области Lead-in и Lead-out     : Нет
Заполнение пропущенных сэмплов тишиной            : Да
Удаление блоков с тишиной в начале и конце        : Нет
При вычислениях CRC использовались нулевые сэмплы : Да
Интерфейс                                         : Установленный внешний ASPI-интерфейс
Выходной формат : Внутренние WAV-операции
Формат сэмплов  : 44.100 Гц; 16 бит; стерео
TOC извлечённого CD
     Трек |   Старт  | Длительность | Начальный сектор | Конечный сектор
    ---------------------------------------------------------------------
       1  |  0:00.00 |    3:32.67   |           0      |      15966
       2  |  3:32.67 |    4:06.22   |       15967      |      34438
       3  |  7:39.14 |    2:42.08   |       34439      |      46596
       4  | 10:21.22 |    4:27.67   |       46597      |      66688
       5  | 14:49.14 |    4:28.30   |       66689      |      86818
       6  | 19:17.44 |    2:45.39   |       86819      |      99232
       7  | 22:03.08 |    3:33.22   |       99233      |     115229
       8  | 25:36.30 |    3:08.15   |      115230      |     129344
       9  | 28:44.45 |    4:18.17   |      129345      |     148711
      10  | 33:02.62 |    3:47.32   |      148712      |     165768
Характеристики диапазона извлечения и сообщения об ошибках
Выбранный диапазон
     Имя файла C:\Documents and Settings\Admin\Мои документы\Александр Новиков - Сергей Есенин.wav
     Пиковый уровень 96.8 %
     Качество диапазона 99.9 %
     CRC теста F452A162
     CRC копии F452A162
     Копирование... OK
Ошибок не произошло
AccurateRip: сводка
Трек  1  нет в базе данных
Трек  2  нет в базе данных
Трек  3  нет в базе данных
Трек  4  нет в базе данных
Трек  5  нет в базе данных
Трек  6  нет в базе данных
Трек  7  нет в базе данных
Трек  8  нет в базе данных
Трек  9  нет в базе данных
Трек 10  нет в базе данных
Ни одного трека нет в базе AccurateRip
Конец отчёта

Отчёт auCDtect Task manager&#58;

Код:
-----------------------
DON'T MODIFY THIS FILE
-----------------------
PERFORMER: auCDtect Task Manager, ver. 1.6.0 RC1 build 1.6.0.1
Copyright (c) 2008-2010 y-soft. All rights reserved
http://y-soft.org
ANALYZER: auCDtect: CD records authenticity detector, version 0.8.2
Copyright (c) 2004 Oleg Berngardt. All rights reserved.
Copyright (c) 2004 Alexander Djourik. All rights reserved.
FILE: Александр Новиков - Сергей Есенин.flac
  Size: 222460095 Hash: 36CDB1C39F2325E9752F7FEC0D8D37C3 Accuracy: -m0
  Conclusion: CDDA 100%
  Signature: 74A43B39BECF7E053913CB987CF2CCECEE7F1C84

1998 - Концерт в Театре Эстрады I-отделение

Треклиcт:
01. Пускай ты выпита другим... (4:10)
02. Годы молодые... (3:24)
03. Может поздно, может слишком рано... (3:53)
04. Батум (4:16)
05. Папиросники (2:54)
06. Пой же, пой... (4:51)
07. Всё живое особой мечтой... (2:52)
08. Сыпь, гармоника... (3:16)
09. Ты прохладой меня не мучай... (3:43)
10. Снова пьют здесь, дерутся и плачут... (6:50)
11. Записки (3:36)
12. Симфония двора (3:53)
13. Чайная роза (2:52)
14. Воробьи (4:06)
15. Каторжанские байки (3:31)
16. Полудурок (2:46)
17. Друг мой Колька (3:31)
Продолжительноcть: 01:04:23

Отчёт ЕАС&#58;

Код:
Exact Audio Copy V0.99 prebeta 4 from 23. January 2008
Отчёт EAC об извлечении, выполненном 15. января 2010, 21:58
Александр Новиков / Концерт в Театре Эстрады 1998 год I-отделение
Дисковод: ASUS    DRW-1814BLT   Adapter: 3  ID: 0
Режим чтения                 : Достоверность
Использование точного потока : Да
Отключение кэша аудио        : Да
Использование указателей C2  : Нет
Коррекция смещения при чтении                     : 6
Способность читать области Lead-in и Lead-out     : Нет
Заполнение пропущенных сэмплов тишиной            : Да
Удаление блоков с тишиной в начале и конце        : Нет
При вычислениях CRC использовались нулевые сэмплы : Да
Интерфейс                                         : Установленный внешний ASPI-интерфейс
Выходной формат : Внутренние WAV-операции
Формат сэмплов  : 44.100 Гц; 16 бит; стерео
TOC извлечённого CD
     Трек |   Старт  | Длительность | Начальный сектор | Конечный сектор
    ---------------------------------------------------------------------
       1  |  0:00.00 |    4:09.42   |           0      |      18716
       2  |  4:09.42 |    3:24.10   |       18717      |      34026
       3  |  7:33.52 |    3:53.37   |       34027      |      51538
       4  | 11:27.14 |    4:16.16   |       51539      |      70754
       5  | 15:43.30 |    2:53.51   |       70755      |      83780
       6  | 18:37.06 |    4:50.45   |       83781      |     105575
       7  | 23:27.51 |    2:52.24   |      105576      |     118499
       8  | 26:20.00 |    3:16.27   |      118500      |     133226
       9  | 29:36.27 |    3:43.31   |      133227      |     149982
      10  | 33:19.58 |    6:49.42   |      149983      |     180699
      11  | 40:09.25 |    3:35.53   |      180700      |     196877
      12  | 43:45.03 |    3:52.59   |      196878      |     214336
      13  | 47:37.62 |    2:51.61   |      214337      |     227222
      14  | 50:29.48 |    4:06.04   |      227223      |     245676
      15  | 54:35.52 |    3:30.38   |      245677      |     261464
      16  | 58:06.15 |    2:45.42   |      261465      |     273881
      17  | 60:51.57 |    3:31.13   |      273882      |     289719
Характеристики диапазона извлечения и сообщения об ошибках
Выбранный диапазон
     Имя файла C:\Documents and Settings\Admin\Мои документы\Александр Новиков - Концерт в Театре Эстрады 1998 год I-отделение.wav
     Пиковый уровень 97.7 %
     Качество диапазона 99.9 %
     CRC теста F1FC84CA
     CRC копии F1FC84CA
     Копирование... OK
Ошибок не произошло
AccurateRip: сводка
Трек  1  нет в базе данных
Трек  2  нет в базе данных
Трек  3  нет в базе данных
Трек  4  нет в базе данных
Трек  5  нет в базе данных
Трек  6  нет в базе данных
Трек  7  нет в базе данных
Трек  8  нет в базе данных
Трек  9  нет в базе данных
Трек 10  нет в базе данных
Трек 11  нет в базе данных
Трек 12  нет в базе данных
Трек 13  нет в базе данных
Трек 14  нет в базе данных
Трек 15  нет в базе данных
Трек 16  нет в базе данных
Трек 17  нет в базе данных
Ни одного трека нет в базе AccurateRip
Конец отчёта

Отчёт auCDtect Task manager&#58;

Код:
-----------------------
DON'T MODIFY THIS FILE
-----------------------
PERFORMER: auCDtect Task Manager, ver. 1.6.0 RC1 build 1.6.0.1
Copyright (c) 2008-2010 y-soft. All rights reserved
http://y-soft.org
ANALYZER: auCDtect: CD records authenticity detector, version 0.8.2
Copyright (c) 2004 Oleg Berngardt. All rights reserved.
Copyright (c) 2004 Alexander Djourik. All rights reserved.
FILE: Александр Новиков - Концерт в Театре Эстрады 1998 год I-отделение.flac
  Size: 422344219 Hash: 031795A78AC13D4E20F5CC07371D7B15 Accuracy: -m0
  Conclusion: CDDA 100%
  Signature: 4FBDE86A6058876E7F48823ADD4282B1AA2B1B9E

1998 - Концерт в Театре Эстрады II-отделение

Треклиcт:
01. На Восточной улице (3:29)
02. Это не лето (4:32)
03. Белый голубь (3:40)
04. Побрякушка (2:40)
05. Похороны Абрама (3:14)
06. Вано, прочти (2:58)
07. Женщина ушла (5:12)
08. Когда мне было 20 лет (4:01)
09. Золотая Рыба (3:13)
10. Безработный музыкант (3:36)
11. Уличная красотка (3:34)
12. Шансоньетка (4:15)
13. С красавицей в обнимку (2:58)
Продолжительноcть:

Отчёт ЕАС&#58;

Код:
Exact Audio Copy V0.99 prebeta 4 from 23. January 2008
Отчёт EAC об извлечении, выполненном 15. января 2010, 23:28
Александр Новиков / Концерт в Театре Эстрады 1998 год II-отделение
Дисковод: ASUS    DRW-1814BLT   Adapter: 3  ID: 0
Режим чтения                 : Достоверность
Использование точного потока : Да
Отключение кэша аудио        : Да
Использование указателей C2  : Нет
Коррекция смещения при чтении                     : 6
Способность читать области Lead-in и Lead-out     : Нет
Заполнение пропущенных сэмплов тишиной            : Да
Удаление блоков с тишиной в начале и конце        : Нет
При вычислениях CRC использовались нулевые сэмплы : Да
Интерфейс                                         : Установленный внешний ASPI-интерфейс
Выходной формат : Внутренние WAV-операции
Формат сэмплов  : 44.100 Гц; 16 бит; стерео
TOC извлечённого CD
     Трек |   Старт  | Длительность | Начальный сектор | Конечный сектор
    ---------------------------------------------------------------------
       1  |  0:00.00 |    3:29.26   |           0      |      15700
       2  |  3:29.26 |    4:32.30   |       15701      |      36130
       3  |  8:01.56 |    3:40.36   |       36131      |      52666
       4  | 11:42.17 |    2:39.51   |       52667      |      64642
       5  | 14:21.68 |    3:14.35   |       64643      |      79227
       6  | 17:36.28 |    2:58.36   |       79228      |      92613
       7  | 20:34.64 |    5:12.26   |       92614      |     116039
       8  | 25:47.15 |    4:00.51   |      116040      |     134090
       9  | 29:47.66 |    3:12.54   |      134091      |     148544
      10  | 33:00.45 |    3:35.47   |      148545      |     164716
      11  | 36:36.17 |    3:34.25   |      164717      |     180791
      12  | 40:10.42 |    4:15.27   |      180792      |     199943
      13  | 44:25.69 |    2:57.54   |      199944      |     213272
Характеристики диапазона извлечения и сообщения об ошибках
Выбранный диапазон
     Имя файла C:\Documents and Settings\Admin\Мои документы\Александр Новиков - Концерт в Театре Эстрады 1998 год II-отделение.wav
     Пиковый уровень 100.0 %
     Качество диапазона 100.0 %
     CRC теста B55FB4E6
     CRC копии B55FB4E6
     Копирование... OK
Ошибок не произошло
AccurateRip: сводка
Трек  1  нет в базе данных
Трек  2  нет в базе данных
Трек  3  нет в базе данных
Трек  4  нет в базе данных
Трек  5  нет в базе данных
Трек  6  нет в базе данных
Трек  7  нет в базе данных
Трек  8  нет в базе данных
Трек  9  нет в базе данных
Трек 10  нет в базе данных
Трек 11  нет в базе данных
Трек 12  нет в базе данных
Трек 13  нет в базе данных
Ни одного трека нет в базе AccurateRip
Конец отчёта

Отчёт auCDtect Task manager&#58;

Код:
-----------------------
DON'T MODIFY THIS FILE
-----------------------
PERFORMER: auCDtect Task Manager, ver. 1.6.0 RC1 build 1.6.0.1
Copyright (c) 2008-2010 y-soft. All rights reserved
http://y-soft.org
ANALYZER: auCDtect: CD records authenticity detector, version 0.8.2
Copyright (c) 2004 Oleg Berngardt. All rights reserved.
Copyright (c) 2004 Alexander Djourik. All rights reserved.
FILE: Александр Новиков - Концерт в Театре Эстрады 1998 год II-отделение.flac
  Size: 282313428 Hash: 96028EEE63EDAB3F87B15652D0C403FD Accuracy: -m0
  Conclusion: MPEG 95%
  Signature: AD06A7C96251997AAF6C2C7B5F297205B9D709F0

Спектрограмма&#58;

 

1999 - Бурлак

Треклиcт:
01. Екатеринблюз (5:28)
02. Бурлак (3:30)
03. Пароходишко (3:37)
04. Та женщина была... (4:13)
05. Горожанка (3:59)
06. А музыка одна (3:17)
07. Танец на парапете (3:27)
08. Шарк...Шарк... (3:44)
09. "Примадонна" (4:22)
10. Катька (3:05)
11. Маэстро (Посвящается Александру Якулову) (2:46)
Продолжительноcть: 00:41:29

Отчёт ЕАС&#58;

Код:
Exact Audio Copy V0.99 prebeta 4 from 23. January 2008
Отчёт EAC об извлечении, выполненном 15. января 2010, 23:46
Александр Новиков / Бурлак
Дисковод: ASUS    DRW-1814BLT   Adapter: 3  ID: 0
Режим чтения                 : Достоверность
Использование точного потока : Да
Отключение кэша аудио        : Да
Использование указателей C2  : Нет
Коррекция смещения при чтении                     : 6
Способность читать области Lead-in и Lead-out     : Нет
Заполнение пропущенных сэмплов тишиной            : Да
Удаление блоков с тишиной в начале и конце        : Нет
При вычислениях CRC использовались нулевые сэмплы : Да
Интерфейс                                         : Установленный внешний ASPI-интерфейс
Выходной формат : Внутренние WAV-операции
Формат сэмплов  : 44.100 Гц; 16 бит; стерео
TOC извлечённого CD
     Трек |   Старт  | Длительность | Начальный сектор | Конечный сектор
    ---------------------------------------------------------------------
       1  |  0:00.00 |    5:28.24   |           0      |      24623
       2  |  5:28.24 |    3:30.11   |       24624      |      40384
       3  |  8:58.35 |    3:37.33   |       40385      |      56692
       4  | 12:35.68 |    4:12.45   |       56693      |      75637
       5  | 16:48.38 |    3:58.55   |       75638      |      93542
       6  | 20:47.18 |    3:17.28   |       93543      |     108345
       7  | 24:04.46 |    3:26.43   |      108346      |     123838
       8  | 27:31.14 |    3:44.11   |      123839      |     140649
       9  | 31:15.25 |    4:21.48   |      140650      |     160272
      10  | 35:36.73 |    3:05.19   |      160273      |     174166
      11  | 38:42.17 |    2:46.29   |      174167      |     186645
Характеристики диапазона извлечения и сообщения об ошибках
Выбранный диапазон
     Имя файла C:\Documents and Settings\Admin\Мои документы\Александр Новиков - Бурлак.wav
     Пиковый уровень 99.9 %
     Качество диапазона 100.0 %
     CRC теста 2D61FE25
     CRC копии 2D61FE25
     Копирование... OK
Ошибок не произошло
AccurateRip: сводка
Трек  1  нет в базе данных
Трек  2  нет в базе данных
Трек  3  нет в базе данных
Трек  4  нет в базе данных
Трек  5  нет в базе данных
Трек  6  нет в базе данных
Трек  7  нет в базе данных
Трек  8  нет в базе данных
Трек  9  нет в базе данных
Трек 10  нет в базе данных
Трек 11  нет в базе данных
Ни одного трека нет в базе AccurateRip
Конец отчёта

Отчёт auCDtect Task manager&#58;

Код:
-----------------------
DON'T MODIFY THIS FILE
-----------------------
PERFORMER: auCDtect Task Manager, ver. 1.6.0 RC1 build 1.6.0.1
Copyright (c) 2008-2010 y-soft. All rights reserved
http://y-soft.org
ANALYZER: auCDtect: CD records authenticity detector, version 0.8.2
Copyright (c) 2004 Oleg Berngardt. All rights reserved.
Copyright (c) 2004 Alexander Djourik. All rights reserved.
FILE: Александр Новиков - Бурлак.flac
  Size: 255449889 Hash: FC2B1B8C5E3969A2486B14F02B76F7CF Accuracy: -m0
  Conclusion: CDDA 100%
  Signature: 6DCC7407DF47E5A454A61C67098692C0BA4F5491

1999 - Извозчику 15 лет

Треклиcт:
01. Вези меня, извозчик (5:08)
02. Куда ведут пути-дорожки (3:55)
03. Я вышел родом из еврейского квартала (4:10)
04. Город древний (5:02)
05. Гостиничная история (4:34)
06. В захолустном ресторане (4:51)
07. Рублики-копеечки (2:52)
08. Похороны Абрама (4:16)
09. Кляузник-сосед (3:56)
10. Телефонный разговор (2:44)
11. Фаэтон (4:54)
12. Меня ещё не раз посадят в лужу (2:48)
13. Помнишь, девочка?.. (4:51)
14. Вы уезжаете... (4:25)
15. Катилась по асфальту... (5:34)
16. Улица Восточная (4:32)
17. Развязать бы мой язык (4:43)
Продолжительноcть: 01:13:17

Отчёт ЕАС&#58;

Код:
Exact Audio Copy V0.99 prebeta 4 from 23. January 2008
Отчёт EAC об извлечении, выполненном 16. января 2010, 12:12
Александр Новиков / Извозчику 15 лет
Дисковод: ASUS    DRW-1814BLT   Adapter: 3  ID: 0
Режим чтения                 : Достоверность
Использование точного потока : Да
Отключение кэша аудио        : Да
Использование указателей C2  : Нет
Коррекция смещения при чтении                     : 6
Способность читать области Lead-in и Lead-out     : Нет
Заполнение пропущенных сэмплов тишиной            : Да
Удаление блоков с тишиной в начале и конце        : Нет
При вычислениях CRC использовались нулевые сэмплы : Да
Интерфейс                                         : Установленный внешний ASPI-интерфейс
Выходной формат : Внутренние WAV-операции
Формат сэмплов  : 44.100 Гц; 16 бит; стерео
TOC извлечённого CD
     Трек |   Старт  | Длительность | Начальный сектор | Конечный сектор
    ---------------------------------------------------------------------
       1  |  0:00.00 |    5:08.25   |           0      |      23124
       2  |  5:08.25 |    3:55.26   |       23125      |      40775
       3  |  9:03.51 |    4:10.36   |       40776      |      59561
       4  | 13:14.12 |    5:01.69   |       59562      |      82205
       5  | 18:16.06 |    4:34.02   |       82206      |     102757
       6  | 22:50.08 |    4:51.02   |      102758      |     124584
       7  | 27:41.10 |    2:51.43   |      124585      |     137452
       8  | 30:32.53 |    4:16.26   |      137453      |     156678
       9  | 34:49.04 |    3:55.66   |      156679      |     174369
      10  | 38:44.70 |    2:43.53   |      174370      |     186647
      11  | 41:28.48 |    4:54.34   |      186648      |     208731
      12  | 46:23.07 |    2:48.33   |      208732      |     221364
      13  | 49:11.40 |    4:50.65   |      221365      |     243179
      14  | 54:02.30 |    4:25.04   |      243180      |     263058
      15  | 58:27.34 |    5:34.17   |      263059      |     288125
      16  | 64:01.51 |    4:32.19   |      288126      |     308544
      17  | 68:33.70 |    4:43.31   |      308545      |     329800
Характеристики диапазона извлечения и сообщения об ошибках
Выбранный диапазон
     Имя файла C:\Documents and Settings\Admin\Мои документы\Александр Новиков - Извозчику 15 лет.wav
     Пиковый уровень 96.5 %
     Качество диапазона 100.0 %
     CRC теста 0E51014F
     CRC копии 0E51014F
     Копирование... OK
Ошибок не произошло
AccurateRip: сводка
Трек  1  нет в базе данных
Трек  2  нет в базе данных
Трек  3  нет в базе данных
Трек  4  нет в базе данных
Трек  5  нет в базе данных
Трек  6  нет в базе данных
Трек  7  нет в базе данных
Трек  8  нет в базе данных
Трек  9  нет в базе данных
Трек 10  нет в базе данных
Трек 11  нет в базе данных
Трек 12  нет в базе данных
Трек 13  нет в базе данных
Трек 14  нет в базе данных
Трек 15  нет в базе данных
Трек 16  нет в базе данных
Трек 17  нет в базе данных
Ни одного трека нет в базе AccurateRip
Конец отчёта

Отчёт auCDtect Task manager&#58;

Код:
-----------------------
DON'T MODIFY THIS FILE
-----------------------
PERFORMER: auCDtect Task Manager, ver. 1.6.0 RC1 build 1.6.0.1
Copyright (c) 2008-2010 y-soft. All rights reserved
http://y-soft.org
ANALYZER: auCDtect: CD records authenticity detector, version 0.8.2
Copyright (c) 2004 Oleg Berngardt. All rights reserved.
Copyright (c) 2004 Alexander Djourik. All rights reserved.
FILE: Александр Новиков - Извозчику 15 лет.flac
  Size: 468222428 Hash: C0365695FA6ED49277A97349FD35835B Accuracy: -m0
  Conclusion: CDDA 100%
  Signature: 8C79103EC137BF628F08E13D5B0D4A229FB00AE2

2000 - Красивоглазая

Треклиcт:
01. Шансонье (3:24)
02. Красивоглазая (4:03)
03. Красивая женщина (4:05)
04. Осень (3:37)
05. Рыжая (4:38)
06. Золотая Це-Це (3:23)
07. Белый пароход (4:20)
08. Стриптизёрша (4:23)
09. Локон (3:37)
10. Помнишь, девочка?.. (3:38)
Продолжительноcть: 00:39:10

Отчёт ЕАС&#58;

Код:
Exact Audio Copy V0.99 prebeta 4 from 23. January 2008
Отчёт EAC об извлечении, выполненном 16. января 2010, 12:54
Александр Новиков / Красивоглазая
Дисковод: ASUS    DRW-1814BLT   Adapter: 3  ID: 0
Режим чтения                 : Достоверность
Использование точного потока : Да
Отключение кэша аудио        : Да
Использование указателей C2  : Нет
Коррекция смещения при чтении                     : 6
Способность читать области Lead-in и Lead-out     : Нет
Заполнение пропущенных сэмплов тишиной            : Да
Удаление блоков с тишиной в начале и конце        : Нет
При вычислениях CRC использовались нулевые сэмплы : Да
Интерфейс                                         : Установленный внешний ASPI-интерфейс
Выходной формат : Внутренние WAV-операции
Формат сэмплов  : 44.100 Гц; 16 бит; стерео
TOC извлечённого CD
     Трек |   Старт  | Длительность | Начальный сектор | Конечный сектор
    ---------------------------------------------------------------------
       1  |  0:00.00 |    3:24.24   |           0      |      15323
       2  |  3:24.24 |    4:03.19   |       15324      |      33567
       3  |  7:27.43 |    4:05.17   |       33568      |      51959
       4  | 11:32.60 |    3:36.50   |       51960      |      68209
       5  | 15:09.35 |    4:38.23   |       68210      |      89082
       6  | 19:47.58 |    3:23.36   |       89083      |     104343
       7  | 23:11.19 |    4:20.32   |      104344      |     123875
       8  | 27:31.51 |    4:22.67   |      123876      |     143592
       9  | 31:54.43 |    3:36.63   |      143593      |     159855
      10  | 35:31.31 |    3:38.23   |      159856      |     176228
Характеристики диапазона извлечения и сообщения об ошибках
Выбранный диапазон
     Имя файла C:\Documents and Settings\Admin\Мои документы\Александр Новиков - Красивоглазая.wav
     Пиковый уровень 100.0 %
     Качество диапазона 99.9 %
     CRC теста 1CCC9DBD
     CRC копии 1CCC9DBD
     Копирование... OK
Ошибок не произошло
AccurateRip: сводка
Трек  1  нет в базе данных
Трек  2  нет в базе данных
Трек  3  нет в базе данных
Трек  4  нет в базе данных
Трек  5  нет в базе данных
Трек  6  нет в базе данных
Трек  7  нет в базе данных
Трек  8  нет в базе данных
Трек  9  нет в базе данных
Трек 10  нет в базе данных
Ни одного трека нет в базе AccurateRip
Конец отчёта

Отчёт auCDtect Task manager&#58;

Код:
-----------------------
DON'T MODIFY THIS FILE
-----------------------
PERFORMER: auCDtect Task Manager, ver. 1.6.0 RC1 build 1.6.0.1
Copyright (c) 2008-2010 y-soft. All rights reserved
http://y-soft.org
ANALYZER: auCDtect: CD records authenticity detector, version 0.8.2
Copyright (c) 2004 Oleg Berngardt. All rights reserved.
Copyright (c) 2004 Alexander Djourik. All rights reserved.
FILE: Александр Новиков - Красивоглазая.flac
  Size: 278599399 Hash: 8F7D5F5507153F4F311EDDE5BD45A1A6 Accuracy: -m0
  Conclusion: CDDA 100%
  Signature: FB919FBF471EBCF66887BCD52A83F68DFF66BEB1

2000 - Стенка

Треклиcт:
01. Страна Всеобщего Вранья (3:27)
02. Стенка (3:45)
03. Ах, война... (3:47)
04. Ай, по стеночке!.. (3:12)
05. В обетованной стране (3:05)
06. Поросячий рай (2:26)
07. Нина-Ниночка (3:41)
08. Попрошайка (3:00)
09. Про Водку (3:10)
10. Все движемся (3:37)
Продолжительноcть: 00:33:11

Отчёт ЕАС&#58;

Код:
Exact Audio Copy V0.99 prebeta 4 from 23. January 2008
Отчёт EAC об извлечении, выполненном 16. января 2010, 12:27
Александр Новиков / Стенка
Дисковод: ASUS    DRW-1814BLT   Adapter: 3  ID: 0
Режим чтения                 : Достоверность
Использование точного потока : Да
Отключение кэша аудио        : Да
Использование указателей C2  : Нет
Коррекция смещения при чтении                     : 6
Способность читать области Lead-in и Lead-out     : Нет
Заполнение пропущенных сэмплов тишиной            : Да
Удаление блоков с тишиной в начале и конце        : Нет
При вычислениях CRC использовались нулевые сэмплы : Да
Интерфейс                                         : Установленный внешний ASPI-интерфейс
Выходной формат : Внутренние WAV-операции
Формат сэмплов  : 44.100 Гц; 16 бит; стерео
TOC извлечённого CD
     Трек |   Старт  | Длительность | Начальный сектор | Конечный сектор
    ---------------------------------------------------------------------
       1  |  0:00.00 |    3:26.58   |           0      |      15507
       2  |  3:26.58 |    3:45.01   |       15508      |      32383
       3  |  7:11.59 |    3:47.36   |       32384      |      49444
       4  | 10:59.20 |    3:12.28   |       49445      |      63872
       5  | 14:11.48 |    3:05.04   |       63873      |      77751
       6  | 17:16.52 |    2:25.72   |       77752      |      88698
       7  | 19:42.49 |    3:40.44   |       88699      |     105242
       8  | 23:23.18 |    2:59.68   |      105243      |     118735
       9  | 26:23.11 |    3:10.20   |      118736      |     133005
      10  | 29:33.31 |    3:37.26   |      133006      |     149306
Характеристики диапазона извлечения и сообщения об ошибках
Выбранный диапазон
     Имя файла C:\Documents and Settings\Admin\Мои документы\Александр Новиков - Стенка.wav
     Пиковый уровень 100.0 %
     Качество диапазона 100.0 %
     CRC теста C2C4A3C1
     CRC копии C2C4A3C1
     Копирование... OK
Ошибок не произошло
AccurateRip: сводка
Трек  1  нет в базе данных
Трек  2  нет в базе данных
Трек  3  нет в базе данных
Трек  4  нет в базе данных
Трек  5  нет в базе данных
Трек  6  нет в базе данных
Трек  7  нет в базе данных
Трек  8  нет в базе данных
Трек  9  нет в базе данных
Трек 10  нет в базе данных
Ни одного трека нет в базе AccurateRip
Конец отчёта

Отчёт auCDtect Task manager&#58;

Код:
-----------------------
DON'T MODIFY THIS FILE
-----------------------
PERFORMER: auCDtect Task Manager, ver. 1.6.0 RC1 build 1.6.0.1
Copyright (c) 2008-2010 y-soft. All rights reserved
http://y-soft.org
ANALYZER: auCDtect: CD records authenticity detector, version 0.8.2
Copyright (c) 2004 Oleg Berngardt. All rights reserved.
Copyright (c) 2004 Alexander Djourik. All rights reserved.
FILE: Александр Новиков - Стенка.flac
  Size: 182507350 Hash: 7F00CA234F0AFDED5F35036D5A1110C3 Accuracy: -m0
  Conclusion: CDDA 100%
  Signature: EB90DE613C20A3034C20150F715866966B5849AE

2002 - Журавли над лагерем

Треклиcт:
01. За морем синим (4:19)
02. Журавли над лагерем (4:50)
03. Сон в столыпинском вагоне (4:22)
04. Бабочка в запретке (3:18)
05. Яшка-цыган (3:29)
06. Девочка из лета (4:09)
07. Ножик (2:45)
08. Воровать-не наживать (4:11)
09. Ваня (2:33)
10. Лифтёрша (3:05)
11. Ласты (2:26)
12. Красивоглазая (3:53)
Продолжительноcть: 00:43:19

Отчёт ЕАС&#58;

Код:
Exact Audio Copy V0.99 prebeta 4 from 23. January 2008
Отчёт EAC об извлечении, выполненном 16. января 2010, 13:09
Александр Новиков / Журавли над лагерем
Дисковод: ASUS    DRW-1814BLT   Adapter: 3  ID: 0
Режим чтения                 : Достоверность
Использование точного потока : Да
Отключение кэша аудио        : Да
Использование указателей C2  : Нет
Коррекция смещения при чтении                     : 6
Способность читать области Lead-in и Lead-out     : Нет
Заполнение пропущенных сэмплов тишиной            : Да
Удаление блоков с тишиной в начале и конце        : Нет
При вычислениях CRC использовались нулевые сэмплы : Да
Интерфейс                                         : Установленный внешний ASPI-интерфейс
Выходной формат : Внутренние WAV-операции
Формат сэмплов  : 44.100 Гц; 16 бит; стерео
TOC извлечённого CD
     Трек |   Старт  | Длительность | Начальный сектор | Конечный сектор
    ---------------------------------------------------------------------
       1  |  0:00.00 |    4:19.18   |           0      |      19442
       2  |  4:19.18 |    4:50.36   |       19443      |      41228
       3  |  9:09.54 |    4:21.58   |       41229      |      60861
       4  | 13:31.37 |    3:17.54   |       60862      |      75690
       5  | 16:49.16 |    3:28.38   |       75691      |      91328
       6  | 20:17.54 |    4:09.05   |       91329      |     110008
       7  | 24:26.59 |    2:44.68   |      110009      |     122376
       8  | 27:11.52 |    4:10.63   |      122377      |     141189
       9  | 31:22.40 |    2:32.63   |      141190      |     152652
      10  | 33:55.28 |    3:05.30   |      152653      |     166557
      11  | 37:00.58 |    2:25.46   |      166558      |     177478
      12  | 39:26.29 |    3:52.52   |      177479      |     194930
Характеристики диапазона извлечения и сообщения об ошибках
Выбранный диапазон
     Имя файла C:\Documents and Settings\Admin\Мои документы\Александр Новиков - Журавли над лагерем.wav
     Пиковый уровень 100.0 %
     Качество диапазона 99.9 %
     CRC теста 3C7DFFD4
     CRC копии 3C7DFFD4
     Копирование... OK
Ошибок не произошло
AccurateRip: сводка
Трек  1  нет в базе данных
Трек  2  нет в базе данных
Трек  3  нет в базе данных
Трек  4  нет в базе данных
Трек  5  нет в базе данных
Трек  6  нет в базе данных
Трек  7  нет в базе данных
Трек  8  нет в базе данных
Трек  9  нет в базе данных
Трек 10  нет в базе данных
Трек 11  нет в базе данных
Трек 12  нет в базе данных
Ни одного трека нет в базе AccurateRip
Конец отчёта

Отчёт auCDtect Task manager&#58;

Код:
-----------------------
DON'T MODIFY THIS FILE
-----------------------
PERFORMER: auCDtect Task Manager, ver. 1.6.0 RC1 build 1.6.0.1
Copyright (c) 2008-2010 y-soft. All rights reserved
http://y-soft.org
ANALYZER: auCDtect: CD records authenticity detector, version 0.8.2
Copyright (c) 2004 Oleg Berngardt. All rights reserved.
Copyright (c) 2004 Alexander Djourik. All rights reserved.
FILE: Александр Новиков - Журавли над лагерем.flac
  Size: 275819937 Hash: 4FC9CEA6DE4141117633D6AE95428961 Accuracy: -m0
  Conclusion: CDDA 100%
  Signature: 51645E8B781537BDB706EC29CEB556CBDED80424

2003 - Настоящий

Треклиcт:
01. Освободился (4:23)
02. Девочка мне писала (3:27)
03. Голубок (3:04)
04. Я тебя люблю (3:37)
05. Тик-так (5:09)
06. Точно помню (4:04)
07. Колокольня (3:07)
08. Рожи (3:06)
09. Фальшивомонетчик (3:26)
10. Мама-джан (3:07)
Продолжительноcть: 00:36:31

Отчёт ЕАС&#58;

Код:
Exact Audio Copy V0.99 prebeta 4 from 23. January 2008
Отчёт EAC об извлечении, выполненном 16. января 2010, 13:30
Александр Новиков / Настоящий
Дисковод: ASUS    DRW-1814BLT   Adapter: 3  ID: 0
Режим чтения                 : Достоверность
Использование точного потока : Да
Отключение кэша аудио        : Да
Использование указателей C2  : Нет
Коррекция смещения при чтении                     : 6
Способность читать области Lead-in и Lead-out     : Нет
Заполнение пропущенных сэмплов тишиной            : Да
Удаление блоков с тишиной в начале и конце        : Нет
При вычислениях CRC использовались нулевые сэмплы : Да
Интерфейс                                         : Установленный внешний ASPI-интерфейс
Выходной формат : Внутренние WAV-операции
Формат сэмплов  : 44.100 Гц; 16 бит; стерео
TOC извлечённого CD
     Трек |   Старт  | Длительность | Начальный сектор | Конечный сектор
    ---------------------------------------------------------------------
       1  |  0:00.00 |    4:23.34   |           0      |      19758
       2  |  4:23.34 |    3:27.21   |       19759      |      35304
       3  |  7:50.55 |    3:03.42   |       35305      |      49071
       4  | 10:54.22 |    3:37.16   |       49072      |      65362
       5  | 14:31.38 |    5:09.14   |       65363      |      88551
       6  | 19:40.52 |    4:04.15   |       88552      |     106866
       7  | 23:44.67 |    3:07.24   |      106867      |     120915
       8  | 26:52.16 |    3:05.62   |      120916      |     134852
       9  | 29:58.03 |    3:26.19   |      134853      |     150321
      10  | 33:24.22 |    3:07.08   |      150322      |     164354
Характеристики диапазона извлечения и сообщения об ошибках
Выбранный диапазон
     Имя файла C:\Documents and Settings\Admin\Мои документы\Александр Новиков - Настоящий.wav
     Пиковый уровень 99.2 %
     Качество диапазона 100.0 %
     CRC теста 6E6A23B2
     CRC копии 6E6A23B2
     Копирование... OK
Ошибок не произошло
AccurateRip: сводка
Трек  1  нет в базе данных
Трек  2  нет в базе данных
Трек  3  нет в базе данных
Трек  4  нет в базе данных
Трек  5  нет в базе данных
Трек  6  нет в базе данных
Трек  7  нет в базе данных
Трек  8  нет в базе данных
Трек  9  нет в базе данных
Трек 10  нет в базе данных
Ни одного трека нет в базе AccurateRip
Конец отчёта

Отчёт auCDtect Task manager&#58;

Код:
-----------------------
DON'T MODIFY THIS FILE
-----------------------
PERFORMER: auCDtect Task Manager, ver. 1.6.0 RC1 build 1.6.0.1
Copyright (c) 2008-2010 y-soft. All rights reserved
http://y-soft.org
ANALYZER: auCDtect: CD records authenticity detector, version 0.8.2
Copyright (c) 2004 Oleg Berngardt. All rights reserved.
Copyright (c) 2004 Alexander Djourik. All rights reserved.
FILE: Александр Новиков - Настоящий.flac
  Size: 217438486 Hash: 7BA9D840C7B5297BA14B769A861FE0A7 Accuracy: -m0
  Conclusion: CDDA 100%
  Signature: 8929BE6F61CE94FE9EA971AB96A5CADFB2612237
Треклист:
Александр Новиков - советский и российский автор-исполнитель песен в жанре русский шансон, художественный руководитель Екатеринбургского театра эстрады
Other forum [Profile] [PM]
Similar theme
Forum Topic Author Torrent Replies Last Post
./templates/default/images/folder_dl.gif Шансон Александр Марцинкевич и группа «КАБРИОЛЕТ» - Переиздание (7CD) (2007) [FLAC|Lossless]<Шансон> Omen
0 | 1

0 | 844

0

2013-01-22 19:10
Omen Latest
./templates/default/images/folder_dl.gif Фильмы 2001-2010 Новая земля (Александр Мельник) (2008, Фантастика, боевик, драма) [H.264] BDRip Omen
1 | 0

0 | 3646

25

2013-02-20 16:44
Omen Latest
./templates/default/images/folder_dl.gif Обучающее видео Александр Тулупов | Отрисовка света на фото в Фотошопе в стиле Silent Hill [2013] [PCRec] UndegraundMen
1 | 0

0 | 4025

37

2013-04-09 00:00
UndegraundMen Latest
./templates/default/images/folder_dl.gif Обучающее видео Александр Заморин | Как научиться фотографировать на зеркальную фотокамеру [2013] PCRec UndegraundMen
1 | 0

0 | 4744

58

2013-08-23 11:00
UndegraundMen Latest
./templates/default/images/folder_dl.gif Обучающее видео Алекс Мэй | Академия секса (2012) [SATRip] UndegraundMen
1 | 0

0 | 12996

709

2013-09-30 23:05
UndegraundMen Latest
./templates/default/images/folder_dl.gif Обучающее видео Александр Заморин | Lightroom – практическая магия (2013) [PCRec] UndegraundMen
1 | 0

0 | 5097

90

2013-12-03 22:26
UndegraundMen Latest
./templates/default/images/folder_dl.gif Фильмы 2011-2020 Французский шпион (Алексей Феоктистов) [2014 г., боевик, детектив, DVDRip-AVC] [Лицензия] Omen
1 | 0

0 | 3007

49

2014-09-26 11:28
Omen Latest
./templates/default/images/folder_dl.gif Обучающее видео [profileschool] Алексей Довгуля | Студийная съемка (2014) PCRec Omen
1 | 0

0 | 4239

110

2014-09-28 20:05
Omen Latest
./templates/default/images/folder_dl.gif Обучающее видео [Profileschool] Александр Чалдрян | 3D LUT Creator. Следуй за белым кроликом (2014) PCRec Omen
1 | 0

0 | 4140

80

2014-10-29 13:07
Omen Latest
./templates/default/images/folder_dl.gif Обучающее видео [Profileschool] Алексей Фурсов | Введение в предметную съемку (2014) PCRec Omen
2 | 0

0 | 3199

85

2014-11-06 19:19
Omen Latest
Display posts from previous:    
Reply to topic

The time now is: Today 23:52

All times are GMT + 3 Hours



You cannot post new topics in this forum
You cannot reply to topics in this forum
You cannot edit your posts in this forum
You cannot delete your posts in this forum
You cannot vote in polls in this forum
You cannot attach files in this forum
You cannot download files in this forum