Today is a free download without charge Download

Grimes - Miss Anthropocene (2020) [FLAC|Lossless|tracks + .cue] <Pop, Indie Pop, Electronic>

Reply to topic
 
Author
Message

RazBoyNik ®

Gender:

Longevity: 6 years 5 months

Posts: 468

Торрент-статистика

Post 23-Feb-2020 14:53

[Quote]

Grimes - Miss Anthropocene (2020)- Производство: 4AD, Crystal Math Music – CM80207CD
Год: 2020
Жанр: Pop, Indie Pop, Electronic, Synthpop, Industrial
Продолжительность: 00:44:44
Кодек: FLAC
Битрейт: Lossless
Тип рипа: tracks + .cue
Треклист:
01. So Heavy I Fell Through The Earth (6:08)
02. Darkseid (feat. 潘PAN) (3:44)
03. Delete Forever (3:57)
04. Violence (feat. i_o) (3:41)
05. 4ÆM (4:31)
06. New Gods (3:16)
07. My Name Is Dark (5:56)
08. You'll Miss Me When I'm Not Around (2:42)
09. Before The Fever (3:37)
10. IDORU (7:12)

Отчёт ЕАС&#58;

Exact Audio Copy V1.3 from 2. September 2016
EAC extraction logfile from 21. February 2020, 15:02
Grimes / Miss Anthropocene
Used drive : PIONEER BD-RW BDR-XS06 Adapter: 1 ID: 0
Read mode : Secure
Utilize accurate stream : Yes
Defeat audio cache : Yes
Make use of C2 pointers : No
Read offset correction : 667
Overread into Lead-In and Lead-Out : No
Fill up missing offset samples with silence : Yes
Delete leading and trailing silent blocks : No
Null samples used in CRC calculations : Yes
Used interface : Native Win32 interface for Win NT & 2000
Gap handling : Appended to previous track
Used output format : User Defined Encoder
Selected bitrate : 1024 kBit/s
Quality : High
Add ID3 tag : No
Command line compressor : C:\Program Files (x86)\Exact Audio Copy\Flac\flac.exe
Additional command line options : -8 -V -T "ARTIST=%artist%" -T "TITLE=%title%" -T "ALBUM=%albumtitle%" -T "DATE=%year%" -T "TRACKNUMBER=%tracknr%" -T "GENRE=%genre%" -T "PERFORMER=%albuminterpret%" -T "COMPOSER=%composer%" %haslyrics%--tag-from-file=LYRICS="%lyricsfile%"%haslyrics% -T "ALBUMARTIST=%albumartist%" -T "DISCNUMBER=%cdnumber%" -T "TOTALDISCS=%totalcds%" -T "TOTALTRACKS=%numtracks%" -T "COMMENT=%comment%" %source% -o %dest%
TOC of the extracted CD
Track | Start | Length | Start sector | End sector
---------------------------------------------------------
1 | 0:00.00 | 6:08.20 | 0 | 27619
2 | 6:08.20 | 3:44.09 | 27620 | 44428
3 | 9:52.29 | 3:57.36 | 44429 | 62239
4 | 13:49.65 | 3:40.46 | 62240 | 78785
5 | 17:30.36 | 4:30.74 | 78786 | 99109
6 | 22:01.35 | 3:15.61 | 99110 | 113795
7 | 25:17.21 | 5:56.06 | 113796 | 140501
8 | 31:13.27 | 2:41.52 | 140502 | 152628
9 | 33:55.04 | 3:37.35 | 152629 | 168938
10 | 37:32.39 | 7:12.19 | 168939 | 201357
Track 1
Filename C:\Users\Nick\Desktop\flacs\Grimes - Miss Anthropocene (2020) [FLAC]\01 - So Heavy I Fell Through the Earth (Art Mix).wav
Pre-gap length 0:00:02.00
Peak level 100.0 %
Extraction speed 3.0 X
Track quality 100.0 %
Test CRC 78B06B8F
Copy CRC 78B06B8F
Track not present in AccurateRip database
Copy OK
Track 2
Filename C:\Users\Nick\Desktop\flacs\Grimes - Miss Anthropocene (2020) [FLAC]\02 - Darkseid.wav
Peak level 100.0 %
Extraction speed 2.8 X
Track quality 99.9 %
Test CRC B441FF33
Copy CRC B441FF33
Track not present in AccurateRip database
Copy OK
Track 3
Filename C:\Users\Nick\Desktop\flacs\Grimes - Miss Anthropocene (2020) [FLAC]\03 - Delete Forever.wav
Peak level 100.0 %
Extraction speed 3.1 X
Track quality 99.9 %
Test CRC 183B376C
Copy CRC 183B376C
Track not present in AccurateRip database
Copy OK
Track 4
Filename C:\Users\Nick\Desktop\flacs\Grimes - Miss Anthropocene (2020) [FLAC]\04 - Violence.wav
Peak level 100.0 %
Extraction speed 3.7 X
Track quality 100.0 %
Test CRC B26BF767
Copy CRC B26BF767
Track not present in AccurateRip database
Copy OK
Track 5
Filename C:\Users\Nick\Desktop\flacs\Grimes - Miss Anthropocene (2020) [FLAC]\05 - 4ÆM.wav
Peak level 100.0 %
Extraction speed 4.0 X
Track quality 100.0 %
Test CRC 2B01B252
Copy CRC 2B01B252
Track not present in AccurateRip database
Copy OK
Track 6
Filename C:\Users\Nick\Desktop\flacs\Grimes - Miss Anthropocene (2020) [FLAC]\06 - New Gods.wav
Peak level 100.0 %
Extraction speed 3.9 X
Track quality 100.0 %
Test CRC 79BF9187
Copy CRC 79BF9187
Track not present in AccurateRip database
Copy OK
Track 7
Filename C:\Users\Nick\Desktop\flacs\Grimes - Miss Anthropocene (2020) [FLAC]\07 - My Name is Dark (Art Mix).wav
Peak level 100.0 %
Extraction speed 4.5 X
Track quality 100.0 %
Test CRC 9A8F3D8D
Copy CRC 9A8F3D8D
Track not present in AccurateRip database
Copy OK
Track 8
Filename C:\Users\Nick\Desktop\flacs\Grimes - Miss Anthropocene (2020) [FLAC]\08 - You'll Miss Me When I'm Not Around.wav
Peak level 100.0 %
Extraction speed 1.4 X
Track quality 99.9 %
Test CRC 2AD59210
Copy CRC 2AD59210
Track not present in AccurateRip database
Copy OK
Track 9
Filename C:\Users\Nick\Desktop\flacs\Grimes - Miss Anthropocene (2020) [FLAC]\09 - Before the Fever.wav
Peak level 100.0 %
Extraction speed 1.6 X
Track quality 99.9 %
Test CRC B571F908
Copy CRC B571F908
Track not present in AccurateRip database
Copy OK
Track 10
Filename C:\Users\Nick\Desktop\flacs\Grimes - Miss Anthropocene (2020) [FLAC]\10 - IDORU.wav
Peak level 100.0 %
Extraction speed 1.9 X
Track quality 99.9 %
Test CRC 01224AB8
Copy CRC 01224AB8
Track not present in AccurateRip database
Copy OK
None of the tracks are present in the AccurateRip database
No errors occurred
End of status report
---- CUETools DB Plugin V2.1.6
[CTDB TOCID: ZX7KBIBdbH6yxM9l6fxecIT3CXg-] found
Submit result: ZX7KBIBdbH6yxM9l6fxecIT3CXg- has been confirmed
Track | CTDB Status
1 | (10/10) Accurately ripped
2 | (10/10) Accurately ripped
3 | (10/10) Accurately ripped
4 | (10/10) Accurately ripped
5 | (10/10) Accurately ripped
6 | (10/10) Accurately ripped
7 | (10/10) Accurately ripped
8 | (10/10) Accurately ripped
9 | (10/10) Accurately ripped
10 | (10/10) Accurately ripped
==== Log checksum 1A6627451D5837198069BCD4F05AC50EBE3D3024E88E0A86029E2178179D2012 ====
Other forum [Profile] [PM]
Display posts from previous:    
Reply to topic

The time now is: Today 08:01

All times are GMT + 3 Hours



You cannot post new topics in this forum
You cannot reply to topics in this forum
You cannot edit your posts in this forum
You cannot delete your posts in this forum
You cannot vote in polls in this forum
You cannot attach files in this forum
You cannot download files in this forum