Today is a free download without charge Download

Nat King Cole - Hittin' the Ramp: The Early Years 1936-1943 (2019) 7CD, Resonance Records [FLAC|Lossless|tracks + .cue] <Vocal Jazz, Swing, Piano Jazz>

Reply to topic
 
Author
Message

Soldat_5 ®

Longevity: 8 months 2 days

Posts: 127

Торрент-статистика

Post 26-Feb-2020 11:24

[Quote]

Nat King Cole - Hittin' the Ramp: The Early Years 1936-1943 (2019) 7CD, Resonance Records - Жанр: Vocal Jazz, Swing, Piano Jazz
Издание: Resonance Records - HCD 2042
Продолжительность: 08:27:43
Кодек: FLAC (tracks+.cue)
Битрейт: Lossless
Источник (релизер): redacted
Страна-производитель диска: USA
Наличие сканов в содержимом раздачи: да
Треклист:
CD1:
01. Honey Hush [2:53]
02. Stompin' at the Panama (Skoller's Shuffle) [2:59]
03. Bedtime (Sleepy Moan) [2:55]
04. Thunder [2:50]
05. Mutiny in the Nursery [2:53]
06. F.D.R. Jones [3:11]
07. The Sheik of Araby [2:18]
08. The Blue Danube [2:51]

♦ CD1

Трeклист:

01. Honey Hush [2:53]
02. Stompin' at the Panama (Skoller's Shuffle) [2:59]
03. Bedtime (Sleepy Moan) [2:55]
04. Thunder [2:50]
05. Mutiny in the Nursery [2:53]
06. F.D.R. Jones [3:11]
07. The Sheik of Araby [2:18]
08. The Blue Danube [2:51]
09. Button, Button [2:53]
10. Jingle Bells [2:35]
11. Swanee River [2:28]
12. With Plenty of Money and You [2:16]
13. Don't Blame Me [2:26]
14. Lullaby in Rhythm [2:48]
15. Dark Rapture [3:13]
16. The Wiggly Walk [2:54]
17. Flea Hop [2:44]
18. Chopsticks [2:45]
19. Patty Cake, Patty Cake [2:44]
20. Blue Skies [2:10]
21. Liza [2:59]
22. Three Blind Mice [2:09]
23. Caravan [2:17]
24. There's No Anesthetic for Love [3:13]
25. Dixie Jamboree [3:05]
26. Ta-De-Ah [2:40]
27. Riffin' at the Bar-B-Q [2:05]
28. Harlem Swing [2:31]
29. I Lost Control of Myself [3:17]
Продолжительность:
01:19:01)

Лог создания рипа

Exact Audio Copy V1.3 from 2. September 2016
EAC extraction logfile from 23. December 2019, 10:35
Nat King Cole / Hittin' The Ramp - The Early Years (1936 – 1943)
Used drive : PLEXTOR PX-891SAF Adapter: 1 ID: 0
Read mode : Secure
Utilize accurate stream : Yes
Defeat audio cache : Yes
Make use of C2 pointers : No
Read offset correction : 6
Overread into Lead-In and Lead-Out : No
Fill up missing offset samples with silence : Yes
Delete leading and trailing silent blocks : No
Null samples used in CRC calculations : Yes
Used interface : Native Win32 interface for Win NT & 2000
Gap handling : Appended to previous track
Used output format : User Defined Encoder
Selected bitrate : 1024 kBit/s
Quality : High
Add ID3 tag : No
Command line compressor : C:\Program Files (x86)\Exact Audio Copy\Flac\flac.exe
Additional command line options : -8 -V -T "ARTIST=%artist%" -T "TITLE=%title%" -T "ALBUM=%albumtitle%" -T "DATE=%year%" -T "TRACKNUMBER=%tracknr%" -T "GENRE=%genre%" -T "PERFORMER=%albuminterpret%" -T "COMPOSER=%composer%" %haslyrics%--tag-from-file=LYRICS="%lyricsfile%"%haslyrics% -T "ALBUMARTIST=%albumartist%" -T "DISCNUMBER=%cdnumber%" -T "TOTALDISCS=%totalcds%" -T "TOTALTRACKS=%numtracks%" -T "COMMENT=%comment%" %source% -o %dest%
TOC of the extracted CD
Track | Start | Length | Start sector | End sector
---------------------------------------------------------
1 | 0:00.00 | 2:52.42 | 0 | 12941
2 | 2:52.42 | 2:59.36 | 12942 | 26402
3 | 5:52.03 | 2:54.69 | 26403 | 39521
4 | 8:46.72 | 2:50.10 | 39522 | 52281
5 | 11:37.07 | 2:52.70 | 52282 | 65251
6 | 14:30.02 | 3:10.70 | 65252 | 79571
7 | 17:40.72 | 2:17.41 | 79572 | 89887
8 | 19:58.38 | 2:50.48 | 89888 | 102685
9 | 22:49.11 | 2:52.39 | 102686 | 115624
10 | 25:41.50 | 2:34.45 | 115625 | 127219
11 | 28:16.20 | 2:28.17 | 127220 | 138336
12 | 30:44.37 | 2:15.48 | 138337 | 148509
13 | 33:00.10 | 2:26.19 | 148510 | 159478
14 | 35:26.29 | 2:48.30 | 159479 | 172108
15 | 38:14.59 | 3:13.31 | 172109 | 186614
16 | 41:28.15 | 2:54.06 | 186615 | 199670
17 | 44:22.21 | 2:43.41 | 199671 | 211936
18 | 47:05.62 | 2:45.13 | 211937 | 224324
19 | 49:51.00 | 2:43.63 | 224325 | 236612
20 | 52:34.63 | 2:09.73 | 236613 | 246360
21 | 54:44.61 | 2:58.52 | 246361 | 259762
22 | 57:43.38 | 2:08.70 | 259763 | 269432
23 | 59:52.33 | 2:17.03 | 269433 | 279710
24 | 62:09.36 | 3:13.22 | 279711 | 294207
25 | 65:22.58 | 3:04.41 | 294208 | 308048
26 | 68:27.24 | 2:39.45 | 308049 | 320018
27 | 71:06.69 | 2:05.26 | 320019 | 329419
28 | 73:12.20 | 2:30.64 | 329420 | 340733
29 | 75:43.09 | 3:17.31 | 340734 | 355539
Track 1
Filename D:\#cdr\#wav+flac\Nat King Cole - Hittin' The Ramp - The Early Years (1936 – 1943)\cd 1\01. Nat King Cole - Honey Hush.wav
Pre-gap length 0:00:02.00
Peak level 61.6 %
Extraction speed 5.4 X
Track quality 100.0 %
Test CRC B3A4A4F1
Copy CRC B3A4A4F1
Accurately ripped (confidence 3) [9A804F1F] (AR v2)
Copy OK
Track 2
Filename D:\#cdr\#wav+flac\Nat King Cole - Hittin' The Ramp - The Early Years (1936 – 1943)\cd 1\02. Nat King Cole - Stompin' At The Panama (Skoller's Shuffle).wav
Peak level 55.8 %
Extraction speed 5.7 X
Track quality 100.0 %
Test CRC 004DF9D3
Copy CRC 004DF9D3
Accurately ripped (confidence 3) [66916541] (AR v2)
Copy OK
Track 3
Filename D:\#cdr\#wav+flac\Nat King Cole - Hittin' The Ramp - The Early Years (1936 – 1943)\cd 1\03. Nat King Cole - Bedtime (Sleepy Moan).wav
Peak level 89.0 %
Extraction speed 4.7 X
Track quality 99.9 %
Test CRC 8D6E8219
Copy CRC 8D6E8219
Accurately ripped (confidence 3) [79C96057] (AR v2)
Copy OK
Track 4
Filename D:\#cdr\#wav+flac\Nat King Cole - Hittin' The Ramp - The Early Years (1936 – 1943)\cd 1\04. Nat King Cole - Thunder.wav
Peak level 55.2 %
Extraction speed 6.3 X
Track quality 100.0 %
Test CRC D588DF61
Copy CRC D588DF61
Accurately ripped (confidence 3) [41BCAAD5] (AR v2)
Copy OK
Track 5
Filename D:\#cdr\#wav+flac\Nat King Cole - Hittin' The Ramp - The Early Years (1936 – 1943)\cd 1\05. Nat King Cole - Mutiny In The Nursery.wav
Peak level 64.3 %
Extraction speed 6.6 X
Track quality 100.0 %
Test CRC B0776E56
Copy CRC B0776E56
Accurately ripped (confidence 3) [03CBDA5A] (AR v2)
Copy OK
Track 6
Filename D:\#cdr\#wav+flac\Nat King Cole - Hittin' The Ramp - The Early Years (1936 – 1943)\cd 1\06. Nat King Cole - F.D.R. Jones.wav
Peak level 67.2 %
Extraction speed 7.0 X
Track quality 100.0 %
Test CRC 66B95BA9
Copy CRC 66B95BA9
Accurately ripped (confidence 3) [F67D9D49] (AR v2)
Copy OK
Track 7
Filename D:\#cdr\#wav+flac\Nat King Cole - Hittin' The Ramp - The Early Years (1936 – 1943)\cd 1\07. Nat King Cole - The Sheik Of Araby.wav
Peak level 62.0 %
Extraction speed 6.9 X
Track quality 100.0 %
Test CRC EB2C096E
Copy CRC EB2C096E
Accurately ripped (confidence 3) [780A9CD5] (AR v2)
Copy OK
Track 8
Filename D:\#cdr\#wav+flac\Nat King Cole - Hittin' The Ramp - The Early Years (1936 – 1943)\cd 1\08. Nat King Cole - The Blue Danube.wav
Peak level 49.5 %
Extraction speed 5.7 X
Track quality 99.9 %
Test CRC A78DD3A6
Copy CRC A78DD3A6
Accurately ripped (confidence 3) [F0F8C425] (AR v2)
Copy OK
Track 9
Filename D:\#cdr\#wav+flac\Nat King Cole - Hittin' The Ramp - The Early Years (1936 – 1943)\cd 1\09. Nat King Cole - Button, Button.wav
Peak level 56.0 %
Extraction speed 7.6 X
Track quality 100.0 %
Test CRC E5938397
Copy CRC E5938397
Accurately ripped (confidence 3) [FD252FFF] (AR v2)
Copy OK
Track 10
Filename D:\#cdr\#wav+flac\Nat King Cole - Hittin' The Ramp - The Early Years (1936 – 1943)\cd 1\10. Nat King Cole - Jingle Bells.wav
Peak level 70.9 %
Extraction speed 7.7 X
Track quality 100.0 %
Test CRC ECF32BE0
Copy CRC ECF32BE0
Accurately ripped (confidence 3) [1B709EFA] (AR v2)
Copy OK
Track 11
Filename D:\#cdr\#wav+flac\Nat King Cole - Hittin' The Ramp - The Early Years (1936 – 1943)\cd 1\11. Nat King Cole - Swanee River.wav
Peak level 78.6 %
Extraction speed 7.7 X
Track quality 100.0 %
Test CRC 923FB822
Copy CRC 923FB822
Accurately ripped (confidence 3) [00D681DD] (AR v2)
Copy OK
Track 12
Filename D:\#cdr\#wav+flac\Nat King Cole - Hittin' The Ramp - The Early Years (1936 – 1943)\cd 1\12. Nat King Cole - With Plenty Of Money And You.wav
Peak level 53.0 %
Extraction speed 7.7 X
Track quality 100.0 %
Test CRC AE21F658
Copy CRC AE21F658
Accurately ripped (confidence 3) [CC32B7A4] (AR v2)
Copy OK
Track 13
Filename D:\#cdr\#wav+flac\Nat King Cole - Hittin' The Ramp - The Early Years (1936 – 1943)\cd 1\13. Nat King Cole - Don't Blame Me.wav
Peak level 71.5 %
Extraction speed 8.1 X
Track quality 100.0 %
Test CRC 4305C4A2
Copy CRC 4305C4A2
Accurately ripped (confidence 3) [5DDA9813] (AR v2)
Copy OK
Track 14
Filename D:\#cdr\#wav+flac\Nat King Cole - Hittin' The Ramp - The Early Years (1936 – 1943)\cd 1\14. Nat King Cole - Lullaby In Rhythm.wav
Peak level 85.8 %
Extraction speed 8.4 X
Track quality 100.0 %
Test CRC 86CFB23A
Copy CRC 86CFB23A
Accurately ripped (confidence 3) [2AEF8C17] (AR v2)
Copy OK
Track 15
Filename D:\#cdr\#wav+flac\Nat King Cole - Hittin' The Ramp - The Early Years (1936 – 1943)\cd 1\15. Nat King Cole - Dark Rapture.wav
Peak level 76.8 %
Extraction speed 8.8 X
Track quality 100.0 %
Test CRC 364D5B1B
Copy CRC 364D5B1B
Accurately ripped (confidence 3) [D152D990] (AR v2)
Copy OK
Track 16
Filename D:\#cdr\#wav+flac\Nat King Cole - Hittin' The Ramp - The Early Years (1936 – 1943)\cd 1\16. Nat King Cole - The Wiggly Walk.wav
Peak level 85.9 %
Extraction speed 8.9 X
Track quality 100.0 %
Test CRC 48B9B3F9
Copy CRC 48B9B3F9
Accurately ripped (confidence 3) [D1D425B4] (AR v2)
Copy OK
Track 17
Filename D:\#cdr\#wav+flac\Nat King Cole - Hittin' The Ramp - The Early Years (1936 – 1943)\cd 1\17. Nat King Cole - Flea Hop.wav
Peak level 100.0 %
Extraction speed 9.0 X
Track quality 100.0 %
Test CRC DEB2AF57
Copy CRC DEB2AF57
Accurately ripped (confidence 3) [E173328F] (AR v2)
Copy OK
Track 18
Filename D:\#cdr\#wav+flac\Nat King Cole - Hittin' The Ramp - The Early Years (1936 – 1943)\cd 1\18. Nat King Cole - Chopsticks.wav
Peak level 75.0 %
Extraction speed 9.3 X
Track quality 100.0 %
Test CRC 1968ED1D
Copy CRC 1968ED1D
Accurately ripped (confidence 3) [990192F4] (AR v2)
Copy OK
Track 19
Filename D:\#cdr\#wav+flac\Nat King Cole - Hittin' The Ramp - The Early Years (1936 – 1943)\cd 1\19. Nat King Cole - Patty Cake, Patty Cake.wav
Peak level 71.4 %
Extraction speed 9.4 X
Track quality 100.0 %
Test CRC 29EAE2A9
Copy CRC 29EAE2A9
Accurately ripped (confidence 3) [67C2103D] (AR v2)
Copy OK
Track 20
Filename D:\#cdr\#wav+flac\Nat King Cole - Hittin' The Ramp - The Early Years (1936 – 1943)\cd 1\20. Nat King Cole - Blue Skies.wav
Peak level 84.4 %
Extraction speed 9.1 X
Track quality 100.0 %
Test CRC 407EE0EB
Copy CRC 407EE0EB
Accurately ripped (confidence 3) [DAE8E9B6] (AR v2)
Copy OK
Track 21
Filename D:\#cdr\#wav+flac\Nat King Cole - Hittin' The Ramp - The Early Years (1936 – 1943)\cd 1\21. Nat King Cole - Liza.wav
Peak level 69.3 %
Extraction speed 9.7 X
Track quality 100.0 %
Test CRC 3B4160E2
Copy CRC 3B4160E2
Accurately ripped (confidence 3) [1C220504] (AR v2)
Copy OK
Track 22
Filename D:\#cdr\#wav+flac\Nat King Cole - Hittin' The Ramp - The Early Years (1936 – 1943)\cd 1\22. Nat King Cole - Three Blind Mice.wav
Peak level 91.2 %
Extraction speed 9.3 X
Track quality 100.0 %
Test CRC B9C3D8EC
Copy CRC B9C3D8EC
Accurately ripped (confidence 3) [60D602AB] (AR v2)
Copy OK
Track 23
Filename D:\#cdr\#wav+flac\Nat King Cole - Hittin' The Ramp - The Early Years (1936 – 1943)\cd 1\23. Nat King Cole - Caravan.wav
Peak level 70.5 %
Extraction speed 9.6 X
Track quality 100.0 %
Test CRC 1170F7E4
Copy CRC 1170F7E4
Accurately ripped (confidence 3) [1F28C313] (AR v2)
Copy OK
Track 24
Filename D:\#cdr\#wav+flac\Nat King Cole - Hittin' The Ramp - The Early Years (1936 – 1943)\cd 1\24. Nat King Cole - There's No Anesthetic For Love.wav
Peak level 95.4 %
Extraction speed 10.3 X
Track quality 100.0 %
Test CRC 09673D77
Copy CRC 09673D77
Accurately ripped (confidence 3) [1C651A3E] (AR v2)
Copy OK
Track 25
Filename D:\#cdr\#wav+flac\Nat King Cole - Hittin' The Ramp - The Early Years (1936 – 1943)\cd 1\25. Nat King Cole - Dixie Jamboree.wav
Peak level 95.5 %
Extraction speed 10.5 X
Track quality 100.0 %
Test CRC 981732BA
Copy CRC 981732BA
Accurately ripped (confidence 3) [2ACEEAFD] (AR v2)
Copy OK
Track 26
Filename D:\#cdr\#wav+flac\Nat King Cole - Hittin' The Ramp - The Early Years (1936 – 1943)\cd 1\26. Nat King Cole - Ta-De-Ah.wav
Peak level 100.0 %
Extraction speed 10.4 X
Track quality 100.0 %
Test CRC 1BDF8246
Copy CRC 1BDF8246
Accurately ripped (confidence 3) [86EF1A8C] (AR v2)
Copy OK
Track 27
Filename D:\#cdr\#wav+flac\Nat King Cole - Hittin' The Ramp - The Early Years (1936 – 1943)\cd 1\27. Nat King Cole - Riffin' At The Bar-B-Q.wav
Peak level 93.4 %
Extraction speed 9.9 X
Track quality 100.0 %
Test CRC CC944F8E
Copy CRC CC944F8E
Accurately ripped (confidence 3) [F234068D] (AR v2)
Copy OK
Track 28
Filename D:\#cdr\#wav+flac\Nat King Cole - Hittin' The Ramp - The Early Years (1936 – 1943)\cd 1\28. Nat King Cole - Harlem Swing.wav
Peak level 100.0 %
Extraction speed 10.6 X
Track quality 100.0 %
Test CRC CA4F20EE
Copy CRC CA4F20EE
Accurately ripped (confidence 3) [161FA923] (AR v2)
Copy OK
Track 29
Filename D:\#cdr\#wav+flac\Nat King Cole - Hittin' The Ramp - The Early Years (1936 – 1943)\cd 1\29. Nat King Cole - I Lost Control Of Myself.wav
Peak level 58.0 %
Extraction speed 11.0 X
Track quality 100.0 %
Test CRC 8039BB67
Copy CRC 8039BB67
Accurately ripped (confidence 3) [8CF312BD] (AR v2)
Copy OK
All tracks accurately ripped
No errors occurred
End of status report
---- CUETools DB Plugin V2.1.6
[CTDB TOCID: FpC2PUo55SdvpJc1uJXK7ZoTjig-] found
Submit result: FpC2PUo55SdvpJc1uJXK7ZoTjig- has been confirmed
Track | CTDB Status
1 | (9/9) Accurately ripped
2 | (9/9) Accurately ripped
3 | (9/9) Accurately ripped
4 | (9/9) Accurately ripped
5 | (9/9) Accurately ripped
6 | (9/9) Accurately ripped
7 | (9/9) Accurately ripped
8 | (9/9) Accurately ripped
9 | (9/9) Accurately ripped
10 | (9/9) Accurately ripped
11 | (9/9) Accurately ripped
12 | (9/9) Accurately ripped
13 | (9/9) Accurately ripped
14 | (9/9) Accurately ripped
15 | (9/9) Accurately ripped
16 | (9/9) Accurately ripped
17 | (9/9) Accurately ripped
18 | (9/9) Accurately ripped
19 | (9/9) Accurately ripped
20 | (9/9) Accurately ripped
21 | (9/9) Accurately ripped
22 | (9/9) Accurately ripped
23 | (9/9) Accurately ripped
24 | (9/9) Accurately ripped
25 | (9/9) Accurately ripped
26 | (9/9) Accurately ripped
27 | (9/9) Accurately ripped
28 | (9/9) Accurately ripped
29 | (9/9) Accurately ripped
==== Log checksum 74CC66627AC4A5F80514627FDC1FB63FC583F72A8F00B4EF4CD0A7E51D6A5F54 ====

♦ CD2

Трeклист:

01. The Land of Make Believe [2:53]
02. That Please-Be-Mineable Feeling [2:16]
03. Dancing in the Street [3:10]
04. You're So Different [3:03]
05. I Wouldn't Have Known It [2:33]
06. Let's Get Happy [2:19]
07. Undecided [2:26]
08. 'Taint What You Do [2:54]
09. Do You Wanna Jump, Children [2:47]
10. Riffin' in F Minor [2:07]
11. Ol' Man Mose Ain't Dead [3:30]
12. Blue Lou [3:01]
13. Honey [2:11]
14. Russian Lullaby [2:08]
15. Georgie Porgie [2:24]
16. The Limp [2:53]
17. Snug as a Bug in a Rug [2:35]
18. Liebestraum [3:23]
19. Fidgety Joe [2:57]
20. Two Against One [3:00]
21. Some Like It Hot [3:10]
22. Crazy Rhythm [2:01]
23. Moonglow [2:57]
24. Don't Let That Moon Get Away [2:46]
25. My Blue Heaven [1:36]
26. I Was Doing All Right [2:17]
27. I Can't Get Started [2:42]
28. Old Man Moon [2:16]
29. Carry Me Back to Old Virginny [2:15]
Продолжительность:
01:16:31

Лог создания рипа

Exact Audio Copy V1.3 from 2. September 2016
EAC extraction logfile from 23. December 2019, 11:58
Nat King Cole / Hittin' the Ramp: The Early Years (1936-1943)
Used drive : PLEXTOR PX-891SAF Adapter: 1 ID: 0
Read mode : Secure
Utilize accurate stream : Yes
Defeat audio cache : Yes
Make use of C2 pointers : No
Read offset correction : 6
Overread into Lead-In and Lead-Out : No
Fill up missing offset samples with silence : Yes
Delete leading and trailing silent blocks : No
Null samples used in CRC calculations : Yes
Used interface : Native Win32 interface for Win NT & 2000
Gap handling : Appended to previous track
Used output format : User Defined Encoder
Selected bitrate : 1024 kBit/s
Quality : High
Add ID3 tag : No
Command line compressor : C:\Program Files (x86)\Exact Audio Copy\Flac\flac.exe
Additional command line options : -8 -V -T "ARTIST=%artist%" -T "TITLE=%title%" -T "ALBUM=%albumtitle%" -T "DATE=%year%" -T "TRACKNUMBER=%tracknr%" -T "GENRE=%genre%" -T "PERFORMER=%albuminterpret%" -T "COMPOSER=%composer%" %haslyrics%--tag-from-file=LYRICS="%lyricsfile%"%haslyrics% -T "ALBUMARTIST=%albumartist%" -T "DISCNUMBER=%cdnumber%" -T "TOTALDISCS=%totalcds%" -T "TOTALTRACKS=%numtracks%" -T "COMMENT=%comment%" %source% -o %dest%
TOC of the extracted CD
Track | Start | Length | Start sector | End sector
---------------------------------------------------------
1 | 0:00.00 | 2:52.58 | 0 | 12957
2 | 2:52.58 | 2:15.51 | 12958 | 23133
3 | 5:08.34 | 3:09.51 | 23134 | 37359
4 | 8:18.10 | 3:02.64 | 37360 | 51073
5 | 11:20.74 | 2:33.37 | 51074 | 62585
6 | 13:54.36 | 2:18.60 | 62586 | 72995
7 | 16:13.21 | 2:26.10 | 72996 | 83955
8 | 18:39.31 | 2:53.68 | 83956 | 96998
9 | 21:33.24 | 2:46.68 | 96999 | 109516
10 | 24:20.17 | 2:06.62 | 109517 | 119028
11 | 26:27.04 | 3:30.28 | 119029 | 134806
12 | 29:57.32 | 3:01.13 | 134807 | 148394
13 | 32:58.45 | 2:11.27 | 148395 | 158246
14 | 35:09.72 | 2:07.72 | 158247 | 167843
15 | 37:17.69 | 2:23.68 | 167844 | 178636
16 | 39:41.62 | 2:52.51 | 178637 | 191587
17 | 42:34.38 | 2:35.15 | 191588 | 203227
18 | 45:09.53 | 3:23.10 | 203228 | 218462
19 | 48:32.63 | 2:57.07 | 218463 | 231744
20 | 51:29.70 | 3:00.28 | 231745 | 245272
21 | 54:30.23 | 3:09.42 | 245273 | 259489
22 | 57:39.65 | 2:00.55 | 259490 | 268544
23 | 59:40.45 | 2:57.27 | 268545 | 281846
24 | 62:37.72 | 2:45.42 | 281847 | 294263
25 | 65:23.39 | 1:36.30 | 294264 | 301493
26 | 66:59.69 | 2:17.29 | 301494 | 311797
27 | 69:17.23 | 2:41.65 | 311798 | 323937
28 | 71:59.13 | 2:16.37 | 323938 | 334174
29 | 74:15.50 | 2:15.31 | 334175 | 344330
Track 1
Filename D:\#cdr\#wav+flac\Nat King Cole - Hittin' The Ramp - The Early Years (1936 – 1943)\cd 2\01. Nat King Cole - The Land of Make Believe [1939, Davis & Schwegler Transcription].wav
Pre-gap length 0:00:02.00
Peak level 58.6 %
Extraction speed 5.3 X
Track quality 100.0 %
Test CRC 3B5FF0BE
Copy CRC 3B5FF0BE
Accurately ripped (confidence 3) [C3D7EB90] (AR v2)
Copy OK
Track 2
Filename D:\#cdr\#wav+flac\Nat King Cole - Hittin' The Ramp - The Early Years (1936 – 1943)\cd 2\02. Nat King Cole - That Please-Be-Mine-Able Feeling [1939, Davis & Schwegler Transcription].wav
Peak level 89.1 %
Extraction speed 5.3 X
Track quality 100.0 %
Test CRC 79A48839
Copy CRC 79A48839
Accurately ripped (confidence 3) [95013FBA] (AR v2)
Copy OK
Track 3
Filename D:\#cdr\#wav+flac\Nat King Cole - Hittin' The Ramp - The Early Years (1936 – 1943)\cd 2\03. Nat King Cole - Dancing in the Street [1939, Davis & Schwegler Transcription].wav
Peak level 79.4 %
Extraction speed 6.0 X
Track quality 100.0 %
Test CRC 4DFA64B6
Copy CRC 4DFA64B6
Accurately ripped (confidence 3) [B871C6C2] (AR v2)
Copy OK
Track 4
Filename D:\#cdr\#wav+flac\Nat King Cole - Hittin' The Ramp - The Early Years (1936 – 1943)\cd 2\04. Nat King Cole - You're So Different [1939, Davis & Schwegler Transcription].wav
Peak level 100.0 %
Extraction speed 6.3 X
Track quality 100.0 %
Test CRC CECEB4DC
Copy CRC CECEB4DC
Accurately ripped (confidence 3) [21E07694] (AR v2)
Copy OK
Track 5
Filename D:\#cdr\#wav+flac\Nat King Cole - Hittin' The Ramp - The Early Years (1936 – 1943)\cd 2\05. Nat King Cole - I Wouldn't Have Known It [1939, Davis & Schwegler Transcription].wav
Peak level 59.7 %
Extraction speed 6.3 X
Track quality 100.0 %
Test CRC FD3AE640
Copy CRC FD3AE640
Accurately ripped (confidence 3) [FD984CFF] (AR v2)
Copy OK
Track 6
Filename D:\#cdr\#wav+flac\Nat King Cole - Hittin' The Ramp - The Early Years (1936 – 1943)\cd 2\06. Nat King Cole - Let's Get Happy [1939, Davis & Schwegler Transcription].wav
Peak level 80.2 %
Extraction speed 4.9 X
Track quality 99.9 %
Test CRC E8500DEC
Copy CRC E8500DEC
Accurately ripped (confidence 3) [C6A5157C] (AR v2)
Copy OK
Track 7
Filename D:\#cdr\#wav+flac\Nat King Cole - Hittin' The Ramp - The Early Years (1936 – 1943)\cd 2\07. Nat King Cole - Undecided [1939, Standard Transcription] N.wav
Peak level 97.6 %
Extraction speed 6.8 X
Track quality 100.0 %
Test CRC AACC9EFB
Copy CRC AACC9EFB
Accurately ripped (confidence 3) [C490B963] (AR v2)
Copy OK
Track 8
Filename D:\#cdr\#wav+flac\Nat King Cole - Hittin' The Ramp - The Early Years (1936 – 1943)\cd 2\08. Nat King Cole - 'Taint What You Do [1939, Standard Transcription].wav
Peak level 77.1 %
Extraction speed 7.2 X
Track quality 100.0 %
Test CRC 63120D35
Copy CRC 63120D35
Accurately ripped (confidence 3) [F78F72FF] (AR v2)
Copy OK
Track 9
Filename D:\#cdr\#wav+flac\Nat King Cole - Hittin' The Ramp - The Early Years (1936 – 1943)\cd 2\09. Nat King Cole - Do You Wanna Jump, Children [1939, Standard Transcription].wav
Peak level 86.0 %
Extraction speed 7.4 X
Track quality 100.0 %
Test CRC E2162661
Copy CRC E2162661
Accurately ripped (confidence 3) [633B1CFB] (AR v2)
Copy OK
Track 10
Filename D:\#cdr\#wav+flac\Nat King Cole - Hittin' The Ramp - The Early Years (1936 – 1943)\cd 2\10. Nat King Cole - Riffin' in F Minor [1939, Standard Transcription].wav
Peak level 68.3 %
Extraction speed 5.2 X
Track quality 99.9 %
Test CRC BAA662BB
Copy CRC BAA662BB
Accurately ripped (confidence 3) [52A8EAE3] (AR v2)
Copy OK
Track 11
Filename D:\#cdr\#wav+flac\Nat King Cole - Hittin' The Ramp - The Early Years (1936 – 1943)\cd 2\11. Nat King Cole - Ol' Man Mose Ain't Dead [1939, Standard Transcription].wav
Peak level 100.0 %
Extraction speed 8.1 X
Track quality 100.0 %
Test CRC 50953F43
Copy CRC 50953F43
Accurately ripped (confidence 3) [404602E3] (AR v2)
Copy OK
Track 12
Filename D:\#cdr\#wav+flac\Nat King Cole - Hittin' The Ramp - The Early Years (1936 – 1943)\cd 2\12. Nat King Cole - Blue Lou [1939, Standard Transcription].wav
Peak level 92.5 %
Extraction speed 8.1 X
Track quality 100.0 %
Test CRC C30CE01E
Copy CRC C30CE01E
Accurately ripped (confidence 3) [19BFC2C4] (AR v2)
Copy OK
Track 13
Filename D:\#cdr\#wav+flac\Nat King Cole - Hittin' The Ramp - The Early Years (1936 – 1943)\cd 2\13. Nat King Cole - Honey [1939, Standard Transcription].wav
Peak level 90.3 %
Extraction speed 7.9 X
Track quality 100.0 %
Test CRC 0A1F10DD
Copy CRC 0A1F10DD
Accurately ripped (confidence 3) [F0FB188D] (AR v2)
Copy OK
Track 14
Filename D:\#cdr\#wav+flac\Nat King Cole - Hittin' The Ramp - The Early Years (1936 – 1943)\cd 2\14. Nat King Cole - Russian Lullaby [1939, Standard Transcription].wav
Peak level 73.9 %
Extraction speed 7.9 X
Track quality 100.0 %
Test CRC 35BC14E2
Copy CRC 35BC14E2
Accurately ripped (confidence 3) [78E0E1DA] (AR v2)
Copy OK
Track 15
Filename D:\#cdr\#wav+flac\Nat King Cole - Hittin' The Ramp - The Early Years (1936 – 1943)\cd 2\15. Nat King Cole - Georgie Porgie [1939, Standard Transcription].wav
Peak level 79.0 %
Extraction speed 8.3 X
Track quality 100.0 %
Test CRC D0075659
Copy CRC D0075659
Accurately ripped (confidence 3) [E486B63D] (AR v2)
Copy OK
Track 16
Filename D:\#cdr\#wav+flac\Nat King Cole - Hittin' The Ramp - The Early Years (1936 – 1943)\cd 2\16. Nat King Cole - The Limp [1939, Standard Transcription].wav
Peak level 74.0 %
Extraction speed 8.8 X
Track quality 100.0 %
Test CRC 5D9746A1
Copy CRC 5D9746A1
Accurately ripped (confidence 3) [4736E12F] (AR v2)
Copy OK
Track 17
Filename D:\#cdr\#wav+flac\Nat King Cole - Hittin' The Ramp - The Early Years (1936 – 1943)\cd 2\17. Nat King Cole - Snug as a Bug in a Rug [1939, Standard Transcription].wav
Peak level 71.0 %
Extraction speed 8.6 X
Track quality 100.0 %
Test CRC B3BD00E0
Copy CRC B3BD00E0
Accurately ripped (confidence 3) [8080A9A3] (AR v2)
Copy OK
Track 18
Filename D:\#cdr\#wav+flac\Nat King Cole - Hittin' The Ramp - The Early Years (1936 – 1943)\cd 2\18. Nat King Cole - Liebestraum [1939, Standard Transcription].wav
Peak level 66.0 %
Extraction speed 9.4 X
Track quality 100.0 %
Test CRC 02C5DA30
Copy CRC 02C5DA30
Accurately ripped (confidence 3) [0D86D708] (AR v2)
Copy OK
Track 19
Filename D:\#cdr\#wav+flac\Nat King Cole - Hittin' The Ramp - The Early Years (1936 – 1943)\cd 2\19. Nat King Cole - Fidgety Joe [1939, Standard Transcription].wav
Peak level 76.7 %
Extraction speed 9.4 X
Track quality 100.0 %
Test CRC D6DA20FC
Copy CRC D6DA20FC
Accurately ripped (confidence 3) [96457F7D] (AR v2)
Copy OK
Track 20
Filename D:\#cdr\#wav+flac\Nat King Cole - Hittin' The Ramp - The Early Years (1936 – 1943)\cd 2\20. Nat King Cole - Two Against One [1939, Standard Transcription].wav
Peak level 56.0 %
Extraction speed 9.5 X
Track quality 100.0 %
Test CRC 854E442A
Copy CRC 854E442A
Accurately ripped (confidence 3) [79371145] (AR v2)
Copy OK
Track 21
Filename D:\#cdr\#wav+flac\Nat King Cole - Hittin' The Ramp - The Early Years (1936 – 1943)\cd 2\21. Nat King Cole - Some Like It Hot [1939, Standard Transcription].wav
Peak level 54.1 %
Extraction speed 8.0 X
Track quality 99.9 %
Test CRC 63E715B9
Copy CRC 63E715B9
Accurately ripped (confidence 3) [8299D3D3] (AR v2)
Copy OK
Track 22
Filename D:\#cdr\#wav+flac\Nat King Cole - Hittin' The Ramp - The Early Years (1936 – 1943)\cd 2\22. Nat King Cole - Crazy Rhythm [1939, Standard Transcription].wav
Peak level 64.0 %
Extraction speed 9.3 X
Track quality 100.0 %
Test CRC 997F8845
Copy CRC 997F8845
Accurately ripped (confidence 3) [9C744E75] (AR v2)
Copy OK
Track 23
Filename D:\#cdr\#wav+flac\Nat King Cole - Hittin' The Ramp - The Early Years (1936 – 1943)\cd 2\23. Nat King Cole - Moonglow [1939, Standard Transcription].wav
Peak level 64.4 %
Extraction speed 10.1 X
Track quality 100.0 %
Test CRC E6A52530
Copy CRC E6A52530
Accurately ripped (confidence 3) [BAD352AE] (AR v2)
Copy OK
Track 24
Filename D:\#cdr\#wav+flac\Nat King Cole - Hittin' The Ramp - The Early Years (1936 – 1943)\cd 2\24. Nat King Cole - Don't Let That Moon Get Away [1939, Standard Transcription].wav
Peak level 62.7 %
Extraction speed 10.1 X
Track quality 100.0 %
Test CRC 606FE4DC
Copy CRC 606FE4DC
Accurately ripped (confidence 3) [D7D279B1] (AR v2)
Copy OK
Track 25
Filename D:\#cdr\#wav+flac\Nat King Cole - Hittin' The Ramp - The Early Years (1936 – 1943)\cd 2\25. Nat King Cole - My Blue Heaven [1939, Standard Transcription].wav
Peak level 64.8 %
Extraction speed 9.0 X
Track quality 100.0 %
Test CRC ABFE5691
Copy CRC ABFE5691
Accurately ripped (confidence 3) [E93D70CE] (AR v2)
Copy OK
Track 26
Filename D:\#cdr\#wav+flac\Nat King Cole - Hittin' The Ramp - The Early Years (1936 – 1943)\cd 2\26. Nat King Cole - I Was Doing Alright [1939, Standard Transcription].wav
Peak level 71.3 %
Extraction speed 9.9 X
Track quality 100.0 %
Test CRC A2762099
Copy CRC A2762099
Accurately ripped (confidence 3) [36227600] (AR v2)
Copy OK
Track 27
Filename D:\#cdr\#wav+flac\Nat King Cole - Hittin' The Ramp - The Early Years (1936 – 1943)\cd 2\27. Nat King Cole - I Can't Get Started [1939, Standard Transcription].wav
Peak level 82.6 %
Extraction speed 10.3 X
Track quality 100.0 %
Test CRC D823FEB0
Copy CRC D823FEB0
Accurately ripped (confidence 3) [7BFB7014] (AR v2)
Copy OK
Track 28
Filename D:\#cdr\#wav+flac\Nat King Cole - Hittin' The Ramp - The Early Years (1936 – 1943)\cd 2\28. Nat King Cole - Old Man Moon [1939, Standard Transcription].wav
Peak level 83.5 %
Extraction speed 10.1 X
Track quality 100.0 %
Test CRC 61A6B65D
Copy CRC 61A6B65D
Accurately ripped (confidence 3) [CB3053B8] (AR v2)
Copy OK
Track 29
Filename D:\#cdr\#wav+flac\Nat King Cole - Hittin' The Ramp - The Early Years (1936 – 1943)\cd 2\29. Nat King Cole - Carry Me Back to Old Virginny [1939, Standard Transcription].wav
Peak level 75.2 %
Extraction speed 10.0 X
Track quality 100.0 %
Test CRC A9693F4F
Copy CRC A9693F4F
Accurately ripped (confidence 3) [BF67ABC4] (AR v2)
Copy OK
All tracks accurately ripped
No errors occurred
End of status report
---- CUETools DB Plugin V2.1.6
[CTDB TOCID: ZQ3oO3S1seSN98tef.ERLPrOyts-] found
Submit result: ZQ3oO3S1seSN98tef.ERLPrOyts- has been confirmed
Track | CTDB Status
1 | (9/9) Accurately ripped
2 | (9/9) Accurately ripped
3 | (9/9) Accurately ripped
4 | (9/9) Accurately ripped
5 | (9/9) Accurately ripped
6 | (9/9) Accurately ripped
7 | (9/9) Accurately ripped
8 | (9/9) Accurately ripped
9 | (9/9) Accurately ripped
10 | (9/9) Accurately ripped
11 | (9/9) Accurately ripped
12 | (9/9) Accurately ripped
13 | (9/9) Accurately ripped
14 | (9/9) Accurately ripped
15 | (9/9) Accurately ripped
16 | (9/9) Accurately ripped
17 | (9/9) Accurately ripped
18 | (9/9) Accurately ripped
19 | (9/9) Accurately ripped
20 | (9/9) Accurately ripped
21 | (9/9) Accurately ripped
22 | (9/9) Accurately ripped
23 | (9/9) Accurately ripped
24 | (9/9) Accurately ripped
25 | (9/9) Accurately ripped
26 | (9/9) Accurately ripped
27 | (9/9) Accurately ripped
28 | (9/9) Accurately ripped
29 | (9/9) Accurately ripped
==== Log checksum FDA160F696646AA561D7552F314A6E4C959D25D2B7B07FDDD3222D04D0DCB46F ====

♦ CD3

Трeклист:

01. Moon Song [3:10]
02. Baby, Won't You Please Come Home [2:20]
03. Rosetta [2:11]
04. Trompin' [2:46]
05. You're My Life [2:55]
06. Hoy Soy [2:34]
07. Take 'Em [2:25]
08. Scategoria [2:32]
09. Rhythm Serenade [2:36]
10. Rib Town Shuffle [2:46]
11. Music'll Chase Your Blues Away [2:02]
12. I'll Gather Up My Memories [3:34]
13. A Fool's Affair [3:35]
14. Jump, Jack, Jump [2:47]
15. I Knew a Time [3:06]
16. Mine You'll Always Be [3:18]
17. Doin' the Bow Wow [2:44]
18. Lilla Mae [2:19]
19. I Like to Riff [2:50]
20. On the Sunny Side of the Street [2:56]
21. Black Spider Stomp [2:40]
22. By the River St. Marie [2:26]
23. Slew Foot Joe [2:15]
24. 1-2-3-4 [2:09]
25. Crazy 'Bout Rhythm [2:05]
26. Off the Beam [2:18]
27. King Cole Blues [2:07]
28. Jivin' with the Notes [2:02]
29. Never Mind, Baby [1:47]
Продолжительность:
01:15:15

Лог создания рипа

Exact Audio Copy V1.3 from 2. September 2016
EAC extraction logfile from 23. December 2019, 12:27
Nat King Cole / Hittin' the Ramp- The Early Years (1936-1943)
Used drive : PLEXTOR PX-891SAF Adapter: 1 ID: 0
Read mode : Secure
Utilize accurate stream : Yes
Defeat audio cache : Yes
Make use of C2 pointers : No
Read offset correction : 6
Overread into Lead-In and Lead-Out : No
Fill up missing offset samples with silence : Yes
Delete leading and trailing silent blocks : No
Null samples used in CRC calculations : Yes
Used interface : Native Win32 interface for Win NT & 2000
Gap handling : Appended to previous track
Used output format : User Defined Encoder
Selected bitrate : 1024 kBit/s
Quality : High
Add ID3 tag : No
Command line compressor : C:\Program Files (x86)\Exact Audio Copy\Flac\flac.exe
Additional command line options : -8 -V -T "ARTIST=%artist%" -T "TITLE=%title%" -T "ALBUM=%albumtitle%" -T "DATE=%year%" -T "TRACKNUMBER=%tracknr%" -T "GENRE=%genre%" -T "PERFORMER=%albuminterpret%" -T "COMPOSER=%composer%" %haslyrics%--tag-from-file=LYRICS="%lyricsfile%"%haslyrics% -T "ALBUMARTIST=%albumartist%" -T "DISCNUMBER=%cdnumber%" -T "TOTALDISCS=%totalcds%" -T "TOTALTRACKS=%numtracks%" -T "COMMENT=%comment%" %source% -o %dest%
TOC of the extracted CD
Track | Start | Length | Start sector | End sector
---------------------------------------------------------
1 | 0:00.00 | 3:09.72 | 0 | 14246
2 | 3:09.72 | 2:20.15 | 14247 | 24761
3 | 5:30.12 | 2:11.02 | 24762 | 34588
4 | 7:41.14 | 2:46.16 | 34589 | 47054
5 | 10:27.30 | 2:54.72 | 47055 | 60176
6 | 13:22.27 | 2:33.72 | 60177 | 71723
7 | 15:56.24 | 2:24.46 | 71724 | 82569
8 | 18:20.70 | 2:32.06 | 82570 | 93975
9 | 20:53.01 | 2:35.68 | 93976 | 105668
10 | 23:28.69 | 2:46.23 | 105669 | 118141
11 | 26:15.17 | 2:01.67 | 118142 | 127283
12 | 28:17.09 | 3:34.07 | 127284 | 143340
13 | 31:51.16 | 3:34.56 | 143341 | 159446
14 | 35:25.72 | 2:47.21 | 159447 | 171992
15 | 38:13.18 | 3:05.65 | 171993 | 185932
16 | 41:19.08 | 3:18.02 | 185933 | 200784
17 | 44:37.10 | 2:44.03 | 200785 | 213087
18 | 47:21.13 | 2:18.66 | 213088 | 223503
19 | 49:40.04 | 2:49.59 | 223504 | 236237
20 | 52:29.63 | 2:55.66 | 236238 | 249428
21 | 55:25.54 | 2:40.16 | 249429 | 261444
22 | 58:05.70 | 2:25.67 | 261445 | 272386
23 | 60:31.62 | 2:14.42 | 272387 | 282478
24 | 62:46.29 | 2:09.29 | 282479 | 292182
25 | 64:55.58 | 2:05.24 | 292183 | 301581
26 | 67:01.07 | 2:18.37 | 301582 | 311968
27 | 69:19.44 | 2:07.04 | 311969 | 321497
28 | 71:26.48 | 2:01.52 | 321498 | 330624
29 | 73:28.25 | 1:46.52 | 330625 | 338626
Track 1
Filename D:\#cdr\#wav+flac\Nat King Cole - Hittin' The Ramp - The Early Years (1936 – 1943)\cd 3\01. Nat King Cole - Moon Song [1939, Standard Transcription].wav
Pre-gap length 0:00:02.00
Peak level 51.6 %
Extraction speed 5.5 X
Track quality 100.0 %
Test CRC 1C72170D
Copy CRC 1C72170D
Accurately ripped (confidence 2) [BC9C9D07] (AR v2)
Copy OK
Track 2
Filename D:\#cdr\#wav+flac\Nat King Cole - Hittin' The Ramp - The Early Years (1936 – 1943)\cd 3\02. Nat King Cole - Baby, Won't You Please Come Home [1939, Standard Transcription].wav
Peak level 65.8 %
Extraction speed 5.5 X
Track quality 100.0 %
Test CRC 0C75E853
Copy CRC 0C75E853
Accurately ripped (confidence 2) [4714F82F] (AR v2)
Copy OK
Track 3
Filename D:\#cdr\#wav+flac\Nat King Cole - Hittin' The Ramp - The Early Years (1936 – 1943)\cd 3\03. Nat King Cole - Rosetta [1939, Standard Transcription].wav
Peak level 45.1 %
Extraction speed 5.7 X
Track quality 100.0 %
Test CRC EBD4C471
Copy CRC EBD4C471
Accurately ripped (confidence 2) [A6446CBE] (AR v2)
Copy OK
Track 4
Filename D:\#cdr\#wav+flac\Nat King Cole - Hittin' The Ramp - The Early Years (1936 – 1943)\cd 3\04. Nat King Cole - Trompin' [1939, Standard Transcription].wav
Peak level 67.1 %
Extraction speed 6.3 X
Track quality 100.0 %
Test CRC 6565A6CD
Copy CRC 6565A6CD
Accurately ripped (confidence 2) [7AC2589D] (AR v2)
Copy OK
Track 5
Filename D:\#cdr\#wav+flac\Nat King Cole - Hittin' The Ramp - The Early Years (1936 – 1943)\cd 3\05. Nat King Cole - You're My Life [1939, Standard Transcription].wav
Peak level 55.7 %
Extraction speed 5.2 X
Track quality 99.9 %
Test CRC 302791A2
Copy CRC 302791A2
Accurately ripped (confidence 2) [38E2EC92] (AR v2)
Copy OK
Track 6
Filename D:\#cdr\#wav+flac\Nat King Cole - Hittin' The Ramp - The Early Years (1936 – 1943)\cd 3\06. Nat King Cole - Hoy Soy [1939, Standard Transcription].wav
Peak level 55.8 %
Extraction speed 6.8 X
Track quality 100.0 %
Test CRC D8E9A3A4
Copy CRC D8E9A3A4
Accurately ripped (confidence 2) [B6874AF8] (AR v2)
Copy OK
Track 7
Filename D:\#cdr\#wav+flac\Nat King Cole - Hittin' The Ramp - The Early Years (1936 – 1943)\cd 3\07. Nat King Cole - Take 'em [1939, Standard Transcription].wav
Peak level 68.8 %
Extraction speed 6.9 X
Track quality 100.0 %
Test CRC FAB4912E
Copy CRC FAB4912E
Accurately ripped (confidence 2) [C8057418] (AR v2)
Copy OK
Track 8
Filename D:\#cdr\#wav+flac\Nat King Cole - Hittin' The Ramp - The Early Years (1936 – 1943)\cd 3\08. Nat King Cole - Scategoria [1939, Standard Transcription].wav
Peak level 69.7 %
Extraction speed 5.5 X
Track quality 99.9 %
Test CRC 82B90D2A
Copy CRC 82B90D2A
Accurately ripped (confidence 2) [A00ADE31] (AR v2)
Copy OK
Track 9
Filename D:\#cdr\#wav+flac\Nat King Cole - Hittin' The Ramp - The Early Years (1936 – 1943)\cd 3\09. Nat King Cole - Rhythm Serenade [1939, Standard Transcription].wav
Peak level 52.3 %
Extraction speed 7.5 X
Track quality 100.0 %
Test CRC A27A9A3D
Copy CRC A27A9A3D
Accurately ripped (confidence 2) [F999223F] (AR v2)
Copy OK
Track 10
Filename D:\#cdr\#wav+flac\Nat King Cole - Hittin' The Ramp - The Early Years (1936 – 1943)\cd 3\10. Nat King Cole - Rib Town Shuffle [1939, Standard Transcription].wav
Peak level 61.6 %
Extraction speed 6.0 X
Track quality 99.9 %
Test CRC E5682C1B
Copy CRC E5682C1B
Accurately ripped (confidence 2) [CDC44A60] (AR v2)
Copy OK
Track 11
Filename D:\#cdr\#wav+flac\Nat King Cole - Hittin' The Ramp - The Early Years (1936 – 1943)\cd 3\11. Nat King Cole - Music'll Chase Your Blues Away [1939, Standard Transcription].wav
Peak level 65.0 %
Extraction speed 7.5 X
Track quality 100.0 %
Test CRC 2044201F
Copy CRC 2044201F
Accurately ripped (confidence 2) [45C64E54] (AR v2)
Copy OK
Track 12
Filename D:\#cdr\#wav+flac\Nat King Cole - Hittin' The Ramp - The Early Years (1936 – 1943)\cd 3\12. Nat King Cole - I'll Gather Up My Memories [1939, Standard Transcription].wav
Peak level 75.2 %
Extraction speed 6.9 X
Track quality 99.9 %
Test CRC 8DF306E7
Copy CRC 8DF306E7
Accurately ripped (confidence 2) [BE0CF276] (AR v2)
Copy OK
Track 13
Filename D:\#cdr\#wav+flac\Nat King Cole - Hittin' The Ramp - The Early Years (1936 – 1943)\cd 3\13. Nat King Cole - A Fool's Affair [1939, Standard Transcription].wav
Peak level 70.1 %
Extraction speed 8.9 X
Track quality 100.0 %
Test CRC EE2D9E19
Copy CRC EE2D9E19
Accurately ripped (confidence 2) [B6257DFE] (AR v2)
Copy OK
Track 14
Filename D:\#cdr\#wav+flac\Nat King Cole - Hittin' The Ramp - The Early Years (1936 – 1943)\cd 3\14. Nat King Cole - Jump, Jack, Jump [1939, Standard Transcription].wav
Peak level 71.2 %
Extraction speed 6.6 X
Track quality 99.9 %
Test CRC C8F9CCA9
Copy CRC C8F9CCA9
Accurately ripped (confidence 2) [BBB0F58C] (AR v2)
Copy OK
Track 15
Filename D:\#cdr\#wav+flac\Nat King Cole - Hittin' The Ramp - The Early Years (1936 – 1943)\cd 3\15. Nat King Cole - I Knew a Time [1939, Standard Transcription].wav
Peak level 64.8 %
Extraction speed 9.1 X
Track quality 100.0 %
Test CRC F123DB75
Copy CRC F123DB75
Accurately ripped (confidence 2) [4728B417] (AR v2)
Copy OK
Track 16
Filename D:\#cdr\#wav+flac\Nat King Cole - Hittin' The Ramp - The Early Years (1936 – 1943)\cd 3\16. Nat King Cole - Mine You'll Always Be [1939, Standard Transcription].wav
Peak level 61.7 %
Extraction speed 9.5 X
Track quality 100.0 %
Test CRC 08FE67DC
Copy CRC 08FE67DC
Accurately ripped (confidence 2) [EA354C3C] (AR v2)
Copy OK
Track 17
Filename D:\#cdr\#wav+flac\Nat King Cole - Hittin' The Ramp - The Early Years (1936 – 1943)\cd 3\17. Nat King Cole - Doin' The Bow Wow [1939, Standard Transcription].wav
Peak level 66.8 %
Extraction speed 9.3 X
Track quality 100.0 %
Test CRC 3C651A13
Copy CRC 3C651A13
Accurately ripped (confidence 2) [959BBF63] (AR v2)
Copy OK
Track 18
Filename D:\#cdr\#wav+flac\Nat King Cole - Hittin' The Ramp - The Early Years (1936 – 1943)\cd 3\18. Nat King Cole - Lilla Mae [1939, Standard Transcription].wav
Peak level 66.2 %
Extraction speed 9.3 X
Track quality 100.0 %
Test CRC AC0262F9
Copy CRC AC0262F9
Accurately ripped (confidence 2) [BFBBE0A9] (AR v2)
Copy OK
Track 19
Filename D:\#cdr\#wav+flac\Nat King Cole - Hittin' The Ramp - The Early Years (1936 – 1943)\cd 3\19. Nat King Cole - I Like to Riff [1940, Ammo, Master take].wav
Peak level 92.4 %
Extraction speed 9.5 X
Track quality 100.0 %
Test CRC 6458138B
Copy CRC 6458138B
Accurately ripped (confidence 2) [17B35213] (AR v2)
Copy OK
Track 20
Filename D:\#cdr\#wav+flac\Nat King Cole - Hittin' The Ramp - The Early Years (1936 – 1943)\cd 3\20. Nat King Cole - On the Sunny Side of the Street [1940, Ammor Master take].wav
Peak level 100.0 %
Extraction speed 9.7 X
Track quality 100.0 %
Test CRC B62DC41D
Copy CRC B62DC41D
Accurately ripped (confidence 2) [2D4D4195] (AR v2)
Copy OK
Track 21
Filename D:\#cdr\#wav+flac\Nat King Cole - Hittin' The Ramp - The Early Years (1936 – 1943)\cd 3\21. Nat King Cole - Black Spider Stomp [1940, Ammor Master take].wav
Peak level 100.0 %
Extraction speed 9.6 X
Track quality 100.0 %
Test CRC 01E5729D
Copy CRC 01E5729D
Accurately ripped (confidence 2) [AD1035BA] (AR v2)
Copy OK
Track 22
Filename D:\#cdr\#wav+flac\Nat King Cole - Hittin' The Ramp - The Early Years (1936 – 1943)\cd 3\22. Nat King Cole - By the River St. Marie [1940, Ammor Master take].wav
Peak level 70.2 %
Extraction speed 9.6 X
Track quality 100.0 %
Test CRC 65CC598E
Copy CRC 65CC598E
Accurately ripped (confidence 2) [FECA438A] (AR v2)
Copy OK
Track 23
Filename D:\#cdr\#wav+flac\Nat King Cole - Hittin' The Ramp - The Early Years (1936 – 1943)\cd 3\23. Nat King Cole - Slew Foot Joe [1940, Standard Transcription].wav
Peak level 82.5 %
Extraction speed 9.6 X
Track quality 100.0 %
Test CRC 734DF09E
Copy CRC 734DF09E
Accurately ripped (confidence 2) [048F5553] (AR v2)
Copy OK
Track 24
Filename D:\#cdr\#wav+flac\Nat King Cole - Hittin' The Ramp - The Early Years (1936 – 1943)\cd 3\24. Nat King Cole - 1-2-3-4 [1940, Standard Transcription].wav
Peak level 83.5 %
Extraction speed 9.7 X
Track quality 100.0 %
Test CRC 46817BFE
Copy CRC 46817BFE
Accurately ripped (confidence 2) [E9C8CC41] (AR v2)
Copy OK
Track 25
Filename D:\#cdr\#wav+flac\Nat King Cole - Hittin' The Ramp - The Early Years (1936 – 1943)\cd 3\25. Nat King Cole - Crazy 'Bout Rhythm [1940, Standard Transcription].wav
Peak level 93.9 %
Extraction speed 9.6 X
Track quality 100.0 %
Test CRC 466BB4D6
Copy CRC 466BB4D6
Accurately ripped (confidence 2) [846C1D98] (AR v2)
Copy OK
Track 26
Filename D:\#cdr\#wav+flac\Nat King Cole - Hittin' The Ramp - The Early Years (1936 – 1943)\cd 3\26. Nat King Cole - Off the Beam [1940, Standard Transcription].wav
Peak level 63.3 %
Extraction speed 10.0 X
Track quality 100.0 %
Test CRC F7CBDF57
Copy CRC F7CBDF57
Accurately ripped (confidence 2) [8D118281] (AR v2)
Copy OK
Track 27
Filename D:\#cdr\#wav+flac\Nat King Cole - Hittin' The Ramp - The Early Years (1936 – 1943)\cd 3\27. Nat King Cole - King Cole Blues [1940, Standard Transcription].wav
Peak level 87.1 %
Extraction speed 9.8 X
Track quality 100.0 %
Test CRC 01A485FA
Copy CRC 01A485FA
Accurately ripped (confidence 2) [10DC1976] (AR v2)
Copy OK
Track 28
Filename D:\#cdr\#wav+flac\Nat King Cole - Hittin' The Ramp - The Early Years (1936 – 1943)\cd 3\28. Nat King Cole - Jivin' With the Notes [1940, Standard Transcription].wav
Peak level 84.1 %
Extraction speed 10.0 X
Track quality 100.0 %
Test CRC 16A80776
Copy CRC 16A80776
Accurately ripped (confidence 2) [C9203062] (AR v2)
Copy OK
Track 29
Filename D:\#cdr\#wav+flac\Nat King Cole - Hittin' The Ramp - The Early Years (1936 – 1943)\cd 3\29. Nat King Cole - Never Mind, Baby [1940, Keystone Transcription].wav
Peak level 100.0 %
Extraction speed 9.6 X
Track quality 100.0 %
Test CRC BAC971F6
Copy CRC BAC971F6
Accurately ripped (confidence 2) [040BDAF2] (AR v2)
Copy OK
All tracks accurately ripped
No errors occurred
End of status report
---- CUETools DB Plugin V2.1.6
[CTDB TOCID: IV_FYfJvWT1UAkfiz6IWqcRlBlk-] found
Submit result: IV_FYfJvWT1UAkfiz6IWqcRlBlk- has been confirmed
Track | CTDB Status
1 | (9/9) Accurately ripped
2 | (9/9) Accurately ripped
3 | (9/9) Accurately ripped
4 | (9/9) Accurately ripped
5 | (9/9) Accurately ripped
6 | (9/9) Accurately ripped
7 | (9/9) Accurately ripped
8 | (9/9) Accurately ripped
9 | (9/9) Accurately ripped
10 | (9/9) Accurately ripped
11 | (9/9) Accurately ripped
12 | (9/9) Accurately ripped
13 | (9/9) Accurately ripped
14 | (9/9) Accurately ripped
15 | (9/9) Accurately ripped
16 | (9/9) Accurately ripped
17 | (9/9) Accurately ripped
18 | (9/9) Accurately ripped
19 | (9/9) Accurately ripped
20 | (9/9) Accurately ripped
21 | (9/9) Accurately ripped
22 | (9/9) Accurately ripped
23 | (9/9) Accurately ripped
24 | (9/9) Accurately ripped
25 | (9/9) Accurately ripped
26 | (9/9) Accurately ripped
27 | (9/9) Accurately ripped
28 | (9/9) Accurately ripped
29 | (9/9) Accurately ripped
==== Log checksum FECF9A373EDB9419FFBC0C530F025F39C45D1EA7400B8CA3CC3FE4ADEC5E861E ====

♦ CD4

Трeклист:

01. I'm a Perfect Fool over You [2:39]
02. Lovely Little Person [2:24]
03. Love Me Sooner [2:32]
04. Sentimental Blue [2:47]
05. Goin' to Town with Honey [2:24]
06. Syncopated Lullaby [1:52]
07. Falling In and Out of Love [1:51]
08. Let's Do Things [2:02]
09. Jumpy Jitters [1:51]
10. Nothing Ever Happens [2:39]
11. What'cha Doin' to My Heart [1:36]
12. Bedtime [2:44]
13. Honey Hush [2:19]
14. French Toast [2:17]
15. Vine Street Jump [2:43]
16. B Flat [2:32]
17. You Send Me [2:11]
18. Love Is My Alibi [3:14]
19. Pogo Stick Bounce [2:19]
20. Whatcha' Know, Joe? [2:37]
21. Sweet Lorraine [2:57]
22. Honeysuckle Rose [2:35]
23. Gone with the Draft [2:45]
24. This Side Up [2:49]
25. Jumpin' with the Mop [2:26]
26. Jam Man [2:05]
27. Let's Try Again [3:05]
28. Fudge Wudge [3:53]
29. Smokey Joe [2:01]
30. Windy City Boogie Woogie [2:26]
31. Ode to a Wild Clam [2:27]
Продолжительность:
01:17:02

Лог создания рипа

Exact Audio Copy V1.3 from 2. September 2016
EAC extraction logfile from 23. December 2019, 13:50
Nat King Cole / Hittin' the Ramp- The Early Years (1936-1943)
Used drive : PLEXTOR PX-891SAF Adapter: 1 ID: 0
Read mode : Secure
Utilize accurate stream : Yes
Defeat audio cache : Yes
Make use of C2 pointers : No
Read offset correction : 6
Overread into Lead-In and Lead-Out : No
Fill up missing offset samples with silence : Yes
Delete leading and trailing silent blocks : No
Null samples used in CRC calculations : Yes
Used interface : Native Win32 interface for Win NT & 2000
Gap handling : Appended to previous track
Used output format : User Defined Encoder
Selected bitrate : 1024 kBit/s
Quality : High
Add ID3 tag : No
Command line compressor : C:\Program Files (x86)\Exact Audio Copy\Flac\flac.exe
Additional command line options : -8 -V -T "ARTIST=%artist%" -T "TITLE=%title%" -T "ALBUM=%albumtitle%" -T "DATE=%year%" -T "TRACKNUMBER=%tracknr%" -T "GENRE=%genre%" -T "PERFORMER=%albuminterpret%" -T "COMPOSER=%composer%" %haslyrics%--tag-from-file=LYRICS="%lyricsfile%"%haslyrics% -T "ALBUMARTIST=%albumartist%" -T "DISCNUMBER=%cdnumber%" -T "TOTALDISCS=%totalcds%" -T "TOTALTRACKS=%numtracks%" -T "COMMENT=%comment%" %source% -o %dest%
TOC of the extracted CD
Track | Start | Length | Start sector | End sector
---------------------------------------------------------
1 | 0:00.00 | 2:38.54 | 0 | 11903
2 | 2:38.54 | 2:23.49 | 11904 | 22677
3 | 5:02.28 | 2:32.37 | 22678 | 34114
4 | 7:34.65 | 2:47.04 | 34115 | 46643
5 | 10:21.69 | 2:23.65 | 46644 | 57433
6 | 12:45.59 | 1:51.41 | 57434 | 65799
7 | 14:37.25 | 1:50.49 | 65800 | 74098
8 | 16:27.74 | 2:01.56 | 74099 | 83229
9 | 18:29.55 | 1:51.10 | 83230 | 91564
10 | 20:20.65 | 2:38.60 | 91565 | 103474
11 | 22:59.50 | 1:35.43 | 103475 | 110642
12 | 24:35.18 | 2:44.10 | 110643 | 122952
13 | 27:19.28 | 2:18.50 | 122953 | 133352
14 | 29:38.03 | 2:17.07 | 133353 | 143634
15 | 31:55.10 | 2:43.17 | 143635 | 155876
16 | 34:38.27 | 2:32.20 | 155877 | 167296
17 | 37:10.47 | 2:11.18 | 167297 | 177139
18 | 39:21.65 | 3:13.51 | 177140 | 191665
19 | 42:35.41 | 2:19.24 | 191666 | 202114
20 | 44:54.65 | 2:36.61 | 202115 | 213875
21 | 47:31.51 | 2:57.22 | 213876 | 227172
22 | 50:28.73 | 2:34.49 | 227173 | 238771
23 | 53:03.47 | 2:44.64 | 238772 | 251135
24 | 55:48.36 | 2:49.25 | 251136 | 263835
25 | 58:37.61 | 2:26.27 | 263836 | 274812
26 | 61:04.13 | 2:05.30 | 274813 | 284217
27 | 63:09.43 | 3:05.23 | 284218 | 298115
28 | 66:14.66 | 3:52.49 | 298116 | 315564
29 | 70:07.40 | 2:00.39 | 315565 | 324603
30 | 72:08.04 | 2:26.36 | 324604 | 335589
31 | 74:34.40 | 2:27.20 | 335590 | 346634
Track 1
Filename D:\#cdr\#wav+flac\Nat King Cole - Hittin' The Ramp - The Early Years (1936 – 1943)\cd 4\01. Nat King Cole - I'm a Perfect Fool Over You [1940, Keystone Transcription].wav
Pre-gap length 0:00:02.00
Peak level 78.7 %
Extraction speed 4.1 X
Track quality 99.9 %
Test CRC 64620E4A
Copy CRC 64620E4A
Accurately ripped (confidence 2) [4D84BBF9] (AR v2)
Copy OK
Track 2
Filename D:\#cdr\#wav+flac\Nat King Cole - Hittin' The Ramp - The Early Years (1936 – 1943)\cd 4\02. Nat King Cole - Lovely Little Person [1940, Keystone Transcription].wav
Peak level 100.0 %
Extraction speed 5.4 X
Track quality 100.0 %
Test CRC BE4602EF
Copy CRC BE4602EF
Accurately ripped (confidence 2) [0E3A0FCE] (AR v2)
Copy OK
Track 3
Filename D:\#cdr\#wav+flac\Nat King Cole - Hittin' The Ramp - The Early Years (1936 – 1943)\cd 4\03. Nat King Cole - Love Me Sooner [1940, Keystone Transcription].wav
Peak level 71.4 %
Extraction speed 5.8 X
Track quality 100.0 %
Test CRC 9F3E3749
Copy CRC 9F3E3749
Accurately ripped (confidence 2) [05042EFC] (AR v2)
Copy OK
Track 4
Filename D:\#cdr\#wav+flac\Nat King Cole - Hittin' The Ramp - The Early Years (1936 – 1943)\cd 4\04. Nat King Cole - Sentimental Blue [1940, Keystone Transcription].wav
Peak level 70.8 %
Extraction speed 6.1 X
Track quality 100.0 %
Test CRC 81B9BE27
Copy CRC 81B9BE27
Accurately ripped (confidence 2) [1F31BE31] (AR v2)
Copy OK
Track 5
Filename D:\#cdr\#wav+flac\Nat King Cole - Hittin' The Ramp - The Early Years (1936 – 1943)\cd 4\05. Nat King Cole - Goin' to Town With Honey [1940, Keystone Transcription].wav
Peak level 70.4 %
Extraction speed 6.3 X
Track quality 100.0 %
Test CRC CA42C58A
Copy CRC CA42C58A
Accurately ripped (confidence 2) [D7F42DA5] (AR v2)
Copy OK
Track 6
Filename D:\#cdr\#wav+flac\Nat King Cole - Hittin' The Ramp - The Early Years (1936 – 1943)\cd 4\06. Nat King Cole - Syncopated Lullaby [1940, Keystone Transcription].wav
Peak level 78.6 %
Extraction speed 4.4 X
Track quality 99.9 %
Test CRC F7F4F360
Copy CRC F7F4F360
Accurately ripped (confidence 2) [70950B25] (AR v2)
Copy OK
Track 7
Filename D:\#cdr\#wav+flac\Nat King Cole - Hittin' The Ramp - The Early Years (1936 – 1943)\cd 4\07. Nat King Cole - Falling in and Out of Love [1940, Keystone Transcription].wav
Peak level 82.8 %
Extraction speed 6.2 X
Track quality 100.0 %
Test CRC 06AE0E2F
Copy CRC 06AE0E2F
Accurately ripped (confidence 2) [019BE4DA] (AR v2)
Copy OK
Track 8
Filename D:\#cdr\#wav+flac\Nat King Cole - Hittin' The Ramp - The Early Years (1936 – 1943)\cd 4\08. Nat King Cole - Let's Do Things [1940, Keystone Transcription].wav
Peak level 91.7 %
Extraction speed 6.5 X
Track quality 100.0 %
Test CRC 9FF341A0
Copy CRC 9FF341A0
Accurately ripped (confidence 2) [F56454A9] (AR v2)
Copy OK
Track 9
Filename D:\#cdr\#wav+flac\Nat King Cole - Hittin' The Ramp - The Early Years (1936 – 1943)\cd 4\09. Nat King Cole - Jumpy Jitters [1940, Keystone Transcription].wav
Peak level 91.9 %
Extraction speed 6.6 X
Track quality 100.0 %
Test CRC D241D818
Copy CRC D241D818
Accurately ripped (confidence 2) [4CC8935D] (AR v2)
Copy OK
Track 10
Filename D:\#cdr\#wav+flac\Nat King Cole - Hittin' The Ramp - The Early Years (1936 – 1943)\cd 4\10. Nat King Cole - Nothing Ever Happens [1940, Keystone Transcription].wav
Peak level 85.6 %
Extraction speed 7.3 X
Track quality 100.0 %
Test CRC 91AFE3E7
Copy CRC 91AFE3E7
Accurately ripped (confidence 2) [E80B63E6] (AR v2)
Copy OK
Track 11
Filename D:\#cdr\#wav+flac\Nat King Cole - Hittin' The Ramp - The Early Years (1936 – 1943)\cd 4\11. Nat King Cole - What'cha Doin' to My Heart [1940, Keystone Transcription].wav
Peak level 85.7 %
Extraction speed 4.6 X
Track quality 99.8 %
Test CRC CB37D406
Copy CRC CB37D406
Accurately ripped (confidence 2) [5C7441D3] (AR v2)
Copy OK
Track 12
Filename D:\#cdr\#wav+flac\Nat King Cole - Hittin' The Ramp - The Early Years (1936 – 1943)\cd 4\12. Nat King Cole - Bedtime [1940, Standard Transcription].wav
Peak level 58.8 %
Extraction speed 7.7 X
Track quality 100.0 %
Test CRC 69A5C17A
Copy CRC 69A5C17A
Accurately ripped (confidence 2) [62B488E3] (AR v2)
Copy OK
Track 13
Filename D:\#cdr\#wav+flac\Nat King Cole - Hittin' The Ramp - The Early Years (1936 – 1943)\cd 4\13. Nat King Cole - Honey Hush [1940, Standard Transcription].wav
Peak level 68.2 %
Extraction speed 7.6 X
Track quality 100.0 %
Test CRC 39082D90
Copy CRC 39082D90
Accurately ripped (confidence 2) [B020E2D9] (AR v2)
Copy OK
Track 14
Filename D:\#cdr\#wav+flac\Nat King Cole - Hittin' The Ramp - The Early Years (1936 – 1943)\cd 4\14. Nat King Cole - French Toast [1940, Standard Transcription].wav
Peak level 52.5 %
Extraction speed 5.7 X
Track quality 99.9 %
Test CRC 821EE05A
Copy CRC 821EE05A
Accurately ripped (confidence 2) [15DEA665] (AR v2)
Copy OK
Track 15
Filename D:\#cdr\#wav+flac\Nat King Cole - Hittin' The Ramp - The Early Years (1936 – 1943)\cd 4\15. Nat King Cole - Vine Street Jump [1940, Standard Transcription].wav
Peak level 51.4 %
Extraction speed 8.2 X
Track quality 100.0 %
Test CRC 396B7E22
Copy CRC 396B7E22
Accurately ripped (confidence 2) [F563C993] (AR v2)
Copy OK
Track 16
Filename D:\#cdr\#wav+flac\Nat King Cole - Hittin' The Ramp - The Early Years (1936 – 1943)\cd 4\16. Nat King Cole - B Flat [1940, Standard Transcription].wav
Peak level 49.0 %
Extraction speed 8.4 X
Track quality 100.0 %
Test CRC 0B6BA7ED
Copy CRC 0B6BA7ED
Accurately ripped (confidence 2) [B754CF0E] (AR v2)
Copy OK
Track 17
Filename D:\#cdr\#wav+flac\Nat King Cole - Hittin' The Ramp - The Early Years (1936 – 1943)\cd 4\17. Nat King Cole - You Send Me [1940, Standard Transcription].wav
Peak level 57.2 %
Extraction speed 8.2 X
Track quality 100.0 %
Test CRC D1E39591
Copy CRC D1E39591
Accurately ripped (confidence 2) [69F537EB] (AR v2)
Copy OK
Track 18
Filename D:\#cdr\#wav+flac\Nat King Cole - Hittin' The Ramp - The Early Years (1936 – 1943)\cd 4\18. Nat King Cole - Love Is My Alibi [1940, Standard Transcription].wav
Peak level 39.7 %
Extraction speed 9.0 X
Track quality 100.0 %
Test CRC 4312CC2D
Copy CRC 4312CC2D
Accurately ripped (confidence 2) [F66D14D6] (AR v2)
Copy OK
Track 19
Filename D:\#cdr\#wav+flac\Nat King Cole - Hittin' The Ramp - The Early Years (1936 – 1943)\cd 4\19. Nat King Cole - Pogo Stick Bounce [1940, Standard Transcription].wav
Peak level 46.6 %
Extraction speed 8.7 X
Track quality 100.0 %
Test CRC 67237B9C
Copy CRC 67237B9C
Accurately ripped (confidence 2) [53F8C61F] (AR v2)
Copy OK
Track 20
Filename D:\#cdr\#wav+flac\Nat King Cole - Hittin' The Ramp - The Early Years (1936 – 1943)\cd 4\20. Nat King Cole - Whatcha' Know, Joe [1940, Unreleased radio Broadcast].wav
Peak level 64.5 %
Extraction speed 9.0 X
Track quality 100.0 %
Test CRC DFE806C0
Copy CRC DFE806C0
Accurately ripped (confidence 2) [A733629F] (AR v2)
Copy OK
Track 21
Filename D:\#cdr\#wav+flac\Nat King Cole - Hittin' The Ramp - The Early Years (1936 – 1943)\cd 4\21. Nat King Cole - Sweet Lorraine [1940, Decca Master take].wav
Peak level 61.4 %
Extraction speed 7.4 X
Track quality 99.9 %
Test CRC 408177B4
Copy CRC 408177B4
Accurately ripped (confidence 2) [37FBC4E2] (AR v2)
Copy OK
Track 22
Filename D:\#cdr\#wav+flac\Nat King Cole - Hittin' The Ramp - The Early Years (1936 – 1943)\cd 4\22. Nat King Cole - Honeysuckle Rose [1940, Decca Master take].wav
Peak level 72.5 %
Extraction speed 9.3 X
Track quality 100.0 %
Test CRC A719DCE3
Copy CRC A719DCE3
Accurately ripped (confidence 2) [F3B0EC67] (AR v2)
Copy OK
Track 23
Filename D:\#cdr\#wav+flac\Nat King Cole - Hittin' The Ramp - The Early Years (1936 – 1943)\cd 4\23. Nat King Cole - Gone With the Draft [1940, Decca Master take].wav
Peak level 66.1 %
Extraction speed 9.6 X
Track quality 100.0 %
Test CRC 9BEF21CE
Copy CRC 9BEF21CE
Accurately ripped (confidence 2) [EC5CF6C2] (AR v2)
Copy OK
Track 24
Filename D:\#cdr\#wav+flac\Nat King Cole - Hittin' The Ramp - The Early Years (1936 – 1943)\cd 4\24. Nat King Cole - This Side Up [1940, Decca Master take].wav
Peak level 58.9 %
Extraction speed 7.8 X
Track quality 99.9 %
Test CRC 196969D8
Copy CRC 196969D8
Accurately ripped (confidence 2) [EBAE3F35] (AR v2)
Copy OK
Track 25
Filename D:\#cdr\#wav+flac\Nat King Cole - Hittin' The Ramp - The Early Years (1936 – 1943)\cd 4\25. Nat King Cole - Jumpin' With the Mop [1941, Standard Transcription].wav
Peak level 68.5 %
Extraction speed 9.8 X
Track quality 100.0 %
Test CRC E36E73EC
Copy CRC E36E73EC
Accurately ripped (confidence 2) [FFFBA357] (AR v2)
Copy OK
Track 26
Filename D:\#cdr\#wav+flac\Nat King Cole - Hittin' The Ramp - The Early Years (1936 – 1943)\cd 4\26. Nat King Cole - Jam Man [1941, Standard Transcription].wav
Peak level 70.3 %
Extraction speed 9.5 X
Track quality 100.0 %
Test CRC DDF0C74F
Copy CRC DDF0C74F
Accurately ripped (confidence 2) [F0689F21] (AR v2)
Copy OK
Track 27
Filename D:\#cdr\#wav+flac\Nat King Cole - Hittin' The Ramp - The Early Years (1936 – 1943)\cd 4\27. Nat King Cole - Let's Try Again [1941, Standard Transcription].wav
Peak level 62.3 %
Extraction speed 10.3 X
Track quality 100.0 %
Test CRC 20EB54CB
Copy CRC 20EB54CB
Accurately ripped (confidence 2) [61DEE5FF] (AR v2)
Copy OK
Track 28
Filename D:\#cdr\#wav+flac\Nat King Cole - Hittin' The Ramp - The Early Years (1936 – 1943)\cd 4\28. Nat King Cole - Fudge Wudge [1941, Standard Transcription].wav
Peak level 85.5 %
Extraction speed 10.9 X
Track quality 100.0 %
Test CRC 7ACD2FB3
Copy CRC 7ACD2FB3
Accurately ripped (confidence 2) [D261E810] (AR v2)
Copy OK
Track 29
Filename D:\#cdr\#wav+flac\Nat King Cole - Hittin' The Ramp - The Early Years (1936 – 1943)\cd 4\29. Nat King Cole - Smokey Joe [1941, Standard Transcription].wav
Peak level 65.5 %
Extraction speed 7.2 X
Track quality 99.9 %
Test CRC 7C12D270
Copy CRC 7C12D270
Accurately ripped (confidence 2) [EF8D6CC0] (AR v2)
Copy OK
Track 30
Filename D:\#cdr\#wav+flac\Nat King Cole - Hittin' The Ramp - The Early Years (1936 – 1943)\cd 4\30. Nat King Cole - Windy City Boogie Woogie [1941, Standard Transcription].wav
Peak level 63.3 %
Extraction speed 10.3 X
Track quality 100.0 %
Test CRC 6FCE966D
Copy CRC 6FCE966D
Accurately ripped (confidence 2) [6CC6580F] (AR v2)
Copy OK
Track 31
Filename D:\#cdr\#wav+flac\Nat King Cole - Hittin' The Ramp - The Early Years (1936 – 1943)\cd 4\31. Nat King Cole - Ode to a Wild Clam [1941, Standard Transcription].wav
Peak level 81.7 %
Extraction speed 10.2 X
Track quality 100.0 %
Test CRC 21A2AF22
Copy CRC 21A2AF22
Accurately ripped (confidence 2) [88A2066C] (AR v2)
Copy OK
All tracks accurately ripped
No errors occurred
End of status report
---- CUETools DB Plugin V2.1.6
[CTDB TOCID: AYlKmzkisaKT7q6IxAeCpTfNEUs-] found
Submit result: AYlKmzkisaKT7q6IxAeCpTfNEUs- has been confirmed
Track | CTDB Status
1 | (9/9) Accurately ripped
2 | (9/9) Accurately ripped
3 | (9/9) Accurately ripped
4 | (9/9) Accurately ripped
5 | (9/9) Accurately ripped
6 | (9/9) Accurately ripped
7 | (9/9) Accurately ripped
8 | (9/9) Accurately ripped
9 | (9/9) Accurately ripped
10 | (9/9) Accurately ripped
11 | (9/9) Accurately ripped
12 | (9/9) Accurately ripped
13 | (9/9) Accurately ripped
14 | (9/9) Accurately ripped
15 | (9/9) Accurately ripped
16 | (9/9) Accurately ripped
17 | (9/9) Accurately ripped
18 | (9/9) Accurately ripped
19 | (9/9) Accurately ripped
20 | (9/9) Accurately ripped
21 | (9/9) Accurately ripped
22 | (9/9) Accurately ripped
23 | (9/9) Accurately ripped
24 | (9/9) Accurately ripped
25 | (9/9) Accurately ripped
26 | (9/9) Accurately ripped
27 | (9/9) Accurately ripped
28 | (9/9) Accurately ripped
29 | (9/9) Accurately ripped
30 | (9/9) Accurately ripped
31 | (9/9) Accurately ripped
==== Log checksum 87AB391BD89715B0DB911609E48B285BDED2D162A14C74B2E93E54794F10BBCF ====

♦ CD5

Трeклист:

01. Let's Try Again [3:10]
02. Whatcha' Know, Joe? [2:14]
03. Lazy River [1:46]
04. Georgia on My Mind [2:46]
05. Rockin' Chair [3:13]
06. A Little Jive Is Good for You [3:41]
07. You've Changed [3:05]
08. Babs [2:27]
09. Scotchin' with the Soda [2:35]
10. Slow Down [3:11]
11. Early Morning Blues [2:47]
12. The Romany Room Is Jumpin' [2:38]
13. This Will Make You Laugh [3:14]
14. Stop! The Red Light's On [2:39]
15. Hit the Ramp [3:21]
16. I Like to Riff [2:48]
17. Call the Police [3:08]
18. Are You Fer It? [3:07]
19. That Ain't Right [3:14]
20. Hit That Jive, Jack [2:59]
21. Indiana [4:56]
22. I Can't Get Started [4:56]
Продолжительность:
01:07:55

Лог создания рипа

Exact Audio Copy V1.3 from 2. September 2016
EAC extraction logfile from 23. December 2019, 14:13
Nat King Cole / Hittin' the Ramp- The Early Years (1936-1943)
Used drive : PLEXTOR PX-891SAF Adapter: 1 ID: 0
Read mode : Secure
Utilize accurate stream : Yes
Defeat audio cache : Yes
Make use of C2 pointers : No
Read offset correction : 6
Overread into Lead-In and Lead-Out : No
Fill up missing offset samples with silence : Yes
Delete leading and trailing silent blocks : No
Null samples used in CRC calculations : Yes
Used interface : Native Win32 interface for Win NT & 2000
Gap handling : Appended to previous track
Used output format : User Defined Encoder
Selected bitrate : 1024 kBit/s
Quality : High
Add ID3 tag : No
Command line compressor : C:\Program Files (x86)\Exact Audio Copy\Flac\flac.exe
Additional command line options : -8 -V -T "ARTIST=%artist%" -T "TITLE=%title%" -T "ALBUM=%albumtitle%" -T "DATE=%year%" -T "TRACKNUMBER=%tracknr%" -T "GENRE=%genre%" -T "PERFORMER=%albuminterpret%" -T "COMPOSER=%composer%" %haslyrics%--tag-from-file=LYRICS="%lyricsfile%"%haslyrics% -T "ALBUMARTIST=%albumartist%" -T "DISCNUMBER=%cdnumber%" -T "TOTALDISCS=%totalcds%" -T "TOTALTRACKS=%numtracks%" -T "COMMENT=%comment%" %source% -o %dest%
TOC of the extracted CD
Track | Start | Length | Start sector | End sector
---------------------------------------------------------
1 | 0:00.00 | 3:10.04 | 0 | 14253
2 | 3:10.04 | 2:13.63 | 14254 | 24291
3 | 5:23.67 | 1:46.37 | 24292 | 32278
4 | 7:10.29 | 2:45.40 | 32279 | 44693
5 | 9:55.69 | 3:12.48 | 44694 | 59141
6 | 13:08.42 | 3:40.53 | 59142 | 75694
7 | 16:49.20 | 3:04.64 | 75695 | 89558
8 | 19:54.09 | 2:27.19 | 89559 | 100602
9 | 22:21.28 | 2:35.01 | 100603 | 112228
10 | 24:56.29 | 3:11.10 | 112229 | 126563
11 | 28:07.39 | 2:46.42 | 126564 | 139055
12 | 30:54.06 | 2:37.66 | 139056 | 150896
13 | 33:31.72 | 3:13.60 | 150897 | 165431
14 | 36:45.57 | 2:39.36 | 165432 | 177392
15 | 39:25.18 | 3:21.03 | 177393 | 192470
16 | 42:46.21 | 2:48.34 | 192471 | 205104
17 | 45:34.55 | 3:08.01 | 205105 | 219205
18 | 48:42.56 | 3:06.50 | 219206 | 233205
19 | 51:49.31 | 3:14.10 | 233206 | 247765
20 | 55:03.41 | 2:59.31 | 247766 | 261221
21 | 58:02.72 | 4:55.64 | 261222 | 283410
22 | 62:58.61 | 4:56.30 | 283411 | 305640
Track 1
Filename D:\#cdr\#wav+flac\Nat King Cole - Hittin' The Ramp - The Early Years (1936 – 1943)\cd 5\01. Nat King Cole - Let's Try Again [1941, Macgregor Transcription].wav
Pre-gap length 0:00:02.00
Peak level 84.9 %
Extraction speed 5.3 X
Track quality 100.0 %
Test CRC 7477465C
Copy CRC 7477465C
Accurately ripped (confidence 2) [7C3FE081] (AR v2)
Copy OK
Track 2
Filename D:\#cdr\#wav+flac\Nat King Cole - Hittin' The Ramp - The Early Years (1936 – 1943)\cd 5\02. Nat King Cole - Whatcha' Know, Joe [1941, Macgregor Transcription].wav
Peak level 81.6 %
Extraction speed 5.2 X
Track quality 100.0 %
Test CRC 714414B6
Copy CRC 714414B6
Accurately ripped (confidence 2) [B40425C5] (AR v2)
Copy OK
Track 3
Filename D:\#cdr\#wav+flac\Nat King Cole - Hittin' The Ramp - The Early Years (1936 – 1943)\cd 5\03. Nat King Cole - Lazy River [1941, Macgregor Transcription].wav
Peak level 73.6 %
Extraction speed 5.2 X
Track quality 100.0 %
Test CRC 95B48FEC
Copy CRC 95B48FEC
Accurately ripped (confidence 2) [1B3EF1FE] (AR v2)
Copy OK
Track 4
Filename D:\#cdr\#wav+flac\Nat King Cole - Hittin' The Ramp - The Early Years (1936 – 1943)\cd 5\04. Nat King Cole - Georgia on My Mind [1941, Macgregor Transcription].wav
Peak level 80.1 %
Extraction speed 6.0 X
Track quality 100.0 %
Test CRC 35200E9D
Copy CRC 35200E9D
Accurately ripped (confidence 2) [E108936C] (AR v2)
Copy OK
Track 5
Filename D:\#cdr\#wav+flac\Nat King Cole - Hittin' The Ramp - The Early Years (1936 – 1943)\cd 5\05. Nat King Cole - Rockin' Chair [1941, Macgregor Transcription].wav
Peak level 79.2 %
Extraction speed 6.5 X
Track quality 100.0 %
Test CRC 79A71155
Copy CRC 79A71155
Accurately ripped (confidence 2) [4E6DE3B2] (AR v2)
Copy OK
Track 6
Filename D:\#cdr\#wav+flac\Nat King Cole - Hittin' The Ramp - The Early Years (1936 – 1943)\cd 5\06. Nat King Cole - A Little Jive Is Good for You [1941, Macgregor Transcription].wav
Peak level 100.0 %
Extraction speed 6.9 X
Track quality 100.0 %
Test CRC 1C9AE047
Copy CRC 1C9AE047
Accurately ripped (confidence 2) [5D80970F] (AR v2)
Copy OK
Track 7
Filename D:\#cdr\#wav+flac\Nat King Cole - Hittin' The Ramp - The Early Years (1936 – 1943)\cd 5\07. Nat King Cole - You've Changed [1941, Macgregor Transcription].wav
Peak level 87.8 %
Extraction speed 7.1 X
Track quality 100.0 %
Test CRC D1F54C7A
Copy CRC D1F54C7A
Accurately ripped (confidence 2) [44077AAF] (AR v2)
Copy OK
Track 8
Filename D:\#cdr\#wav+flac\Nat King Cole - Hittin' The Ramp - The Early Years (1936 – 1943)\cd 5\08. Nat King Cole - Babs [1941, Decca Master take].wav
Peak level 98.0 %
Extraction speed 7.0 X
Track quality 100.0 %
Test CRC 79DC1353
Copy CRC 79DC1353
Accurately ripped (confidence 2) [33BFCFAF] (AR v2)
Copy OK
Track 9
Filename D:\#cdr\#wav+flac\Nat King Cole - Hittin' The Ramp - The Early Years (1936 – 1943)\cd 5\09. Nat King Cole - Scotchin' With the Soda [1941, Decca Master take].wav
Peak level 89.6 %
Extraction speed 5.5 X
Track quality 99.9 %
Test CRC 0DACD55B
Copy CRC 0DACD55B
Accurately ripped (confidence 2) [86DBAD64] (AR v2)
Copy OK
Track 10
Filename D:\#cdr\#wav+flac\Nat King Cole - Hittin' The Ramp - The Early Years (1936 – 1943)\cd 5\10. Nat King Cole - Slow Down [1941, Decca Master take].wav
Peak level 88.2 %
Extraction speed 7.8 X
Track quality 100.0 %
Test CRC BDE01A22
Copy CRC BDE01A22
Accurately ripped (confidence 2) [1263EBA6] (AR v2)
Copy OK
Track 11
Filename D:\#cdr\#wav+flac\Nat King Cole - Hittin' The Ramp - The Early Years (1936 – 1943)\cd 5\11. Nat King Cole - Early Morning Blues [1941, Decca Master take].wav
Peak level 76.7 %
Extraction speed 7.8 X
Track quality 100.0 %
Test CRC 9295A49E
Copy CRC 9295A49E
Accurately ripped (confidence 2) [F86E79A7] (AR v2)
Copy OK
Track 12
Filename D:\#cdr\#wav+flac\Nat King Cole - Hittin' The Ramp - The Early Years (1936 – 1943)\cd 5\12. Nat King Cole - The Romany Room Is Jumpin' [1941, Unreleased Private Recording].wav
Peak level 100.0 %
Extraction speed 8.0 X
Track quality 100.0 %
Test CRC CEBAF6A4
Copy CRC CEBAF6A4
Accurately ripped (confidence 2) [0C6A873D] (AR v2)
Copy OK
Track 13
Filename D:\#cdr\#wav+flac\Nat King Cole - Hittin' The Ramp - The Early Years (1936 – 1943)\cd 5\13. Nat King Cole - This Will Make You Laugh [1941, Decca Master take].wav
Peak level 91.1 %
Extraction speed 8.6 X
Track quality 100.0 %
Test CRC 0630BC0A
Copy CRC 0630BC0A
Accurately ripped (confidence 2) [B8A1E100] (AR v2)
Copy OK
Track 14
Filename D:\#cdr\#wav+flac\Nat King Cole - Hittin' The Ramp - The Early Years (1936 – 1943)\cd 5\14. Nat King Cole - Stop! The Red Light's On [1941, Decca Master take].wav
Peak level 74.9 %
Extraction speed 8.5 X
Track quality 100.0 %
Test CRC 93C5E58A
Copy CRC 93C5E58A
Accurately ripped (confidence 2) [786DC756] (AR v2)
Copy OK
Track 15
Filename D:\#cdr\#wav+flac\Nat King Cole - Hittin' The Ramp - The Early Years (1936 – 1943)\cd 5\15. Nat King Cole - Hit the Ramp [1941, Decca Master take].wav
Peak level 74.9 %
Extraction speed 9.1 X
Track quality 100.0 %
Test CRC 6567FE98
Copy CRC 6567FE98
Accurately ripped (confidence 2) [FE1FE8F1] (AR v2)
Copy OK
Track 16
Filename D:\#cdr\#wav+flac\Nat King Cole - Hittin' The Ramp - The Early Years (1936 – 1943)\cd 5\16. Nat King Cole - I Like to Riff [1941, Decca Master take].wav
Peak level 71.8 %
Extraction speed 9.0 X
Track quality 100.0 %
Test CRC EE64277C
Copy CRC EE64277C
Accurately ripped (confidence 2) [D15DCB78] (AR v2)
Copy OK
Track 17
Filename D:\#cdr\#wav+flac\Nat King Cole - Hittin' The Ramp - The Early Years (1936 – 1943)\cd 5\17. Nat King Cole - Call the Police [1941, Decca Master take].wav
Peak level 72.9 %
Extraction speed 9.1 X
Track quality 100.0 %
Test CRC DF471F3A
Copy CRC DF471F3A
Accurately ripped (confidence 2) [F15A7615] (AR v2)
Copy OK
Track 18
Filename D:\#cdr\#wav+flac\Nat King Cole - Hittin' The Ramp - The Early Years (1936 – 1943)\cd 5\18. Nat King Cole - Are You Fer It [1941, Decca Master take].wav
Peak level 67.1 %
Extraction speed 9.4 X
Track quality 100.0 %
Test CRC 7BE45B07
Copy CRC 7BE45B07
Accurately ripped (confidence 2) [009B9E3C] (AR v2)
Copy OK
Track 19
Filename D:\#cdr\#wav+flac\Nat King Cole - Hittin' The Ramp - The Early Years (1936 – 1943)\cd 5\19. Nat King Cole - That Ain't Right [1941, Decca Master take].wav
Peak level 64.2 %
Extraction speed 9.7 X
Track quality 100.0 %
Test CRC 2E0D8F58
Copy CRC 2E0D8F58
Accurately ripped (confidence 2) [F86A2747] (AR v2)
Copy OK
Track 20
Filename D:\#cdr\#wav+flac\Nat King Cole - Hittin' The Ramp - The Early Years (1936 – 1943)\cd 5\20. Nat King Cole - Hit That Jive, Jack [1941, Decca Master take].wav
Peak level 84.1 %
Extraction speed 10.0 X
Track quality 100.0 %
Test CRC 50E0C3BB
Copy CRC 50E0C3BB
Accurately ripped (confidence 2) [11CCA97F] (AR v2)
Copy OK
Track 21
Filename D:\#cdr\#wav+flac\Nat King Cole - Hittin' The Ramp - The Early Years (1936 – 1943)\cd 5\21. Nat King Cole - Indiana [1942, Philo, W,Lester Young].wav
Peak level 48.5 %
Extraction speed 10.8 X
Track quality 100.0 %
Test CRC C9D4A1B1
Copy CRC C9D4A1B1
Accurately ripped (confidence 2) [8FE37FD1] (AR v2)
Copy OK
Track 22
Filename D:\#cdr\#wav+flac\Nat King Cole - Hittin' The Ramp - The Early Years (1936 – 1943)\cd 5\22. Nat King Cole - I Can't Get Started [1942, Philo, W,Lester Young].wav
Peak level 49.7 %
Extraction speed 11.0 X
Track quality 100.0 %
Test CRC 581622DF
Copy CRC 581622DF
Accurately ripped (confidence 2) [9CFAB8C5] (AR v2)
Copy OK
All tracks accurately ripped
No errors occurred
End of status report
---- CUETools DB Plugin V2.1.6
[CTDB TOCID: YzbZ094i5qS9PvGZBNLOthRQQfQ-] found
Submit result: YzbZ094i5qS9PvGZBNLOthRQQfQ- has been confirmed
Track | CTDB Status
1 | (9/9) Accurately ripped
2 | (9/9) Accurately ripped
3 | (9/9) Accurately ripped
4 | (9/9) Accurately ripped
5 | (9/9) Accurately ripped
6 | (9/9) Accurately ripped
7 | (9/9) Accurately ripped
8 | (9/9) Accurately ripped
9 | (9/9) Accurately ripped
10 | (9/9) Accurately ripped
11 | (9/9) Accurately ripped
12 | (9/9) Accurately ripped
13 | (9/9) Accurately ripped
14 | (9/9) Accurately ripped
15 | (9/9) Accurately ripped
16 | (9/9) Accurately ripped
17 | (9/9) Accurately ripped
18 | (9/9) Accurately ripped
19 | (9/9) Accurately ripped
20 | (9/9) Accurately ripped
21 | (9/9) Accurately ripped
22 | (9/9) Accurately ripped
==== Log checksum 6175E64A0B400CA0D4CE21A3BE2E90C38925B24390654919C72C6EB1FDE507C0 ====

♦ CD6

Трeклист:

01. Tea for Two [4:50]
02. Body and Soul [5:12]
03. Vom, Vim, Veedle [3:02]
04. All for You [3:29]
05. Hip Hip Hooray [2:25]
06. I Know That You Know [2:10]
07. I'm Gonna Move to the Outskirts of Town [3:45]
08. Pitchin' Up a Boogie [3:14]
09. I'm Lost [3:20]
10. Beautiful Moons Ago [2:28]
11. Let's Spring One [2:43]
12. Slender, Tender, and Tall [2:07]
13. I've Found a New Baby [4:44]
14. Rosetta [5:11]
15. Sweet Lorraine [4:57]
16. I Blowed and Gone [4:48]
17. Solid Potato Salad [2:09]
18. F.S.T. (Fine, Sweet & Tasty) [3:07]
19. Got a Penny [2:36]
20. Let's Pretend [3:18]
21. My Lips Remember Your Kisses [3:11]
22. I'm an Errand Boy for Rhythm [1:51]
23. Straighten Up and Fly Right [2:47]
Продолжительность:
01:17:23

Лог создания рипа

Exact Audio Copy V1.3 from 2. September 2016
EAC extraction logfile from 23. December 2019, 14:38
Nat King Cole / Hittin' the Ramp- The Early Years (1936-1943)
Used drive : PLEXTOR PX-891SAF Adapter: 1 ID: 0
Read mode : Secure
Utilize accurate stream : Yes
Defeat audio cache : Yes
Make use of C2 pointers : No
Read offset correction : 6
Overread into Lead-In and Lead-Out : No
Fill up missing offset samples with silence : Yes
Delete leading and trailing silent blocks : No
Null samples used in CRC calculations : Yes
Used interface : Native Win32 interface for Win NT & 2000
Gap handling : Appended to previous track
Used output format : User Defined Encoder
Selected bitrate : 1024 kBit/s
Quality : High
Add ID3 tag : No
Command line compressor : C:\Program Files (x86)\Exact Audio Copy\Flac\flac.exe
Additional command line options : -8 -V -T "ARTIST=%artist%" -T "TITLE=%title%" -T "ALBUM=%albumtitle%" -T "DATE=%year%" -T "TRACKNUMBER=%tracknr%" -T "GENRE=%genre%" -T "PERFORMER=%albuminterpret%" -T "COMPOSER=%composer%" %haslyrics%--tag-from-file=LYRICS="%lyricsfile%"%haslyrics% -T "ALBUMARTIST=%albumartist%" -T "DISCNUMBER=%cdnumber%" -T "TOTALDISCS=%totalcds%" -T "TOTALTRACKS=%numtracks%" -T "COMMENT=%comment%" %source% -o %dest%
TOC of the extracted CD
Track | Start | Length | Start sector | End sector
---------------------------------------------------------
1 | 0:00.00 | 4:49.49 | 0 | 21723
2 | 4:49.49 | 5:11.61 | 21724 | 45109
3 | 10:01.35 | 3:01.54 | 45110 | 58738
4 | 13:03.14 | 3:28.59 | 58739 | 74397
5 | 16:31.73 | 2:25.07 | 74398 | 85279
6 | 18:57.05 | 2:09.55 | 85280 | 95009
7 | 21:06.60 | 3:44.49 | 95010 | 111858
8 | 24:51.34 | 3:14.33 | 111859 | 126441
9 | 28:05.67 | 3:19.62 | 126442 | 141428
10 | 31:25.54 | 2:27.64 | 141429 | 152517
11 | 33:53.43 | 2:43.01 | 152518 | 164743
12 | 36:36.44 | 2:06.66 | 164744 | 174259
13 | 38:43.35 | 4:44.12 | 174260 | 195571
14 | 43:27.47 | 5:10.58 | 195572 | 218879
15 | 48:38.30 | 4:56.68 | 218880 | 241147
16 | 53:35.23 | 4:47.61 | 241148 | 262733
17 | 58:23.09 | 2:09.15 | 262734 | 272423
18 | 60:32.24 | 3:07.34 | 272424 | 286482
19 | 63:39.58 | 2:36.05 | 286483 | 298187
20 | 66:15.63 | 3:18.26 | 298188 | 313063
21 | 69:34.14 | 3:10.69 | 313064 | 327382
22 | 72:45.08 | 1:50.74 | 327383 | 335706
23 | 74:36.07 | 2:46.67 | 335707 | 348223
Track 1
Filename D:\#cdr\#wav+flac\Nat King Cole - Hittin' The Ramp - The Early Years (1936 – 1943)\cd 6\01. Nat King Cole - Tea for Two [1942, Philo, W,Lester Young].wav
Pre-gap length 0:00:02.00
Peak level 100.0 %
Extraction speed 5.8 X
Track quality 100.0 %
Test CRC 0028A2FF
Copy CRC 0028A2FF
Accurately ripped (confidence 2) [08A39B95] (AR v2)
Copy OK
Track 2
Filename D:\#cdr\#wav+flac\Nat King Cole - Hittin' The Ramp - The Early Years (1936 – 1943)\cd 6\02. Nat King Cole - Body and Soul [1942, Philo, W,Lester Young].wav
Peak level 69.9 %
Extraction speed 6.6 X
Track quality 100.0 %
Test CRC 481BC2F3
Copy CRC 481BC2F3
Accurately ripped (confidence 2) [81119BFB] (AR v2)
Copy OK
Track 3
Filename D:\#cdr\#wav+flac\Nat King Cole - Hittin' The Ramp - The Early Years (1936 – 1943)\cd 6\03. Nat King Cole - Vom, Vim, Veedle [1942, Excelsior Master take].wav
Peak level 87.0 %
Extraction speed 6.5 X
Track quality 100.0 %
Test CRC D3F7DA07
Copy CRC D3F7DA07
Accurately ripped (confidence 2) [00EE256B] (AR v2)
Copy OK
Track 4
Filename D:\#cdr\#wav+flac\Nat King Cole - Hittin' The Ramp - The Early Years (1936 – 1943)\cd 6\04. Nat King Cole - All for You [1942, Excelsior Master take].wav
Peak level 60.7 %
Extraction speed 5.8 X
Track quality 99.9 %
Test CRC 32CAD301
Copy CRC 32CAD301
Accurately ripped (confidence 2) [F73D4652] (AR v2)
Copy OK
Track 5
Filename D:\#cdr\#wav+flac\Nat King Cole - Hittin' The Ramp - The Early Years (1936 – 1943)\cd 6\05. Nat King Cole - Hip Hip Hooray [1943, AFRS Jubilee #5].wav
Peak level 81.9 %
Extraction speed 5.2 X
Track quality 99.9 %
Test CRC 389CE4C4
Copy CRC 389CE4C4
Accurately ripped (confidence 2) [65ACCDC0] (AR v2)
Copy OK
Track 6
Filename D:\#cdr\#wav+flac\Nat King Cole - Hittin' The Ramp - The Early Years (1936 – 1943)\cd 6\06. Nat King Cole - I Know That You Know [1943, AFRS Jubilee #5].wav
Peak level 85.5 %
Extraction speed 6.8 X
Track quality 100.0 %
Test CRC 070ED953
Copy CRC 070ED953
Accurately ripped (confidence 2) [7F0F009F] (AR v2)
Copy OK
Track 7
Filename D:\#cdr\#wav+flac\Nat King Cole - Hittin' The Ramp - The Early Years (1936 – 1943)\cd 6\07. Nat King Cole - I'm Gonna Move to the Outskirts of Town [1942 or 1943, live From the 331 club].wav
Peak level 63.5 %
Extraction speed 7.8 X
Track quality 100.0 %
Test CRC 380ECC78
Copy CRC 380ECC78
Accurately ripped (confidence 2) [349F50BF] (AR v2)
Copy OK
Track 8
Filename D:\#cdr\#wav+flac\Nat King Cole - Hittin' The Ramp - The Early Years (1936 – 1943)\cd 6\08. Nat King Cole - Pitchin' Up a Boogie [1943, Excelsior Master take].wav
Peak level 98.8 %
Extraction speed 8.0 X
Track quality 100.0 %
Test CRC F04F319B
Copy CRC F04F319B
Accurately ripped (confidence 2) [B3C813B0] (AR v2)
Copy OK
Track 9
Filename D:\#cdr\#wav+flac\Nat King Cole - Hittin' The Ramp - The Early Years (1936 – 1943)\cd 6\09. Nat King Cole - I'm Lost [1943, Excelsior Master take].wav
Peak level 78.5 %
Extraction speed 6.6 X
Track quality 99.9 %
Test CRC 36BEA8C2
Copy CRC 36BEA8C2
Accurately ripped (confidence 2) [AEA30EF5] (AR v2)
Copy OK
Track 10
Filename D:\#cdr\#wav+flac\Nat King Cole - Hittin' The Ramp - The Early Years (1936 – 1943)\cd 6\10. Nat King Cole - Beautiful Moons Ago [1943, Excelsior Master take].wav
Peak level 62.3 %
Extraction speed 8.0 X
Track quality 100.0 %
Test CRC 7496F102
Copy CRC 7496F102
Accurately ripped (confidence 2) [912EC7F2] (AR v2)
Copy OK
Track 11
Filename D:\#cdr\#wav+flac\Nat King Cole - Hittin' The Ramp - The Early Years (1936 – 1943)\cd 6\11. Nat King Cole - Let's Spring One [1943, Excelsior Master take].wav
Peak level 78.6 %
Extraction speed 6.5 X
Track quality 99.9 %
Test CRC 59FA6522
Copy CRC 59FA6522
Accurately ripped (confidence 2) [A5347CD0] (AR v2)
Copy OK
Track 12
Filename D:\#cdr\#wav+flac\Nat King Cole - Hittin' The Ramp - The Early Years (1936 – 1943)\cd 6\12. Nat King Cole - Slender, Tender, and Tall [1943, AFRS Jubilee #29].wav
Peak level 66.9 %
Extraction speed 8.0 X
Track quality 100.0 %
Test CRC 681FAE7B
Copy CRC 681FAE7B
Accurately ripped (confidence 2) [1DEB6AF7] (AR v2)
Copy OK
Track 13
Filename D:\#cdr\#wav+flac\Nat King Cole - Hittin' The Ramp - The Early Years (1936 – 1943)\cd 6\13. Nat King Cole - I've Found a New Baby [1943, Mercury, W,Dexter Gordon].wav
Peak level 70.9 %
Extraction speed 8.0 X
Track quality 99.9 %
Test CRC 0A3A1C0E
Copy CRC 0A3A1C0E
Accurately ripped (confidence 2) [3E7BE9A3] (AR v2)
Copy OK
Track 14
Filename D:\#cdr\#wav+flac\Nat King Cole - Hittin' The Ramp - The Early Years (1936 – 1943)\cd 6\14. Nat King Cole - Rosetta [1943, Mercury, W,Dexter Gordon].wav
Peak level 66.4 %
Extraction speed 8.6 X
Track quality 99.9 %
Test CRC 9A20BEB0
Copy CRC 9A20BEB0
Accurately ripped (confidence 2) [91D6454F] (AR v2)
Copy OK
Track 15
Filename D:\#cdr\#wav+flac\Nat King Cole - Hittin' The Ramp - The Early Years (1936 – 1943)\cd 6\15. Nat King Cole - Sweet Lorraine [1943, Mercury, W,Dexter Gordon].wav
Peak level 55.0 %
Extraction speed 10.2 X
Track quality 100.0 %
Test CRC 6B88A2CF
Copy CRC 6B88A2CF
Accurately ripped (confidence 2) [4F7E9E0C] (AR v2)
Copy OK
Track 16
Filename D:\#cdr\#wav+flac\Nat King Cole - Hittin' The Ramp - The Early Years (1936 – 1943)\cd 6\16. Nat King Cole - I Blowed and Gone [1943, Mercury, W,Dexter Gordon].wav
Peak level 55.1 %
Extraction speed 8.8 X
Track quality 99.9 %
Test CRC 69B798BE
Copy CRC 69B798BE
Accurately ripped (confidence 2) [305CF9A8] (AR v2)
Copy OK
Track 17
Filename D:\#cdr\#wav+flac\Nat King Cole - Hittin' The Ramp - The Early Years (1936 – 1943)\cd 6\17. Nat King Cole - Solid Potato Salad [1943, AFRS Jubilee #36].wav
Peak level 82.3 %
Extraction speed 9.4 X
Track quality 100.0 %
Test CRC 04F09385
Copy CRC 04F09385
Accurately ripped (confidence 2) [D5D8771D] (AR v2)
Copy OK
Track 18
Filename D:\#cdr\#wav+flac\Nat King Cole - Hittin' The Ramp - The Early Years (1936 – 1943)\cd 6\18. Nat King Cole - f.S.T. (Fine, Sweet & Tasty) [1943, Premier Master take].wav
Peak level 78.5 %
Extraction speed 10.2 X
Track quality 100.0 %
Test CRC AEA71AC9
Copy CRC AEA71AC9
Accurately ripped (confidence 2) [CF1829E3] (AR v2)
Copy OK
Track 19
Filename D:\#cdr\#wav+flac\Nat King Cole - Hittin' The Ramp - The Early Years (1936 – 1943)\cd 6\19. Nat King Cole - Got a Penny [1943, Premier Master take].wav
Peak level 82.6 %
Extraction speed 9.9 X
Track quality 100.0 %
Test CRC 12361CBA
Copy CRC 12361CBA
Accurately ripped (confidence 2) [806B54FD] (AR v2)
Copy OK
Track 20
Filename D:\#cdr\#wav+flac\Nat King Cole - Hittin' The Ramp - The Early Years (1936 – 1943)\cd 6\20. Nat King Cole - Let's Pretend [1943, Premier Master take].wav
Peak level 88.1 %
Extraction speed 10.7 X
Track quality 100.0 %
Test CRC A9983B35
Copy CRC A9983B35
Accurately ripped (confidence 2) [792853E4] (AR v2)
Copy OK
Track 21
Filename D:\#cdr\#wav+flac\Nat King Cole - Hittin' The Ramp - The Early Years (1936 – 1943)\cd 6\21. Nat King Cole - My Lips Remember Your Kisses [1943, Premier Master take].wav
Peak level 70.7 %
Extraction speed 8.4 X
Track quality 99.9 %
Test CRC DB8283B5
Copy CRC DB8283B5
Accurately ripped (confidence 2) [F96A83DC] (AR v2)
Copy OK
Track 22
Filename D:\#cdr\#wav+flac\Nat King Cole - Hittin' The Ramp - The Early Years (1936 – 1943)\cd 6\22. Nat King Cole - I'm an Errand Boy for Rhythm [1943, AFRS Jubilee #51].wav
Peak level 68.4 %
Extraction speed 9.8 X
Track quality 100.0 %
Test CRC 8FCDDD8B
Copy CRC 8FCDDD8B
Accurately ripped (confidence 2) [6253E3AF] (AR v2)
Copy OK
Track 23
Filename D:\#cdr\#wav+flac\Nat King Cole - Hittin' The Ramp - The Early Years (1936 – 1943)\cd 6\23. Nat King Cole - Straighten Up and Fly Right [1943, AFRS Jubilee #51].wav
Peak level 74.8 %
Extraction speed 10.5 X
Track quality 100.0 %
Test CRC A0218AE6
Copy CRC A0218AE6
Accurately ripped (confidence 2) [AADCEAE1] (AR v2)
Copy OK
All tracks accurately ripped
No errors occurred
End of status report
---- CUETools DB Plugin V2.1.6
[CTDB TOCID: WmH5sE0F3S4KiU_rL.O6cAmAs8k-] found
Submit result: WmH5sE0F3S4KiU_rL.O6cAmAs8k- has been confirmed
Track | CTDB Status
1 | (9/9) Accurately ripped
2 | (9/9) Accurately ripped
3 | (9/9) Accurately ripped
4 | (9/9) Accurately ripped
5 | (9/9) Accurately ripped
6 | (9/9) Accurately ripped
7 | (9/9) Accurately ripped
8 | (9/9) Accurately ripped
9 | (9/9) Accurately ripped
10 | (9/9) Accurately ripped
11 | (9/9) Accurately ripped
12 | (9/9) Accurately ripped
13 | (9/9) Accurately ripped
14 | (9/9) Accurately ripped
15 | (9/9) Accurately ripped
16 | (8/9) Accurately ripped
17 | (8/9) Accurately ripped
18 | (9/9) Accurately ripped
19 | (8/9) Accurately ripped
20 | (8/9) Accurately ripped
21 | (9/9) Accurately ripped
22 | (9/9) Accurately ripped
23 | (9/9) Accurately ripped
==== Log checksum 11D05FAA6CD53085F5A317EAE47BCC08368B080B5F8652ABAABCDEA7CC4D3FA8 ====

♦ CD7

Трeклист:

01. Honey Hush [2:50]
02. By the River St. Marie [2:13]
03. I Like to Riff [2:33]
04. Black Spider Stomp [2:56]
05. Sweet Lorraine [3:23]
06. Early Morning Blues [2:56]
07. Gone with the Draft [2:22]
08. Trompin' [1:49]
09. Sweet Lorraine [3:00]
10. Gone with the Draft [2:41]
11. Scotchin' with the Soda [2:28]
12. Gone with the Draft [2:29]
13. The Romany Room Is Jumpin' [2:33]
14. Hit That Jive, Jack [2:18]
15. Beautiful Moons Ago [3:37]
16. Honeysuckle Rose [3:20]
17. I Know That You Know [2:53]
18. Solid Potato Salad [2:14]
19. My Lips Remember Your Kisses [3:07]
20. Straighten Up and Fly Right [2:53]
Продолжительность:
00:54:36

Лог создания рипа

Exact Audio Copy V1.3 from 2. September 2016
EAC extraction logfile from 23. December 2019, 14:59
Nat King Cole / Hittin' the Ramp- The Early Years (1936-1943)
Used drive : PLEXTOR PX-891SAF Adapter: 1 ID: 0
Read mode : Secure
Utilize accurate stream : Yes
Defeat audio cache : Yes
Make use of C2 pointers : No
Read offset correction : 6
Overread into Lead-In and Lead-Out : No
Fill up missing offset samples with silence : Yes
Delete leading and trailing silent blocks : No
Null samples used in CRC calculations : Yes
Used interface : Native Win32 interface for Win NT & 2000
Gap handling : Appended to previous track
Used output format : User Defined Encoder
Selected bitrate : 1024 kBit/s
Quality : High
Add ID3 tag : No
Command line compressor : C:\Program Files (x86)\Exact Audio Copy\Flac\flac.exe
Additional command line options : -8 -V -T "ARTIST=%artist%" -T "TITLE=%title%" -T "ALBUM=%albumtitle%" -T "DATE=%year%" -T "TRACKNUMBER=%tracknr%" -T "GENRE=%genre%" -T "PERFORMER=%albuminterpret%" -T "COMPOSER=%composer%" %haslyrics%--tag-from-file=LYRICS="%lyricsfile%"%haslyrics% -T "ALBUMARTIST=%albumartist%" -T "DISCNUMBER=%cdnumber%" -T "TOTALDISCS=%totalcds%" -T "TOTALTRACKS=%numtracks%" -T "COMMENT=%comment%" %source% -o %dest%
TOC of the extracted CD
Track | Start | Length | Start sector | End sector
---------------------------------------------------------
1 | 0:00.00 | 2:50.10 | 0 | 12759
2 | 2:50.10 | 2:12.67 | 12760 | 22726
3 | 5:03.02 | 2:33.03 | 22727 | 34204
4 | 7:36.05 | 2:56.07 | 34205 | 47411
5 | 10:32.12 | 3:23.03 | 47412 | 62639
6 | 13:55.15 | 2:55.59 | 62640 | 75823
7 | 16:50.74 | 2:22.02 | 75824 | 86475
8 | 19:13.01 | 1:48.67 | 86476 | 94642
9 | 21:01.68 | 2:59.73 | 94643 | 108140
10 | 24:01.66 | 2:41.33 | 108141 | 120248
11 | 26:43.24 | 2:27.58 | 120249 | 131331
12 | 29:11.07 | 2:28.55 | 131332 | 142486
13 | 31:39.62 | 2:33.21 | 142487 | 153982
14 | 34:13.08 | 2:18.08 | 153983 | 164340
15 | 36:31.16 | 3:36.49 | 164341 | 180589
16 | 40:07.65 | 3:20.25 | 180590 | 195614
17 | 43:28.15 | 2:53.37 | 195615 | 208626
18 | 46:21.52 | 2:14.23 | 208627 | 218699
19 | 48:36.00 | 3:07.15 | 218700 | 232739
20 | 51:43.15 | 2:53.13 | 232740 | 245727
Track 1
Filename D:\#cdr\#wav+flac\Nat King Cole - Hittin' The Ramp - The Early Years (1936 – 1943)\cd 7\01. Nat King Cole - Honey Hush [1936, Decca alternate take].wav
Pre-gap length 0:00:02.00
Peak level 74.9 %
Extraction speed 4.9 X
Track quality 100.0 %
Test CRC 24777D0A
Copy CRC 24777D0A
Accurately ripped (confidence 2) [E356D46D] (AR v2)
Copy OK
Track 2
Filename D:\#cdr\#wav+flac\Nat King Cole - Hittin' The Ramp - The Early Years (1936 – 1943)\cd 7\02. Nat King Cole - By the River St. Marie [1938 Standard Transcription].wav
Peak level 92.3 %
Extraction speed 5.1 X
Track quality 100.0 %
Test CRC F1548251
Copy CRC F1548251
Accurately ripped (confidence 2) [A9CAE6FE] (AR v2)
Copy OK
Track 3
Filename D:\#cdr\#wav+flac\Nat King Cole - Hittin' The Ramp - The Early Years (1936 – 1943)\cd 7\03. Nat King Cole - I Like to Riff [1939, Standard Transcription].wav
Peak level 71.7 %
Extraction speed 4.2 X
Track quality 99.9 %
Test CRC 5A7D93A4
Copy CRC 5A7D93A4
Accurately ripped (confidence 2) [FB15C68D] (AR v2)
Copy OK
Track 4
Filename D:\#cdr\#wav+flac\Nat King Cole - Hittin' The Ramp - The Early Years (1936 – 1943)\cd 7\04. Nat King Cole - Black Spider Stomp [1939, Standard Transcription].wav
Peak level 64.9 %
Extraction speed 5.9 X
Track quality 100.0 %
Test CRC 1C62213F
Copy CRC 1C62213F
Accurately ripped (confidence 2) [B60717C2] (AR v2)
Copy OK
Track 5
Filename D:\#cdr\#wav+flac\Nat King Cole - Hittin' The Ramp - The Early Years (1936 – 1943)\cd 7\05. Nat King Cole - Sweet Lorraine [1939, Standard Transcription].wav
Peak level 75.6 %
Extraction speed 6.4 X
Track quality 100.0 %
Test CRC B9ED06D9
Copy CRC B9ED06D9
Accurately ripped (confidence 2) [0F04C9EC] (AR v2)
Copy OK
Track 6
Filename D:\#cdr\#wav+flac\Nat King Cole - Hittin' The Ramp - The Early Years (1936 – 1943)\cd 7\06. Nat King Cole - Early Morning Blues [1940, Standard Transcription].wav
Peak level 62.5 %
Extraction speed 6.6 X
Track quality 100.0 %
Test CRC D704932C
Copy CRC D704932C
Accurately ripped (confidence 2) [5AFBBF73] (AR v2)
Copy OK
Track 7
Filename D:\#cdr\#wav+flac\Nat King Cole - Hittin' The Ramp - The Early Years (1936 – 1943)\cd 7\07. Nat King Cole - Gone With the Draft [1940, Standard Transcription].wav
Peak level 63.0 %
Extraction speed 6.6 X
Track quality 100.0 %
Test CRC BA444C09
Copy CRC BA444C09
Accurately ripped (confidence 2) [0486C48A] (AR v2)
Copy OK
Track 8
Filename D:\#cdr\#wav+flac\Nat King Cole - Hittin' The Ramp - The Early Years (1936 – 1943)\cd 7\08. Nat King Cole - Trompin' [1939, Recorded for Cinematone].wav
Peak level 77.7 %
Extraction speed 4.6 X
Track quality 99.9 %
Test CRC D2833ED4
Copy CRC D2833ED4
Accurately ripped (confidence 2) [98585C6E] (AR v2)
Copy OK
Track 9
Filename D:\#cdr\#wav+flac\Nat King Cole - Hittin' The Ramp - The Early Years (1936 – 1943)\cd 7\09. Nat King Cole - Sweet Lorraine [1940, Decca alternate take].wav
Peak level 83.4 %
Extraction speed 7.3 X
Track quality 100.0 %
Test CRC 0C6EC174
Copy CRC 0C6EC174
Accurately ripped (confidence 2) [A8A3C1AE] (AR v2)
Copy OK
Track 10
Filename D:\#cdr\#wav+flac\Nat King Cole - Hittin' The Ramp - The Early Years (1936 – 1943)\cd 7\10. Nat King Cole - Gone With the Draft [1940, Decca alternate take].wav
Peak level 89.1 %
Extraction speed 7.4 X
Track quality 100.0 %
Test CRC 393469C0
Copy CRC 393469C0
Accurately ripped (confidence 2) [DBE17793] (AR v2)
Copy OK
Track 11
Filename D:\#cdr\#wav+flac\Nat King Cole - Hittin' The Ramp - The Early Years (1936 – 1943)\cd 7\11. Nat King Cole - Scotchin' With the Soda [1941, Standard Transcription].wav
Peak level 87.0 %
Extraction speed 7.5 X
Track quality 100.0 %
Test CRC BC6D7E9C
Copy CRC BC6D7E9C
Accurately ripped (confidence 2) [8534A4E7] (AR v2)
Copy OK
Track 12
Filename D:\#cdr\#wav+flac\Nat King Cole - Hittin' The Ramp - The Early Years (1936 – 1943)\cd 7\12. Nat King Cole - Gone With the Draft [1941, Standard Transcription].wav
Peak level 100.0 %
Extraction speed 5.8 X
Track quality 99.9 %
Test CRC AE56F0D9
Copy CRC AE56F0D9
Accurately ripped (confidence 2) [4B275435] (AR v2)
Copy OK
Track 13
Filename D:\#cdr\#wav+flac\Nat King Cole - Hittin' The Ramp - The Early Years (1936 – 1943)\cd 7\13. Nat King Cole - The Romany Room Is Jumpin' [1941, Unreleased Private Recording, alternate take].wav
Peak level 80.8 %
Extraction speed 7.9 X
Track quality 100.0 %
Test CRC A38F3AC6
Copy CRC A38F3AC6
Accurately ripped (confidence 2) [7A72B45A] (AR v2)
Copy OK
Track 14
Filename D:\#cdr\#wav+flac\Nat King Cole - Hittin' The Ramp - The Early Years (1936 – 1943)\cd 7\14. Nat King Cole - Hit That Jive, Jack [1942, AFRS Mail Call #16].wav
Peak level 82.7 %
Extraction speed 6.0 X
Track quality 99.9 %
Test CRC D2437AE8
Copy CRC D2437AE8
Accurately ripped (confidence 2) [04421116] (AR v2)
Copy OK
Track 15
Filename D:\#cdr\#wav+flac\Nat King Cole - Hittin' The Ramp - The Early Years (1936 – 1943)\cd 7\15. Nat King Cole - Beautiful Moons Ago [1943, Excelsior alternate take].wav
Peak level 70.7 %
Extraction speed 8.7 X
Track quality 100.0 %
Test CRC CF4D476C
Copy CRC CF4D476C
Accurately ripped (confidence 2) [D8215A0B] (AR v2)
Copy OK
Track 16
Filename D:\#cdr\#wav+flac\Nat King Cole - Hittin' The Ramp - The Early Years (1936 – 1943)\cd 7\16. Nat King Cole - Honeysuckle Rose [1943, AFRS Jubilee #29].wav
Peak level 84.8 %
Extraction speed 8.8 X
Track quality 100.0 %
Test CRC 75A9B0EB
Copy CRC 75A9B0EB
Accurately ripped (confidence 2) [CCBD69F4] (AR v2)
Copy OK
Track 17
Filename D:\#cdr\#wav+flac\Nat King Cole - Hittin' The Ramp - The Early Years (1936 – 1943)\cd 7\17. Nat King Cole - I Know That You Know [1943, AFRS Jubilee #36].wav
Peak level 73.7 %
Extraction speed 8.8 X
Track quality 100.0 %
Test CRC B5840658
Copy CRC B5840658
Accurately ripped (confidence 2) [57F2C1BF] (AR v2)
Copy OK
Track 18
Filename D:\#cdr\#wav+flac\Nat King Cole - Hittin' The Ramp - The Early Years (1936 – 1943)\cd 7\18. Nat King Cole - Solid Potato Salad [AFRS Command Performance #87].wav
Peak level 79.4 %
Extraction speed 8.7 X
Track quality 100.0 %
Test CRC 77DA9A6F
Copy CRC 77DA9A6F
Accurately ripped (confidence 2) [C6C8BA5A] (AR v2)
Copy OK
Track 19
Filename D:\#cdr\#wav+flac\Nat King Cole - Hittin' The Ramp - The Early Years (1936 – 1943)\cd 7\19. Nat King Cole - My Lips Remember Your Kisses [1943, Premier alternate take].wav
Peak level 57.2 %
Extraction speed 7.4 X
Track quality 99.9 %
Test CRC DC43456E
Copy CRC DC43456E
Accurately ripped (confidence 2) [01A00E9E] (AR v2)
Copy OK
Track 20
Filename D:\#cdr\#wav+flac\Nat King Cole - Hittin' The Ramp - The Early Years (1936 – 1943)\cd 7\20. Nat King Cole - Straighten Up and Fly Right [1943, AFRS Personal album #227].wav
Peak level 69.2 %
Extraction speed 9.3 X
Track quality 100.0 %
Test CRC 540BE57A
Copy CRC 540BE57A
Accurately ripped (confidence 2) [2BB91F63] (AR v2)
Copy OK
All tracks accurately ripped
No errors occurred
End of status report
---- CUETools DB Plugin V2.1.6
[CTDB TOCID: Vwt0gT2EoL_nOR1whAFNFUpt1RQ-] found
Submit result: Vwt0gT2EoL_nOR1whAFNFUpt1RQ- has been confirmed
Track | CTDB Status
1 | (9/9) Accurately ripped
2 | (9/9) Accurately ripped
3 | (9/9) Accurately ripped
4 | (9/9) Accurately ripped
5 | (9/9) Accurately ripped
6 | (9/9) Accurately ripped
7 | (9/9) Accurately ripped
8 | (9/9) Accurately ripped
9 | (9/9) Accurately ripped
10 | (9/9) Accurately ripped
11 | (9/9) Accurately ripped
12 | (9/9) Accurately ripped
13 | (9/9) Accurately ripped
14 | (9/9) Accurately ripped
15 | (9/9) Accurately ripped
16 | (9/9) Accurately ripped
17 | (9/9) Accurately ripped
18 | (9/9) Accurately ripped
19 | (9/9) Accurately ripped
20 | (9/9) Accurately ripped
==== Log checksum 101E6F2A8AC92AD76944302E4FF54EC4CFD5583ADD96FD3B85458C33C89A3647 ====
Время раздачи: c 15:00 до 22:00 (до появления первых 3-5 скачавших)
Other forum [Profile] [PM]
Display posts from previous:    
Reply to topic

The time now is: Today 15:44

All times are GMT + 3 Hours



You cannot post new topics in this forum
You cannot reply to topics in this forum
You cannot edit your posts in this forum
You cannot delete your posts in this forum
You cannot vote in polls in this forum
You cannot attach files in this forum
You cannot download files in this forum