Today is a free download without charge Download

Govi - Guitarra Mistica (2011) [FLAC|Lossless|tracks + .cue] <New Age, New Flamenco>

Reply to topic
 
Author
Message

Soldat_5 ®

Longevity: 8 months 27 days

Posts: 129

Торрент-статистика

Post 01-Apr-2020 10:45

[Quote]

Govi - Guitarra Mistica (2011) - Жанр: New Age, New Flamenco
Издание: Govi Music ‎– 84418-50246-2-4
Источник (релизёр): DrStandBy
Продолжительность: 00:49:06
Кодек: FLAC
Битрейт: Lossless
Тип рипа: tracks + .cue
Наличие сканов в содержимом раздачи: Да (полный комплект)
Треклист:
01. Samba Delight (5:42)
02. Guitarra Mistica (6:14)
03. Voices In The Wind (4:27)
04. Moorish Nights (5:22)
05. Birds & Bees (5:41)
06. Mumbai Express (4:52)
07. Wildflowers (4:17)
08. Over The Moon (4:01)
09. Raindrops In The Sun (4:44)
10. Danza Del Amor (3:45)

Об исполнителе&#58;

[img=right]http://nnmclub.ch/forum/image.php?link=http://img52...ovi300.jpg[/img]
Описание:Govi - родом из Германии, там выиграл национальный музыкальный конкурс и начал успешно гастролировать по стране. И быть бы ему отличным, но отнюдь не оригинальным музыкантом, если бы не его духовный поиск.
Гитарист отправился в Индию, где прожил целых восемь лет, там творчество Гови по-настоящему расцвело и обрело то своеобразие которое так завораживает слушателя. Манера игры музыканта весьма своеобразна, он умело соединяет западную и восточную техники, в результате получается яркий, "звонкий" коктейль музыки, поднимающей и освежающей, словно теплый летний дождь, душу.

Отчёт ЕАС&#58;

Exact Audio Copy V1.0 beta 1 from 15. November 2010
EAC extraction logfile from 29. April 2011, 0:06
Govi / Guitarra Mistica
Used drive : HL-DT-STDVDRAM GH22NS50 Adapter: 13 ID: 0
Read mode : Secure
Utilize accurate stream : Yes
Defeat audio cache : Yes
Make use of C2 pointers : No
Read offset correction : 667
Overread into Lead-In and Lead-Out : No
Fill up missing offset samples with silence : Yes
Delete leading and trailing silent blocks : No
Null samples used in CRC calculations : Yes
Used interface : Native Win32 interface for Win NT & 2000
Gap handling : Appended to previous track
Used output format : User Defined Encoder
Selected bitrate : 128 kBit/s
Quality : High
Add ID3 tag : No
Command line compressor : C:\Program Files\Exact Audio Copy\Flac\flac.exe
Additional command line options : -8 -V -T "ARTIST=%a" -T "TITLE=%t" -T "ALBUM=%g" -T "DATE=%y" -T "TRACKNUMBER=%n" -T "GENRE=%m" -T "COMMENT=ripped by DrStandBy" %s
TOC of the extracted CD
Track | Start | Length | Start sector | End sector
---------------------------------------------------------
1 | 0:00.00 | 5:44.24 | 0 | 25823
2 | 5:44.24 | 6:16.44 | 25824 | 54067
3 | 12:00.68 | 4:29.01 | 54068 | 74243
4 | 16:29.69 | 5:24.28 | 74244 | 98571
5 | 21:54.22 | 5:43.63 | 98572 | 124359
6 | 27:38.10 | 4:54.28 | 124360 | 146437
7 | 32:32.38 | 4:19.18 | 146438 | 165880
8 | 36:51.56 | 4:03.31 | 165881 | 184136
9 | 40:55.12 | 4:46.37 | 184137 | 205623
10 | 45:41.49 | 3:45.25 | 205624 | 222523
Track 1
Filename E:\GOVI\2011 - Guitarra Mistica (84710-80761-2-0)\01. Govi - Samba Delight.wav
Pre-gap length 0:00:02.00
Peak level 98.6 %
Extraction speed 1.0 X
Track quality 99.9 %
Test CRC 0A85D1FB
Copy CRC 0A85D1FB
Track not present in AccurateRip database
Copy OK
Track 2
Filename E:\GOVI\2011 - Guitarra Mistica (84710-80761-2-0)\02. Govi - Guitarra Mistica.wav
Pre-gap length 0:00:01.64
Peak level 98.4 %
Extraction speed 1.3 X
Track quality 100.0 %
Test CRC 12702952
Copy CRC 12702952
Track not present in AccurateRip database
Copy OK
Track 3
Filename E:\GOVI\2011 - Guitarra Mistica (84710-80761-2-0)\03. Govi - Voices In The Wind.wav
Pre-gap length 0:00:02.18
Peak level 97.2 %
Extraction speed 1.4 X
Track quality 100.0 %
Test CRC 84D3DD10
Copy CRC 84D3DD10
Track not present in AccurateRip database
Copy OK
Track 4
Filename E:\GOVI\2011 - Guitarra Mistica (84710-80761-2-0)\04. Govi - Moorish Nights.wav
Pre-gap length 0:00:02.19
Peak level 98.4 %
Extraction speed 1.5 X
Track quality 100.0 %
Test CRC 6BC30FE7
Copy CRC 6BC30FE7
Track not present in AccurateRip database
Copy OK
Track 5
Filename E:\GOVI\2011 - Guitarra Mistica (84710-80761-2-0)\05. Govi - Birds & Bees.wav
Pre-gap length 0:00:02.40
Peak level 98.4 %
Extraction speed 1.6 X
Track quality 100.0 %
Test CRC 2700FCAD
Copy CRC 2700FCAD
Track not present in AccurateRip database
Copy OK
Track 6
Filename E:\GOVI\2011 - Guitarra Mistica (84710-80761-2-0)\06. Govi - Mumbai Express.wav
Pre-gap length 0:00:02.31
Peak level 98.5 %
Extraction speed 1.7 X
Track quality 100.0 %
Test CRC EBFECD01
Copy CRC EBFECD01
Track not present in AccurateRip database
Copy OK
Track 7
Filename E:\GOVI\2011 - Guitarra Mistica (84710-80761-2-0)\07. Govi - Wildflowers.wav
Pre-gap length 0:00:02.06
Peak level 98.4 %
Extraction speed 1.7 X
Track quality 100.0 %
Test CRC 026506E3
Copy CRC 026506E3
Track not present in AccurateRip database
Copy OK
Track 8
Filename E:\GOVI\2011 - Guitarra Mistica (84710-80761-2-0)\08. Govi - Over The Moon.wav
Pre-gap length 0:00:02.20
Peak level 98.5 %
Extraction speed 1.6 X
Track quality 99.9 %
Test CRC 606A1B33
Copy CRC 606A1B33
Track not present in AccurateRip database
Copy OK
Track 9
Filename E:\GOVI\2011 - Guitarra Mistica (84710-80761-2-0)\09. Govi - Raindrops In The Sun.wav
Pre-gap length 0:00:02.45
Peak level 98.4 %
Extraction speed 1.9 X
Track quality 100.0 %
Test CRC EBB28FE4
Copy CRC EBB28FE4
Track not present in AccurateRip database
Copy OK
Track 10
Filename E:\GOVI\2011 - Guitarra Mistica (84710-80761-2-0)\10. Govi - Danza Del Amor.wav
Pre-gap length 0:00:02.65
Peak level 98.4 %
Extraction speed 2.0 X
Track quality 100.0 %
Test CRC 98B83863
Copy CRC 98B83863
Track not present in AccurateRip database
Copy OK
None of the tracks are present in the AccurateRip database
No errors occurred
End of status report
==== Log checksum 3A8D3F97C54E66D56F54EC172A12E6671E62C96CC639797588D375E4FD7D6A38 ====
Other forum [Profile] [PM]
Display posts from previous:    
Reply to topic

The time now is: Today 10:45

All times are GMT + 3 Hours



You cannot post new topics in this forum
You cannot reply to topics in this forum
You cannot edit your posts in this forum
You cannot delete your posts in this forum
You cannot vote in polls in this forum
You cannot attach files in this forum
You cannot download files in this forum