Today is a free download without charge Download

ИП Пирогова / Сезон: 3 / Серии: 1-13 из 13 (Акаки Сахелашвили) [2020, комедия, WEBRip 1080p]

Reply to topic
 
Author
Message

Kon912 ®

Gender:

Longevity: 18 days

Posts: 41

Location: Питер

Торрент-статистика

Post 22-May-2020 17:39

[Quote]

ИП Пирогова 3- Год выпуска: 2020
Производство: СУПЕР продакшн
Жанр: комедия
Продолжительность: ~00:24:00 серия
Субтитры: нет-Режиссёр:
Акаки Сахелашвили
-В ролях:
Елена Подкаминская, Настасья Кербенген, Данила Дунаев, Александр Панкратов-Чёрный, Александр Константинов, Ксения Теплова, Елена Валюшкина, Дмитрий Лысенков, Алексей Агранович, Василина Юсковец-Описание:
С тех пор, как Вера Пирогова подписала контракт с сетью ресторанов «Бальзак Гурмэ», прошло полгода. Ее кондитерская, наконец, стала приносить хороший доход, однако строгий контроль в лице владельца сети Дениса Алексеевича не дает Вере расслабиться ни на минуту. К тому же, помощников на кухне стало меньше: сестра Саша готовится стать мамой, частенько злоупотребляя своим интересным положением, дочь Юля с головой окунулась в студенческую жизнь, а неутомимый папа Виктор Павлович каждый день находит новые приключения. Личная жизнь самой Веры по-прежнему оставляет желать лучшего. Запутанные отношения с Андреем осложняются с появлением Дениса, который, оказывается, совсем не равнодушен к Вере.
-Реклама: Нет.-Качество: WEBRip 1080p - Getty
Формат: MKV
Видео кодек: H.264
Аудио кодек: AC3
Видео: MPEG4 AVC Video, H264, 16:9, 1920x1072, 25 fps, ~4500 kbps, 0.087 bit/pixel
Аудио: AC3 Dolby Digital, 48.0 kHz, 2/0 (L,R) ch, 192 kbps-

MI

General
Unique ID : 176947678534672323896662333055827931857 (0x851EE21DD9927AB5A5DB740F857F72D1)
Complete name : D:\IP.Pirogova.S03.2020.WEB-DL.(1080p).Getty\IP.Pirogova.s03e01.2020.WEB-DL.(1080p).Getty.mkv
Format : Matroska
Format version : Version 4 / Version 2
File size : 830 MiB
Duration : 24 min 57 s
Overall bit rate mode : Variable
Overall bit rate : 4 650 kb/s
Movie name : IP.Pirogova.s03e01.2020.WEB-DL.(1080p).Getty
Encoded date : UTC 2020-05-01 16:46:20
Writing application : mkvmerge v7.8.0 ('River Man') 32bit built on Mar 27 2015 16:18:02
Writing library : libebml v1.3.1 + libmatroska v1.4.2
Video
ID : 1
Format : AVC
Format/Info : Advanced Video Codec
Format profile : [email protected]
Format settings : CABAC / 1 Ref Frames
Format settings, CABAC : Yes
Format settings, ReFrames : 1 frame
Format settings, GOP : M=1, N=50
Codec ID : V_MPEG4/ISO/AVC
Duration : 24 min 57 s
Bit rate mode : Variable
Bit rate : 4 500 kb/s
Width : 1 920 pixels
Height : 1 072 pixels
Display aspect ratio : 16:9
Frame rate mode : Constant
Frame rate : 25.000 FPS
Color space : YUV
Chroma subsampling : 4:2:0
Bit depth : 8 bits
Scan type : Progressive
Bits/(Pixel*Frame) : 0.087
Stream size : 795 MiB (96%)
Default : Yes
Forced : No
Audio
ID : 2
Format : AC-3
Format/Info : Audio Coding 3
Codec ID : A_AC3
Duration : 24 min 57 s
Bit rate mode : Constant
Bit rate : 192 kb/s
Channel(s) : 2 channels
Channel positions : Front: L R
Sampling rate : 48.0 kHz
Frame rate : 31.250 FPS (1536 SPF)
Bit depth : 16 bits
Compression mode : Lossy
Stream size : 34.3 MiB (4%)
Service kind : Complete Main
Default : Yes
Forced : No

Скриншоты


In forum [Profile] [PM]
Display posts from previous:    
Reply to topic

The time now is: Today 16:15

All times are GMT + 3 Hours



You cannot post new topics in this forum
You cannot reply to topics in this forum
You cannot edit your posts in this forum
You cannot delete your posts in this forum
You cannot vote in polls in this forum
You cannot attach files in this forum
You cannot download files in this forum