Today is a free download without charge Download

(Power Metal) Frozen Crown - Crowned In Frost - 2019 [WavPack, image +.cue, lossless]

Reply to topic
 
Author
Message

sergej644 ®

Gender:

Longevity: 9 years 3 months

Posts: 656

Location: Klaipeda

Торрент-статистика

Post 23-May-2020 17:38

[Quote]

-Frozen Crown - Crowned In Frost--
Год издания: 2019
Страна: Italy
Жанр: Power Metal
Продолжительность: 00:51:46-Лейбл издания: Marquee Inc, / Avalon
Страна-выпуска диска: Japan
Номер по каталогу: MICP-11475-Формат: WavPack
Битрейт аудио: Lossless
Тип рипа: image +.cue
Наличие сканов в содержимом раздачи: да
-

Трэклист


01. Arctic Gales (1:25)
02. Neverending (5:07)
03. In The Dark (4:44)
04. Battles In The Night (4:19)
05. Winterfall (7:31)
06. Unspoken (4:03)
07. Lost In Time (4:31)
08. The Wolf And The Maiden (3:25)
09. Forever (5:09)
10. Enthroned (1:03)
11. Crowned In Frost (6:33)
12. The King's Rest (Japan Bonus Track) (3:54)
-

Лог создания рипа

Код:
Exact Audio Copy V1.3 from 2. September 2016
EAC extraction logfile from 5. July 2019, 14:03
Frozen Crown / Crowned In Frost
Used drive  : HL-DT-STDVDRAM GH24NSD1   Adapter: 1  ID: 0
Read mode               : Secure
Utilize accurate stream : Yes
Defeat audio cache      : Yes
Make use of C2 pointers : No
Read offset correction                      : 6
Overread into Lead-In and Lead-Out          : No
Fill up missing offset samples with silence : Yes
Delete leading and trailing silent blocks   : No
Null samples used in CRC calculations       : Yes
Used interface                              : Native Win32 interface for Win NT & 2000
Used output format              : User Defined Encoder
Selected bitrate                : 896 kBit/s
Quality                         : High
Add ID3 tag                     : No
Command line compressor         : C:\Program Files (x86)\Exact Audio Copy\wavpack.exe
Additional command line options : -hm %source% %dest%
TOC of the extracted CD
     Track |   Start  |  Length  | Start sector | End sector
    ---------------------------------------------------------
        1  |  0:00.00 |  1:24.46 |         0    |     6345
        2  |  1:24.46 |  5:07.29 |      6346    |    29399
        3  |  6:32.00 |  4:43.68 |     29400    |    50692
        4  | 11:15.68 |  4:18.63 |     50693    |    70105
        5  | 15:34.56 |  7:30.49 |     70106    |   103904
        6  | 23:05.30 |  4:03.17 |    103905    |   122146
        7  | 27:08.47 |  4:31.23 |    122147    |   142494
        8  | 31:39.70 |  3:25.30 |    142495    |   157899
        9  | 35:05.25 |  5:09.35 |    157900    |   181109
       10  | 40:14.60 |  1:03.25 |    181110    |   185859
       11  | 41:18.10 |  6:33.08 |    185860    |   215342
       12  | 47:51.18 |  3:54.35 |    215343    |   232927
Range status and errors
Selected range
     Filename E:\Frozen Crown - 2019 - Crowned in Frost (Japanese Edition)\Frozen Crown - Crowned In Frost.wav
     Peak level 99.4 %
     Extraction speed 1.2 X
     Range quality 100.0 %
     Test CRC 2E8F9619
     Copy CRC 2E8F9619
     Copy OK
No errors occurred
AccurateRip summary
Track  1  accurately ripped (confidence 1)  [27C1F7E5]  (AR v2)
Track  2  accurately ripped (confidence 1)  [534E7AFA]  (AR v2)
Track  3  accurately ripped (confidence 1)  [F33D9D29]  (AR v2)
Track  4  accurately ripped (confidence 1)  [6F8B1298]  (AR v2)
Track  5  accurately ripped (confidence 1)  [461DD7C7]  (AR v2)
Track  6  accurately ripped (confidence 1)  [FE2B8C4A]  (AR v2)
Track  7  accurately ripped (confidence 1)  [72233093]  (AR v2)
Track  8  accurately ripped (confidence 1)  [57E0DC81]  (AR v2)
Track  9  accurately ripped (confidence 1)  [8527F3F7]  (AR v2)
Track 10  accurately ripped (confidence 1)  [A4540066]  (AR v2)
Track 11  accurately ripped (confidence 1)  [D3CFDA43]  (AR v2)
Track 12  accurately ripped (confidence 1)  [E31BA3A1]  (AR v2)
All tracks accurately ripped
End of status report

Индексная карта (non-compilant .cue)

Код:
REM GENRE "Power Metal"
REM DATE 2019
REM DISCID A70C210C
REM COMMENT "ExactAudioCopy v1.3"
REM COMPOSER ""
PERFORMER "Frozen Crown"
TITLE "Crowned In Frost"
FILE "Frozen Crown - 2019 - Crowned In Frost.wv" WAVE
  TRACK 01 AUDIO
    TITLE "Arctic Gales"
    PERFORMER "Frozen Crown"
    REM COMPOSER ""
    INDEX 01 00:00:00
  TRACK 02 AUDIO
    TITLE "Neverending"
    PERFORMER "Frozen Crown"
    REM COMPOSER ""
    INDEX 01 01:24:46
  TRACK 03 AUDIO
    TITLE "In The Dark"
    PERFORMER "Frozen Crown"
    REM COMPOSER ""
    INDEX 01 06:32:00
  TRACK 04 AUDIO
    TITLE "Battles In The Night"
    PERFORMER "Frozen Crown"
    REM COMPOSER ""
    INDEX 01 11:15:68
  TRACK 05 AUDIO
    TITLE "Winterfall"
    PERFORMER "Frozen Crown"
    REM COMPOSER ""
    INDEX 01 15:34:56
  TRACK 06 AUDIO
    TITLE "Unspoken"
    PERFORMER "Frozen Crown"
    REM COMPOSER ""
    INDEX 01 23:05:30
  TRACK 07 AUDIO
    TITLE "Lost In Time"
    PERFORMER "Frozen Crown"
    REM COMPOSER ""
    INDEX 01 27:08:47
  TRACK 08 AUDIO
    TITLE "The Wolf And The Maiden"
    PERFORMER "Frozen Crown"
    REM COMPOSER ""
    INDEX 01 31:39:70
  TRACK 09 AUDIO
    TITLE "Forever"
    PERFORMER "Frozen Crown"
    REM COMPOSER ""
    INDEX 01 35:05:25
  TRACK 10 AUDIO
    TITLE "Enthroned"
    PERFORMER "Frozen Crown"
    REM COMPOSER ""
    INDEX 01 40:14:60
  TRACK 11 AUDIO
    TITLE "Crowned In Frost"
    PERFORMER "Frozen Crown"
    REM COMPOSER ""
    INDEX 01 41:18:10
  TRACK 12 AUDIO
    TITLE "The King's Rest (Japan Bonus Track)"
    PERFORMER "Frozen Crown"
    REM COMPOSER ""
    INDEX 01 47:51:18
-

для ознакомления:

--

_________________
У нас все платно: родиться, учиться, жениться, лечиться, умереть.
Бесплатно разрешено только работать.
Other forum [Profile] [PM]
Display posts from previous:    
Reply to topic

The time now is: Today 04:59

All times are GMT + 3 Hours



You cannot post new topics in this forum
You cannot reply to topics in this forum
You cannot edit your posts in this forum
You cannot delete your posts in this forum
You cannot vote in polls in this forum
You cannot attach files in this forum
You cannot download files in this forum