Today is a free download without charge Download

Richard Smith - First Kiss (1997) Heads Up [FLAC|Lossless|tracks + .cue] <Smooth Jazz>

Reply to topic
 
Author
Message

Soldat_5 ®

Longevity: 8 months 4 days

Posts: 127

Торрент-статистика

Post 11-Jun-2020 11:51

[Quote]

Richard Smith - First Kiss (1997) Heads Up - Жанр: Smooth Jazz
Издание: Heads Up - HUCD 3042
Продолжительность: 00:43:40
Кодек: FLAC (tracks+.cue)
Битрейт: Lossless
Источник (релизер): just_a_sundog
Страна-производитель диска: USA
Наличие сканов в содержимом раздачи: нет
Треклист:
01. First Kiss [4:18]
02. Rhythm Method [4:41]
03. Midnight Run [4:30]
04. A Minor Love Affair [5:53]
05. Never Too Much [4:55]
06. Impulsive [5:08]
07. Mission of Love [4:21]
08. Like a Dream [4:46]
09. Put It Where You Want It [5:07]

Отчёт EAC&#58;

Exact Audio Copy V1.3 from 2. September 2016
EAC extraction logfile from 2. June 2020, 10:57
Richard Smith / First Kiss
Used drive : PIONEER BD-RW BDR-UD03 Adapter: 1 ID: 0
Read mode : Secure
Utilize accurate stream : Yes
Defeat audio cache : Yes
Make use of C2 pointers : No
Read offset correction : 667
Overread into Lead-In and Lead-Out : No
Fill up missing offset samples with silence : Yes
Delete leading and trailing silent blocks : No
Null samples used in CRC calculations : Yes
Used interface : Native Win32 interface for Win NT & 2000
Gap handling : Appended to previous track
Used output format : User Defined Encoder
Selected bitrate : 1024 kBit/s
Quality : High
Add ID3 tag : No
Command line compressor : C:\EAC\Flac\flac.exe
Additional command line options : -8 -V -T "ARTIST=%artist%" -T "TITLE=%title%" -T "ALBUM=%albumtitle%" -T "DATE=%year%" -T "TRACKNUMBER=%tracknr%" -T "GENRE=%genre%" -T "PERFORMER=%albuminterpret%" -T "COMPOSER=%composer%" %haslyrics%--tag-from-file=LYRICS="%lyricsfile%"%haslyrics% -T "ALBUMARTIST=%albumartist%" -T "DISCNUMBER=%cdnumber%" -T "TOTALDISCS=%totalcds%" -T "TOTALTRACKS=%numtracks%" -T "COMMENT=%comment%" %source% -o %dest%
TOC of the extracted CD
Track | Start | Length | Start sector | End sector
---------------------------------------------------------
1 | 0:00.00 | 4:17.62 | 0 | 19336
2 | 4:17.62 | 4:41.24 | 19337 | 40435
3 | 8:59.11 | 4:29.51 | 40436 | 60661
4 | 13:28.62 | 5:52.60 | 60662 | 87121
5 | 19:21.47 | 4:55.37 | 87122 | 109283
6 | 24:17.09 | 5:08.17 | 109284 | 132400
7 | 29:25.26 | 4:20.62 | 132401 | 151962
8 | 33:46.13 | 4:46.13 | 151963 | 173425
9 | 38:32.26 | 5:07.18 | 173426 | 196468
10 | 46:11.44 | 22:14.53 | 207869 | 307971
Track 1
Filename C:\EAC\Rips\Richard Smith - First Kiss (1997) [FLAC]\01 - First Kiss.wav
Pre-gap length 0:00:02.00
Peak level 98.8 %
Extraction speed 2.9 X
Track quality 100.0 %
Test CRC 25EF8F43
Copy CRC 25EF8F43
Accurately ripped (confidence 8) [901F0A5A] (AR v2)
Copy OK
Track 2
Filename C:\EAC\Rips\Richard Smith - First Kiss (1997) [FLAC]\02 - Rhythm Method.wav
Pre-gap length 0:00:01.00
Peak level 99.3 %
Extraction speed 3.3 X
Track quality 100.0 %
Test CRC 5B50EDAC
Copy CRC 5B50EDAC
Accurately ripped (confidence 8) [352CAB7A] (AR v2)
Copy OK
Track 3
Filename C:\EAC\Rips\Richard Smith - First Kiss (1997) [FLAC]\03 - Midnight Run.wav
Pre-gap length 0:00:01.00
Peak level 97.2 %
Extraction speed 3.4 X
Track quality 100.0 %
Test CRC 922535B2
Copy CRC 922535B2
Accurately ripped (confidence 8) [509754C8] (AR v2)
Copy OK
Track 4
Filename C:\EAC\Rips\Richard Smith - First Kiss (1997) [FLAC]\04 - A Minor Love Affair.wav
Pre-gap length 0:00:01.00
Peak level 93.7 %
Extraction speed 3.8 X
Track quality 100.0 %
Test CRC 98DD9C5B
Copy CRC 98DD9C5B
Accurately ripped (confidence 8) [6F11CFCC] (AR v2)
Copy OK
Track 5
Filename C:\EAC\Rips\Richard Smith - First Kiss (1997) [FLAC]\05 - Never Too Much.wav
Pre-gap length 0:00:02.00
Peak level 92.9 %
Extraction speed 3.8 X
Track quality 99.9 %
Test CRC BD84B32F
Copy CRC BD84B32F
Accurately ripped (confidence 8) [765ED3A4] (AR v2)
Copy OK
Track 6
Filename C:\EAC\Rips\Richard Smith - First Kiss (1997) [FLAC]\06 - Impulsive.wav
Pre-gap length 0:00:02.00
Peak level 97.1 %
Extraction speed 4.4 X
Track quality 100.0 %
Test CRC C2901659
Copy CRC C2901659
Accurately ripped (confidence 8) [79618BF0] (AR v2)
Copy OK
Track 7
Filename C:\EAC\Rips\Richard Smith - First Kiss (1997) [FLAC]\07 - Mission of Love.wav
Pre-gap length 0:00:02.00
Peak level 98.8 %
Extraction speed 4.5 X
Track quality 100.0 %
Test CRC 306A3D0F
Copy CRC 306A3D0F
Accurately ripped (confidence 8) [7AD98180] (AR v2)
Copy OK
Track 8
Filename C:\EAC\Rips\Richard Smith - First Kiss (1997) [FLAC]\08 - Like a Dream.wav
Pre-gap length 0:00:02.00
Peak level 100.0 %
Extraction speed 4.3 X
Track quality 99.9 %
Test CRC 947D8F2F
Copy CRC 947D8F2F
Accurately ripped (confidence 8) [DA49FAB7] (AR v2)
Copy OK
Track 9
Filename C:\EAC\Rips\Richard Smith - First Kiss (1997) [FLAC]\09 - Put it Where You Want It.wav
Pre-gap length 0:00:02.00
Peak level 99.0 %
Extraction speed 4.9 X
Track quality 100.0 %
Test CRC 02AC0DFC
Copy CRC 02AC0DFC
Accurately ripped (confidence 8) [5F81164A] (AR v2)
Copy OK
All tracks accurately ripped
No errors occurred
End of status report
---- CUETools DB Plugin V2.1.6
[CTDB TOCID: xjY_fGQlWRnkxJUl2n..gWJjJ2c-] found
Submit result: xjY_fGQlWRnkxJUl2n..gWJjJ2c- has been confirmed
Track | CTDB Status
1 | (8/8) Accurately ripped
2 | (8/8) Accurately ripped
3 | (8/8) Accurately ripped
4 | (8/8) Accurately ripped
5 | (8/8) Accurately ripped
6 | (8/8) Accurately ripped
7 | (8/8) Accurately ripped
8 | (8/8) Accurately ripped
9 | (8/8) Accurately ripped
==== Log checksum 44CAA6E85A646BC42E454253DB6407C4B7A402190B7555092DC4DF6939340527 ====
Other forum [Profile] [PM]
Display posts from previous:    
Reply to topic

The time now is: Today 15:03

All times are GMT + 3 Hours



You cannot post new topics in this forum
You cannot reply to topics in this forum
You cannot edit your posts in this forum
You cannot delete your posts in this forum
You cannot vote in polls in this forum
You cannot attach files in this forum
You cannot download files in this forum