Today is a free download without charge Download

Только Бог простит / Only God Forgives (Николас Виндинг Рефн) [2013, триллер, драма, криминал, BDRip 1080p] Dub (iTunes) + Original + Sub (Rus/Eng)

Reply to topic
 
Author
Message

Kon912 ®

Gender:

Longevity: 2 months

Posts: 419

Location: Питер

Торрент-статистика

Post 29-Jun-2020 21:45

[Quote]

Только Бог простит / Only God Forgives- Год выхода: 2013
Выпущено: Франция, Таиланд, США, Швеция
Студия: A Grand Elephant, Bold Films, Film i Väst
Жанр: триллер, драма, криминал
Продолжительность: 01:29:29
Озвучивание: Дублированное | iTunes-Режиссер:
Николас Виндинг Рефн-В ролях:
Райан Гослинг, Кристин Скотт Томас, Витхая Пансрингарм, Ейяинг Рхатха Пхонгам, Том Бёрк, Байрон Гибсон, Гордон Браун, Чарли-О фильме: Джулиан, бежавший от американского правосудия, руководит в Бангкоке клубом тайского бокса, который служит ему прикрытием для торговли наркотиками. Его мать, глава крупной преступной организации, приезжает из США, чтобы забрать тело своего любимого сына Билли: брата Джулиана только что убили за зверскую расправу над молодой проституткой. Охваченная яростью и жаждой мести мать требует, чтобы Джулиан нашел и покарал убийц. Молодому человеку придется столкнуться с Чангом — странным полицейским на пенсии, которого обожают его коллеги.- -Качество: BDRip 1080p
Формат: MKV
Видео: MPEG-4 AVC, 11.6 Mb/s, 1920x1036
Аудио #1: Russian: 48 kHz, AC3 Dolby Digital, 3/2 (L, C, R, l, r) + LFE ch, ~384 Kbps | iTunes
Аудио #2: English: 48 kHz, Digital Theater Systems, 3/2 (L, C, R, l, r) + LFE ch, ~1509 Kbps | Original
Субтитры: Russian (Full), English
Дополнительно: Сохранены оригинальные чаптеры.-

MediaInfo:

Complete name: D:Tolko.Bog.prostit.2013.BluRay.1080p.ELEKTRI4KA.UNIONGANG.mkv
Format: Matroska
Format version: Version 4 / Version 2
File size: 8.65 GiB
Duration: 1 h 29 min
Overall bit rate: 13.8 Mb/s
Movie name: .ELEKTRI4KA.UNIONGANG.
Encoded date: UTC 2020-06-27 19:58:58
Writing application: mkvmerge v8.3.0 ('Over the Horizon') 64bit
Writing library: libebml v1.3.1 + libmatroska v1.4.2
Video
ID: 1
Format: AVC
Format/Info: Advanced Video Codec
Format profile: [email protected]
Format settings, CABAC: Yes
Format settings, Reference frames: 4 frames
Codec ID: V_MPEG4/ISO/AVC
Duration: 1 h 29 min
Bit rate: 11.6 Mb/s
Width: 1 920 pixels
Height: 1 036 pixels
Display aspect ratio: 1.85:1
Frame rate mode: Constant
Frame rate: 23.976 (24000/1001) FPS
Color space: YUV
Chroma subsampling: 4:2:0
Bit depth: 8 bits
Scan type: Progressive
Bits/(Pixel*Frame): 0.243
Stream size: 7.25 GiB (84%)
Writing library: x264 core 138 r2358 9e941d1
Encoding settings: cabac=1 / ref=4 / deblock=1:-3:-2 / analyse=0x3:0x133 / me=umh / subme=10 / psy=0 / mixed_ref=1 / me_range=48 / chroma_me=1 / trellis=2 / 8x8dct=1 / cqm=0 / deadzone=21, 11 / fast_pskip=0 / chroma_qp_offset=-2 / threads=6 / lookahead_threads=1 / sliced_threads=0 / nr=101 / decimate=1 / interlaced=0 / bluray_compat=0 / constrained_intra=0 / bframes=10 / b_pyramid=2 / b_adapt=2 / b_bias=0 / direct=3 / weightb=1 / open_gop=0 / weightp=2 / keyint=240 / keyint_min=22 / scenecut=40 / intra_refresh=0 / rc_lookahead=120 / rc=2pass / mbtree=1 / bitrate=11599 / ratetol=1.0 / qcomp=0.50 / qpmin=10 / qpmax=59 / qpstep=4 / cplxblur=20.0 / qblur=0.5 / vbv_maxrate=50000 / vbv_bufsize=62500 / nal_hrd=none / ip_ratio=1.40 / aq=1:1.00
Language: English
Default: Yes
Forced: No
Color range: Limited
Matrix coefficients: BT.709
Audio #1
ID: 2
Format: AC-3
Format/Info: Audio Coding 3
Mode extension: CM (complete main)
Format settings, Endianness: Big
Codec ID: A_AC3
Duration: 1 h 29 min
Bit rate mode: Constant
Bit rate: 384 kb/s
Channel(s): 6 channels
Channel positions: Front: L C R, Side: L R, LFE
Sampling rate: 48.0 kHz
Frame rate: 31.250 FPS (1536 spf)
Bit depth: 16 bits
Compression mode: Lossy
Stream size: 246 MiB (3%)
Title: iTunes
Language: Russian
Default: Yes
Forced: No
Audio #2
ID: 3
Format: DTS
Format/Info: Digital Theater Systems
Format profile: MA / Core
Mode: 16
Format settings, Endianness: Big
Codec ID: A_DTS
Duration: 1 h 29 min
Bit rate mode: Variable / Constant
Bit rate: 1 856 kb/s / 1 509 kb/s
Channel(s): 6 channels
Channel positions: Front: L C R, Side: L R, LFE
Sampling rate: 48.0 kHz
Frame rate: 93.750 FPS (512 spf)
Bit depth: 16 bits
Compression mode: Lossless / Lossy
Stream size: 1.16 GiB (13%)
Language: English
Default: No
Forced: No
Text #1
ID: 4
Format: UTF-8
Codec ID: S_TEXT/UTF8
Codec ID/Info: UTF-8 Plain Text
Duration: 1 h 14 min
Bit rate: 24 b/s
Count of elements: 261
Stream size: 13.4 KiB (0%)
Title: Full
Language: Russian
Default: Yes
Forced: No
Text #2
ID: 5
Format: UTF-8
Codec ID: S_TEXT/UTF8
Codec ID/Info: UTF-8 Plain Text
Duration: 58 min 15 s
Bit rate: 4 b/s
Count of elements: 62
Stream size: 1.80 KiB (0%)
Title: English For Foreign Parts
Language: English
Default: No
Forced: Yes
Text #3
ID: 6
Format: UTF-8
Codec ID: S_TEXT/UTF8
Codec ID/Info: UTF-8 Plain Text
Duration: 1 h 11 min
Bit rate: 10 b/s
Count of elements: 185
Stream size: 5.57 KiB (0%)
Language: English
Default: No
Forced: No
Menu
00:00:00.000: en:00:00:00.000
00:06:43.320: en:00:06:43.320
00:17:57.285: en:00:17:57.285
00:23:58.312: en:00:23:58.312
00:29:55.585: en:00:29:55.585
00:37:12.814: en:00:37:12.814
00:46:54.353: en:00:46:54.353
00:54:06.994: en:00:54:06.994
01:01:20.260: en:01:01:20.260
01:08:08.710: en:01:08:08.710
01:15:42.872: en:01:15:42.872
01:26:46.159: en:01:26:46.159

Скриншоты

       

Релиз от ELEKTRI4KA
Other forum [Profile] [PM]
Display posts from previous:    
Reply to topic

The time now is: Today 13:59

All times are GMT + 3 Hours



You cannot post new topics in this forum
You cannot reply to topics in this forum
You cannot edit your posts in this forum
You cannot delete your posts in this forum
You cannot vote in polls in this forum
You cannot attach files in this forum
You cannot download files in this forum