Today is a free download without charge Download

(Electronic, Space Rock) Zodiac - Disco Alliance & Music In The Universe 2LPs - 1980, 1983, FLAC (image + .cue), lossless

Reply to topic
 
Author
Message

Dagel(tm) ®

Gender:

Longevity: 1 year 10 months

Posts: 26

Торрент-статистика

Post 02-Nov-2021 17:44

[Quote]

Zodiac - Disco Alliance & Music In The Universe 2LPs
Страна: Латвия, СССР
Жанр: Electronic, Space Rock
Год выпуска: 1980, 1983
Формат: FLAC (image + .cue)
Битрейт аудио: lossless
Продолжительность: 00:58:29
Трэклист:
A1 Zodiac
A2 Pacific
A3 Provincial Disco
B1 Polo
B2 Mirage
B3 Rock On The Ice
B4 Alliance
A1 The Mysterious Galaxy
A2 Laser Illumination
A3 Silver Dream
A4 Photo Finish
B1 The Other Side Of Heaven
B2 In The Light Of Saturn
B3 Flight Over El Dorado

Дополнительная информация

В конце 70-х гг. в недрах студенческого клуба Латвийской Государственной консерватории имени Я. Витолса композитор Янис Лусенс и продюсер Александр Грива, под влиянием музыки зарубежной группы "Space", создают рок-группу "Зодиак", почти целиком сосредоточившуюся на студийной работе. Искусство музыкантов группы Зодиак вызывало огромный интерес слушателей.
Причины этого, видимо, в своеобразии музыкальных решений, оригинальности исполняемых группой композиций. Ее манера привлекала сбалансированностью звучания, превалированием мелодического начала над ритмо-ударным, шумовым, техническим совершенством и хорошим вкусом.
"Зодиак" - ансамбль студийный: его творческие замыслы, стиль раскрываются полностью только в записи, которая представляет собой длительную, сложную и кропотливую работу всех участников, особенно звукорежиссера. "Зодиак" исполняет электронную рок-музыку, используя полифонические синтезаторы и различные специальные эффекты звукозаписи. Широкие и многообразные исполнительские возможности позволяют ансамблю создавать композиции на самые различные темы.
Одна из них - тема космоса. "Зодиак" обращался к ней неоднократно. И с особым интересом - после посещения Звездного городка, где музыканты с успехом выступали и лично общались с космонавтами, специалистами, работающими в этой сфере. Встречи в Звездном городке, рассказы о полетах в космические дали явились для ансамбля новым творческим стимулом. И уже названия композиций Яниса Лусенса, свидетельствуют о характере музыки, которую исполняет рок-группа "Зодиак".

От автора рипа в формате WAV

Моя повторная оцифровка с минимальным удалением щелчков. Каналы соответствуют.
Проигрыватель Dual CS 728 Q, игла Nagaoka JT-322 Shibata naked, усилитель Dual CV 1400, ALC 1150 Realtek HD audio WASAPI on Gigabyte i5. Использовал Izotope RX5 Audio Editor. Audio Repeater Kernel Streaming. Выкладываю в 24 битах WAV формате, что бы каждый смог конвертировать (или нет) на свой вкус и битрейт.
По поводу битрейта и частоты: любую запись переконвертируя из 24/96 в 16/44 всегда будут высокие частоты увиличены от оригинала. Мое предложение это - слушать 24/96 на хайфай, а конвертировать в 44/16, в мп3 если слушаете на простой аппаратуре - тогда у вас вдруг появятся высокие частоты, так как и в AAC 44100Hz stereo 125kbps.

От релизера

перекодировал исходные треки из WAV в единый файл FLAC, сохранив частоту и разрядность и урезав битрейт на ~ 1000 kbps. Для этого использовал Foobar 0.95 и кодировщик flac.exe x64 level 5. Затем составил CUE при помощи Audacity 1.3 & Notepad++ 6.22 и вшил его программой Mp3Tag 2.68, для второго альбома - AiMp 2.6.1.583. Последней добавил обложки и теги.
Таким образом получились образы All-In-One: разметка, обложки и FLAC в одном флаконе =) Если у кого софт или платформа не умеет читать встроенный CUE, то можете извлечь его любым редактором метаданных (AiMp, Mp3Tag...) и сохранить как .cue-файл в ту же папку. Либо воспользоваться соотв. спойлером

Cue Sheet (.cue):

Disco Alliance

REM GENRE Electronic
REM DATE 1980
REM DISCID C60-13771
REM COMMENT "foobar2000 v0.95b6"
PERFORMER "Zodiac"
TITLE "Disco Alliance"
FILE "01__zodiac-disco_alliance.flac" WAVE
TRACK 01 AUDIO
TITLE "Zodiac"
PERFORMER "Zodiac"
INDEX 01 00:00:00
TRACK 02 AUDIO
TITLE "Pacific"
PERFORMER "Zodiac"
INDEX 01 05:12:19
TRACK 03 AUDIO
TITLE "Provincial Disco"
PERFORMER "Zodiac"
INDEX 01 09:05:44
TRACK 04 AUDIO
TITLE "Polo"
PERFORMER "Zodiac"
INDEX 01 13:22:70
TRACK 05 AUDIO
TITLE "Mirage"
PERFORMER "Zodiac"
INDEX 01 16:40:73
TRACK 06 AUDIO
TITLE "Rock On The Ice"
PERFORMER "Zodiac"
INDEX 01 20:42:85
TRACK 07 AUDIO
TITLE "Alliance"
PERFORMER "Zodiac"
INDEX 01 23:25:16

Music In The Universe

REM GENRE Electronic
REM DATE 1983
REM DISCID C60-18365
REM COMMENT "foobar2000 v0.95b6"
PERFORMER "Zodiac"
TITLE "Music In The Universe"
FILE "02__zodiac-music_in_the_universe.flac" WAVE
TRACK 01 AUDIO
TITLE "The Mysterious Galaxy"
PERFORMER "Zodiac"
INDEX 01 00:00:00
TRACK 02 AUDIO
TITLE "Laser Illumination"
PERFORMER "Zodiac"
INDEX 01 04:45:31
TRACK 03 AUDIO
TITLE "Silver Dream"
PERFORMER "Zodiac"
INDEX 01 08:56:65
TRACK 04 AUDIO
TITLE "Photo Finish"
PERFORMER "Zodiac"
INDEX 01 12:29:55
TRACK 05 AUDIO
TITLE "The Other Side Of Heaven"
PERFORMER "Zodiac"
INDEX 01 17:11:73
TRACK 06 AUDIO
TITLE "In The Light Of Saturn"
PERFORMER "Zodiac"
INDEX 01 22:29:10
TRACK 07 AUDIO
TITLE "Flight Over El Dorado"
PERFORMER "Zodiac"
INDEX 01 26:16:21

Отчет MI

Disco Alliance

General
Complete name : G:\Torents\Music\lossless\Zodiac ‎– Disco Alliance 24-96\01__zodiac-disco_alliance.flac
Format : FLAC
Format/Info : Free Lossless Audio Codec
File size : 595 MiB
Duration : 27mn 5s
Overall bit rate mode : Variable
Overall bit rate : 3 068 Kbps
Album : Disco Alliance
Part : C60-13771
Track name/Total : 7
Performer : Zodiac
Composer : Yanis Lusens
Encoded by : Dagel™
Genre : Electronic
Recorded date : 1980
Cover : Yes / Yes / Yes / Yes
Cover type : Cover (front) / Media / Media / Cover (back)
Cover MIME : image/jpeg / image/jpeg / image/jpeg / image/jpeg
Comment : foobar2000 v0.95b6
cue_track01_PERFORMER : Zodiac
cue_track01_TOTALDISCS : 2
cuesheet : REM GENRE Instrumental Rock / REM DATE 1980 / REM DISCID C60-13771 / REM COMMENT foobar2000 v0.95b6 / PERFORMER "Zodiac" / TITLE "Disco Alliance" / FILE "zodiac-disco_alliance.flac" WAVE / TRACK 01 AUDIO / TITLE "Zodiac" / INDEX 01 00:00:00 / TRACK 02 AUDIO / TITLE "Pacific" / INDEX 01 05:12:19 / TRACK 03 AUDIO / TITLE "Provincial Disco" / INDEX 01 09:05:44 / TRACK 04 AUDIO / TITLE "Polo" / INDEX 01 13:22:70 / TRACK 05 AUDIO / TITLE "Mirage" / INDEX 01 16:40:73 / TRACK 06 AUDIO / TITLE "Rock On The Ice" / INDEX 01 20:43:10 / TRACK 07 AUDIO / TITLE "Alliance" / INDEX 01 23:25:16
SOURCE : vinyl
TRACKLIST : A1 Zodiac 5:12 / A2 Pacific 3:52 / A3 Provincial Disco 4:18 / B1 Polo 3:17 / B2 Mirage 4:02 / B3 Rock On The Ice 2:42 / B4 Alliance 3:41
Audio
Format : FLAC
Format/Info : Free Lossless Audio Codec
Duration : 27mn 5s
Bit rate mode : Variable
Bit rate : 3 065 Kbps
Channel(s) : 2 channels
Channel positions : Front: L R
Sampling rate : 96.0 KHz
Bit depth : 24 bits
Stream size : 594 MiB (100%)
Writing library : libFLAC 1.3.0 (UTC 2013-05-26)

Music In The Universe

General
Complete name : G:\Torents\Music\lossless\Zodiac ‎– Disco Alliance 24-96\02__zodiac-music_in_the_universe.flac
Format : FLAC
Format/Info : Free Lossless Audio Codec
File size : 705 MiB
Duration : 31mn 24s
Overall bit rate mode : Variable
Overall bit rate : 3 138 Kbps
Album : Music In The Universe
Part : C60-18365-6
Track name/Total : 7
Performer : Zodiac
Composer : Yanis Lusens
Encoded by : Dagel™
Genre : Electronic
Recorded date : 1983
Cover : Yes / Yes / Yes / Yes
Cover type : Cover (front) / Cover (back) / Media / Media
Cover MIME : image/jpeg / image/jpeg / image/jpeg / image/jpeg
Lyrics : Manufactured By – Рижский Завод Грампластинок / / Art Direction [Art Director] – Alexander Griva* / Bass – Ivars Pilka* / Design [Cover] – J. Truls*, M. Argalis* / Directed By [Musical Director], Piano, Synthesizer [Yamaha Sk-50d] – Janis Lusens* / Engineer [Recording], Edited By – A. Griva* / Guitar – Aivars Gudrais (tracks: A2 to A4, B2), Dzintars Sagens* (tracks: A1, B1, B3) / Liner Notes – Aivars Baumanis / Percussion – Andris Reinis / Written-By – J. Lusens* / / Front cover picture is a mirror image of the first pressing.The Woman is facing left here. / / This version has white labels, backsleeve contains liner notes in English and Russian. To differentiate between the other versions, also see the info beneath the copyright. / / Programme is dedicated to the 25th anniversary of the Soviet astronautics. / / © »МЕЛОДИЯ«, 1983 / Рижская студия грамзаписи. / Запись 1982 г. / Рижский Ордена Знак Почета завод грампластинок / Тип. РЗГ Мелодия 1983 1384 107000 / Арт. 11-3. Цена 4.00 руб. / White Labels / Barcode and Other Identifiers / Matrix / Runout (Side A): C60-18365/2-1 / Matrix / Runout (Side B): C60-18366/2-1 / Other (State Standard): ГОСТ 5289-80
Comment : foobar2000 v0.95b6
CUE_TRACK01_PERFORMER : Zodiac
CUESHEET : REM GENRE Electronic / REM DATE 1983 / REM DISCID C60-18365 / REM COMMENT "foobar2000 v0.95b6" / PERFORMER "Zodiac" / TITLE "Music In The Universe" / FILE "02__zodiac-music_in_the_universe.flac" WAVE / TRACK 01 AUDIO / TITLE "The Mysterious Galaxy" / PERFORMER "Zodiac" / INDEX 01 00:00:00 / TRACK 02 AUDIO / TITLE "Laser Illumination" / PERFORMER "Zodiac" / INDEX 01 04:45:31 / TRACK 03 AUDIO / TITLE "Silver Dream" / PERFORMER "Zodiac" / INDEX 01 08:56:65 / TRACK 04 AUDIO / TITLE "Photo Finish" / PERFORMER "Zodiac" / INDEX 01 12:29:55 / TRACK 05 AUDIO / TITLE "The Other Side Of Heaven" / PERFORMER "Zodiac" / INDEX 01 17:11:73 / TRACK 06 AUDIO / TITLE "In The Light Of Saturn" / PERFORMER "Zodiac" / INDEX 01 22:29:10 / TRACK 07 AUDIO / TITLE "Flight Over El Dorado" / PERFORMER "Zodiac" / INDEX 01 26:16:21
SOURCE : vinyl
TRACKLIST : A1 The Mysterious Galaxy • Таинственная Галактика 4:45 / A2 Laser Illumination • Лазерная Иллюминация 4:11 / A3 Silver Dream • Серебряная Мечта 3:32 / A4 Photo Finish • Фотофиниш 4:43 / B1 The Other Side Of Heaven • Другая Сторона Неба 5:17 / B2 In The Light Of Saturn • В Свете Сатурна 3:47 / B3 Flight Over El Dorado • Полет Над Эльдорадо 5:07
Audio
Format : FLAC
Format/Info : Free Lossless Audio Codec
Duration : 31mn 24s
Bit rate mode : Variable
Bit rate : 3 134 Kbps
Channel(s) : 2 channels
Channel positions : Front: L R
Sampling rate : 96.0 KHz
Bit depth : 24 bits
Stream size : 704 MiB (100%)
Writing library : libFLAC 1.3.0 (UTC 2013-05-26)
Спектрограмма:    

_________________
так, по крайней мере, я чуВствую
Other forum [Profile] [PM]
Display posts from previous:    
Reply to topic

The time now is: Today 08:52

All times are GMT + 3 Hours



You cannot post new topics in this forum
You cannot reply to topics in this forum
You cannot edit your posts in this forum
You cannot delete your posts in this forum
You cannot vote in polls in this forum
You cannot attach files in this forum
You cannot download files in this forum