Today is a free download without charge Download

Декстер: Новая кровь / Dexter: New Blood / Сезон: 1 / Серии: 1-3 из 10 (Маркос Сига) [2021, США, драма, WEB-DL 720p] MVO (Novamedia, LostFilm, Jaskier, TVShows) + Original + Sub (Rus, Eng)

Reply to topic
 
Author
Message

}{@R0N ®

Longevity: 6 years 1 month

Posts: 7688

Торрент-статистика

Post 11-Nov-2021 23:00

[Quote]

Декстер: Новая кровь | Dexter: New Blood
«***»
- Производство: США
Год выпуска: 2021
Жанр: драма
Продолжительность: ~ 00:57:00 серия-Премьера (мир): 7 ноября 2021-Перевод:
- Профессиональный (многоголосый закадровый) | Novamedia
- Профессиональный (многоголосый закадровый) | Lostfilm
- Профессиональный (многоголосый закадровый) | Jaskier
- Профессиональный (многоголосый закадровый) | TVShows-Режиссёр: Маркос Сига-В ролях: Майкл С. Холл (Michael C. Hall), Джек Элкотт (Jack Alcott), Джулия Джонс (Julia Jones), Джонни Секвойя (Johnny Sequoyah), Алано Миллер (Alano Miller), Дженнифер Карпентер (Jennifer Carpenter), Дэвид Магидофф (David Magidoff), Клэнси Браун (Clancy Brown), Майкл Сирил Крейтон (Michael Cyril Creighton), Кэти Салливан (Katy Sullivan), Стивен Маркус Робертсон (Steven Robertson), Дастин Такер (Dustin Tucker)-Описание:
Действие происходит через 10 лет после окончания восьмого сезона. Декстер Морган живёт в небольшом городке Айрон Лейк (вымышленный город в штате Нью-Йорк) под именем Джима Линдзи. Он открыл магазин инструментов и встречается с местным начальником полиции Анджелой Бишоп, подавив в себе тягу к убийствам. Однако после того, как в городке начинают происходить инциденты, напоминающие серийные убийства, в Декстере просыпается его «тёмный попутчик».- -Качество видео: WEB-DL 720p
Формат: MKV
Видео: AVC, 1280 x 720 (1.778), 23.976 fps, ~2 687 kbps
Аудио Rus: AC-3, 48 kHz, 6 ch, 384 kbps |Novamedia|
Аудио Rus: AC-3, 48 kHz, 2 ch, 384 kbps |LostFilm|
Аудио Rus: AC-3, 48 kHz, 6 ch, 384 kbps |Jaskier|
Аудио Rus: AC-3, 48 kHz, 6 ch, 384 kbps |TVShows|
Аудио Eng: E-AC-3, 48 kHz, 6 ch, 640 kbps |Original|
Субтитры: Rus, Eng (SDH)
Реклама: Отсутствует
-

MediaInfo:

Общее
Уникальный идентификатор : 262074600025053276543451544572145131946 (0xC529BB6361114A93D9DAC1386D9361AA)
Полное имя : E:\_Сериалы\_Сериалы\Декстер\Dexter.New.Blood.S01.WEBDL.720p.Rus.Eng\Dexter.New.Blood.S01E01.WEBDL.720p.RGzsRutracker.mkv.mkv
Формат : Matroska
Версия формата : Version 4
Размер файла : 1,97 Гбайт
Продолжительность : 57 м. 56 с.
Общий поток : 4 866 Кбит/сек
Дата кодирования : UTC 2021-11-10 16:00:54
Программа кодирования : mkvmerge v62.0.0 ('Apollo') 64-bit
Библиотека кодирования : libebml v1.4.2 + libmatroska v1.6.4
Видео
Идентификатор : 1
Формат : AVC
Формат/Информация : Advanced Video Codec
Профиль формата : [email protected]
Настройки формата : CABAC / 4 Ref Frames
Параметр CABAC формата : Да
Параметр RefFrames формата : 4 кадра
Идентификатор кодека : V_MPEG4/ISO/AVC
Продолжительность : 57 м. 56 с.
Вид битрейта : Постоянный
Битрейт : 2 687 Кбит/сек
Номинальный битрейт : 6 000 Кбит/сек
Ширина : 1 280 пикселей
Высота : 720 пикселей
Соотношение сторон : 16:9
Режим частоты кадров : Постоянный
Частота кадров : 23,976 (24000/1001) кадра/сек
Цветовое пространство : YUV
Субдискретизация насыщенности : 4:2:0
Битовая глубина : 8 бит
Тип развёртки : Прогрессивная
Бит/(Пиксели*Кадры) : 0.122
Размер потока : 1,09 Гбайт (55%)
Язык : English
Default : Да
Forced : Нет
Цветовой диапазон : Limited
Основные цвета : BT.709
Характеристики трансфера : BT.709
Коэффициенты матрицы : BT.709
Аудио #1
Идентификатор : 2
Формат : AC-3
Формат/Информация : Audio Coding 3
Коммерческое название : Dolby Digital
Идентификатор кодека : A_AC3
Продолжительность : 57 м. 56 с.
Вид битрейта : Постоянный
Битрейт : 384 Кбит/сек
Каналы : 6 каналов
Channel layout : L R C LFE Ls Rs
Частота : 48,0 КГц
Частота кадров : 31,250 кадров/сек (1536 SPF)
Метод сжатия : С потерями
Размер потока : 159 Мбайт (8%)
Заголовок : Novamedia
Язык : Russian
Service kind : Complete Main
Default : Да
Forced : Нет
Аудио #2
Идентификатор : 3
Формат : AC-3
Формат/Информация : Audio Coding 3
Коммерческое название : Dolby Digital
Идентификатор кодека : A_AC3
Продолжительность : 57 м. 56 с.
Вид битрейта : Постоянный
Битрейт : 384 Кбит/сек
Каналы : 2 канала
Channel layout : L R
Частота : 48,0 КГц
Частота кадров : 31,250 кадров/сек (1536 SPF)
Метод сжатия : С потерями
Размер потока : 159 Мбайт (8%)
Заголовок : LF
Язык : Russian
Service kind : Complete Main
Default : Нет
Forced : Нет
Аудио #3
Идентификатор : 4
Формат : AC-3
Формат/Информация : Audio Coding 3
Коммерческое название : Dolby Digital
Идентификатор кодека : A_AC3
Продолжительность : 57 м. 56 с.
Вид битрейта : Постоянный
Битрейт : 384 Кбит/сек
Каналы : 6 каналов
Channel layout : L R C LFE Ls Rs
Частота : 48,0 КГц
Частота кадров : 31,250 кадров/сек (1536 SPF)
Метод сжатия : С потерями
Размер потока : 159 Мбайт (8%)
Заголовок : Jas
Язык : Russian
Service kind : Complete Main
Default : Нет
Forced : Нет
Аудио #4
Идентификатор : 5
Формат : AC-3
Формат/Информация : Audio Coding 3
Коммерческое название : Dolby Digital
Идентификатор кодека : A_AC3
Продолжительность : 57 м. 56 с.
Вид битрейта : Постоянный
Битрейт : 384 Кбит/сек
Каналы : 6 каналов
Channel layout : L R C LFE Ls Rs
Частота : 48,0 КГц
Частота кадров : 31,250 кадров/сек (1536 SPF)
Метод сжатия : С потерями
Размер потока : 159 Мбайт (8%)
Заголовок : TVS
Язык : Russian
Service kind : Complete Main
Default : Нет
Forced : Нет
Аудио #5
Идентификатор : 6
Формат : E-AC-3
Формат/Информация : Enhanced AC-3
Коммерческое название : Dolby Digital Plus
Идентификатор кодека : A_EAC3
Продолжительность : 57 м. 56 с.
Вид битрейта : Постоянный
Битрейт : 640 Кбит/сек
Каналы : 6 каналов
Channel layout : L R C LFE Ls Rs
Частота : 48,0 КГц
Частота кадров : 31,250 кадров/сек (1536 SPF)
Метод сжатия : С потерями
Задержка видео : 18 мс.
Размер потока : 265 Мбайт (13%)
Заголовок : Eng
Язык : English
Service kind : Complete Main
Default : Нет
Forced : Нет
Текст #1
Идентификатор : 7
Формат : UTF-8
Идентификатор кодека : S_TEXT/UTF8
Идентификатор кодека/Информация : UTF-8 Plain Text
Продолжительность : 53 м. 46 с.
Битрейт : 66 бит/сек
Count of elements : 582
Размер потока : 26,1 Кбайт (0%)
Заголовок : Rus
Язык : Russian
Default : Нет
Forced : Нет
Текст #2
Идентификатор : 8
Формат : UTF-8
Идентификатор кодека : S_TEXT/UTF8
Идентификатор кодека/Информация : UTF-8 Plain Text
Продолжительность : 49 м. 1 с.
Битрейт : 1 бит/сек
Count of elements : 11
Размер потока : 574 байт (0%)
Заголовок : Forc
Язык : Russian
Default : Да
Forced : Нет
Текст #3
Идентификатор : 9
Формат : UTF-8
Идентификатор кодека : S_TEXT/UTF8
Идентификатор кодека/Информация : UTF-8 Plain Text
Продолжительность : 55 м. 36 с.
Битрейт : 63 бит/сек
Count of elements : 825
Размер потока : 25,9 Кбайт (0%)
Заголовок : Eng
Язык : English
Default : Нет
Forced : Нет
Текст #4
Идентификатор : 10
Формат : UTF-8
Идентификатор кодека : S_TEXT/UTF8
Идентификатор кодека/Информация : UTF-8 Plain Text
Продолжительность : 55 м. 45 с.
Битрейт : 88 бит/сек
Count of elements : 1075
Размер потока : 36,2 Кбайт (0%)
Заголовок : SDH
Язык : English
Default : Нет
Forced : Нет
-

Скриншоты:

           


Last edited by }{@R0N on 2021-11-24 15:21; edited 3 times in total
Other forum [Profile] [PM]

RUGUI

Gender:

Longevity: 10 years

Posts: 452

Торрент-статистика

Post 12-Nov-2021 19:29 (after 20 hours)

[Quote]

}{@R0N, Спасибо за релиз! Буду ждать вторую серию. Дата выхода 14.11.2021г.
Странно в описании указано что Декстер открыл свой магазин инструментов, хотя в первой серии он работает в магазине оружия. Возможно он далее поменяет деятельность.
Other forum [Profile] [PM]
Display posts from previous:    
Reply to topic

The time now is: Today 08:19

All times are GMT + 3 Hours



You cannot post new topics in this forum
You cannot reply to topics in this forum
You cannot edit your posts in this forum
You cannot delete your posts in this forum
You cannot vote in polls in this forum
You cannot attach files in this forum
You cannot download files in this forum