Today is a free download without charge Download

Академия «Амбрелла» / The Umbrella Academy / Сезон: 2 / Серии: 1-10 из 10 (Эндрю Бернштейн, Питер Хор, Эллен Кёрас) [2020, фэнтези, боевик, WEB-DL 1080p] Dub (Пифагор) + Original+ Sub (Rus/Eng)

Reply to topic
 
Author
Message

Kon912 ®

Gender:

Longevity: 2 months 22 days

Posts: 481

Location: Питер

Торрент-статистика

Post 31-Jul-2020 22:11

[Quote]

Академия «Амбрелла» / The Umbrella Academy- Год выпуска: 2020
Страна: США
Студия: Netflix, Dark Horse Entertainment
Жанр: фэнтези, боевик
Продолжительность: ~00:59:00 серия
Перевод: Профессиональный (дублированный) Пифагор по заказу Netflix-Режиссер:
Эндрю Бернштейн, Питер Хор, Эллен Кёрас-В ролях:
Эйдан Галлахер, Камерон Бриттон, Иден Кьюпид, Кэмерон Бродер, Итан Хванг, Dante Albidone, Том Хоппер, Дэвид Кастанеда, Роберт Шиэн, Эмми Рэвер-Лэмпман, Эллен Пейдж-О фильме:
Действие разворачивается в альтернативной вселенной. В середине 20-го века 43 женщины, которые до этого не были беременны, одновременно рожают младенцев, наделённых суперспособностями. Пришелец, скрывающийся под личиной сэра Реджинальда Харггривса, спасает семерых новорождённых и создаёт Академию «Амбрелла». Вместе они используют свои таланты для защиты Земли. Годы спустя, после распада Академии, ученики встречаются на похоронах Харггривса. Им предстоит вновь объединиться ради защиты человечества и выступить против одного из бывших соратников по Академии.- -Качество: WEB-DL 1080p
Формат: MKV
Видео: 1920x1080 at 23.976 fps, MPEG-4 AVC, ~6600 kbps avg
Аудио#1: Russian: 48 kHz, Е-AC3, 3/2 (L,C,R,l,r) + LFE ch, ~640 kbps avg |Дубляж, Пифагор по заказу Netflix|
Аудио#2: English: 48 kHz, Е-AC3, 3/2 (L,C,R,l,r) + LFE ch, ~640 kbps avg
Субтитры: Russian (Forced, Full), English (Forced, SDH)-

Знаете ли вы, что...

Сериал основан на одноимённой серии комиксов (2007), созданной Джерардом Уэем, бывшим вокалистом рок-группы группы My Chemical Romance (2001-2013).

Список серий

01. Right Back Where We Started
02. The Frankel Footage
03. The Swedish Job
04. The Majestic 12
05. Valhalla
06. A Light Supper
07. Öga for Öga
08. The Seven Stages
09. 743
10. The End of Something

MediaInfo

General
Unique ID : 239103351036806901267419483668972005212 (0xB3E1A15F0B5B8992A82406D20A93675C)
Complete name : The.Umbrella.Academy.S02E01.1080p.NF.WEB-DL.DDP5.1.x264-EniaHD.mkv
Format : Matroska
Format version : Version 4
File size : 2.60 GiB
Duration : 47 min 1 s
Overall bit rate mode : Variable
Overall bit rate : 7 908 kb/s
Movie name : The Umbrella Academy S02E01 - EniaHD
Encoded date : UTC 2020-07-31 07:15:08
Writing application : mkvmerge v48.0.0 ('Fortress Around Your Heart') 64-bit
Writing library : libebml v1.4.0 + libmatroska v1.6.0
Video
ID : 1
Format : AVC
Format/Info : Advanced Video Codec
Format profile : [email protected]
Format settings : CABAC / 4 Ref Frames
Format settings, CABAC : Yes
Format settings, Reference fra : 4 frames
Codec ID : V_MPEG4/ISO/AVC
Duration : 47 min 0 s
Bit rate mode : Variable
Bit rate : 6 628 kb/s
Maximum bit rate : 20.0 Mb/s
Width : 1 920 pixels
Height : 1 080 pixels
Display aspect ratio : 16:9
Frame rate mode : Constant
Frame rate : 23.976 (24000/1001) FPS
Color space : YUV
Chroma subsampling : 4:2:0
Bit depth : 8 bits
Scan type : Progressive
Bits/(Pixel*Frame) : 0.133
Stream size : 2.18 GiB (84%)
Writing library : x264 core 148 r2722 1b0121b
Encoding settings : cabac=1 / ref=4 / deblock=1:0:0 / analyse=0x3:0x111 / me=umh / subme=10 / psy=1 / psy_rd=1.00:0.00 / mixed_ref=1 / me_range=120 / chroma_me=1 / trellis=2 / 8x8dct=1 / cqm=0 / deadzone=21,11 / fast_pskip=1 / chroma_qp_offset=-2 / threads=8 / lookahead_threads=2 / sliced_threads=0 / nr=0 / decimate=1 / interlaced=0 / bluray_compat=0 / stitchable=1 / constrained_intra=0 / bframes=16 / b_pyramid=2 / b_adapt=2 / b_bias=0 / direct=3 / weightb=1 / open_gop=0 / weightp=2 / keyint=240 / keyint_min=121 / scenecut=0 / intra_refresh=0 / rc_lookahead=240 / rc=crf / mbtree=1 / crf=16.0 / qcomp=0.50 / qpmin=6 / qpmax=51 / qpstep=4 / vbv_maxrate=20000 / vbv_bufsize=25000 / crf_max=0.0 / nal_hrd=vbr / filler=0 / ip_ratio=1.40 / aq=1:0.80
Default : Yes
Forced : No
Audio #1
ID : 2
Format : E-AC-3
Format/Info : Enhanced AC-3
Commercial name : Dolby Digital Plus
Codec ID : A_EAC3
Duration : 47 min 1 s
Bit rate mode : Constant
Bit rate : 640 kb/s
Channel(s) : 6 channels
Channel layout : L R C LFE Ls Rs
Sampling rate : 48.0 kHz
Frame rate : 31.250 FPS (1536 SPF)
Compression mode : Lossy
Stream size : 215 MiB (8%)
Language : Russian
Service kind : Complete Main
Default : Yes
Forced : No
Audio #2
ID : 3
Format : E-AC-3
Format/Info : Enhanced AC-3
Commercial name : Dolby Digital Plus
Codec ID : A_EAC3
Duration : 47 min 1 s
Bit rate mode : Constant
Bit rate : 640 kb/s
Channel(s) : 6 channels
Channel layout : L R C LFE Ls Rs
Sampling rate : 48.0 kHz
Frame rate : 31.250 FPS (1536 SPF)
Compression mode : Lossy
Stream size : 215 MiB (8%)
Language : English
Service kind : Complete Main
Default : No
Forced : No
Text #1
ID : 4
Format : UTF-8
Codec ID : S_TEXT/UTF8
Codec ID/Info : UTF-8 Plain Text
Duration : 45 min 31 s
Bit rate : 4 b/s
Count of elements : 27
Stream size : 1.44 KiB (0%)
Title : Forced
Language : Russian
Default : Yes
Forced : No
Text #2
ID : 5
Format : UTF-8
Codec ID : S_TEXT/UTF8
Codec ID/Info : UTF-8 Plain Text
Duration : 45 min 31 s
Bit rate : 87 b/s
Count of elements : 599
Stream size : 29.2 KiB (0%)
Language : Russian
Default : No
Forced : No
Text #3
ID : 6
Format : UTF-8
Codec ID : S_TEXT/UTF8
Codec ID/Info : UTF-8 Plain Text
Duration : 44 min 35 s
Bit rate : 91 b/s
Count of elements : 876
Stream size : 30.0 KiB (0%)
Title : SDH
Language : English
Default : No
Forced : No
Text #4
ID : 7
Format : UTF-8
Codec ID : S_TEXT/UTF8
Codec ID/Info : UTF-8 Plain Text
Duration : 45 min 29 s
Bit rate : 51 b/s
Count of elements : 595
Stream size : 17.2 KiB (0%)
Language : German
Default : No
Forced : No
Text #5
ID : 8
Format : UTF-8
Codec ID : S_TEXT/UTF8
Codec ID/Info : UTF-8 Plain Text
Duration : 45 min 29 s
Bit rate : 53 b/s
Count of elements : 602
Stream size : 17.8 KiB (0%)
Language : Spanish
Default : No
Forced : No
Text #6
ID : 9
Format : UTF-8
Codec ID : S_TEXT/UTF8
Codec ID/Info : UTF-8 Plain Text
Duration : 45 min 29 s
Bit rate : 49 b/s
Count of elements : 570
Stream size : 16.4 KiB (0%)
Language : French
Default : No
Forced : No
Text #7
ID : 10
Format : UTF-8
Codec ID : S_TEXT/UTF8
Codec ID/Info : UTF-8 Plain Text
Duration : 45 min 29 s
Bit rate : 52 b/s
Count of elements : 541
Stream size : 17.5 KiB (0%)
Language : Italian
Default : No
Forced : No
Text #8
ID : 11
Format : UTF-8
Codec ID : S_TEXT/UTF8
Codec ID/Info : UTF-8 Plain Text
Duration : 45 min 29 s
Bit rate : 56 b/s
Count of elements : 602
Stream size : 18.8 KiB (0%)
Title : Brazilian
Language : Portuguese
Default : No
Forced : No

Скриншоты

     
***Примечание: Без рекламы
***Релиз: [email protected]
Other forum [Profile] [PM]
Display posts from previous:    
Reply to topic

The time now is: Today 05:52

All times are GMT + 3 Hours



You cannot post new topics in this forum
You cannot reply to topics in this forum
You cannot edit your posts in this forum
You cannot delete your posts in this forum
You cannot vote in polls in this forum
You cannot attach files in this forum
You cannot download files in this forum