Today is a free download without charge Download

Дело (Алексей Герман мл) [2021, драма, WEB-DL 1080p] [ОККО]

Reply to topic
 
Author
Message

K15 ®

Gender:

Longevity: 25 days

Posts: 21

Торрент-статистика

Post 20-Nov-2021 19:55

[Quote]

Информация о фильме
Название: Дело
Год выхода: 2021
Жанр: Драма
Режиссер: Алексей Герман мл.--В ролях: Мераб Нинидзе, Анна Михалкова, Роза Хайруллина, Светлана Ходченкова, Александр Паль, Александра Бортич, Анастасия Мельникова, Анастасия Талызина, Юрий Уткин, Александр Большаков (II), Юлия Маркова, Алиса Рейфер, Ян Решетников, Александра Карабанова--О фильме: Специалист по литературе Серебряного века профессор Давид Гурамович обвиняет мэра провинциального городка в краже крупной суммы, но сам становится фигурантом дела о растрате и отправляется под домашний арест. Все вокруг советуют ему как можно скорее пойти на мировую, но Давид упрямо решает идти до конца. Он вступает в борьбу за свои идеалы, свое имя, а порой и за существование.-- --Страна: Россия
Студия: Кинокомпания «Метрафильмс»
Продолжительность: 01:46:26
Язык: Русский | ОККО--Примечание: Без рекламы
Цифровой релиз: 19 ноября 2021 года (ОККО)--Файл
Формат: MKV
Качество: WEB-DL 1080p
Видео: MPEG-4 AVC, 5000 Кбит/с, 1920x1024
Звук: AC3, 2 ch, 192 Кбит/с
Субтитры: Отсутствуют--Семпл--

Тех.данные видеофайла

Общее
Уникальный идентификатор: 145649436800133857025510935863535095539 (0x6D930FA8F2023704BF5B15903C684EF3)
Полное имя: D:Delo.2021.WEB-DL.1080p.ELEKTRI4KA.UNIONGANG.mkv
Формат: Matroska
Версия формата: Version 4
Размер файла: 3, 85 Гбайт
Продолжительность: 1 ч. 46 м.
Общий поток: 5 175 Кбит/сек
Название фильма: Delo.2021.WEB-DL.1080p.ELEKTRI4KA.UNIONGANG
Дата кодирования: UTC 2021-11-19 18:01:36
Программа кодирования: mkvmerge v63.0.0 ('Everything') 64-bit
Библиотека кодирования: libebml v1.4.2 + libmatroska v1.6.4
Attachments: poster.jpg
Видео
Идентификатор: 1
Формат: AVC
Формат/Информация: Advanced Video Codec
Профиль формата: [email protected]
Настройки формата: CABAC / 3 Ref Frames
Параметр CABAC формата: Да
Параметр RefFrames формата: 3 кадра
Идентификатор кодека: V_MPEG4/ISO/AVC
Продолжительность: 1 ч. 46 м.
Битрейт: 5 000 Кбит/сек
Ширина: 1 920 пикселей
Высота: 1 024 пикселя
Соотношение сторон: 1, 85:1
Режим частоты кадров: Постоянный
Частота кадров: 24, 000 кадра/сек
Цветовое пространство: YUV
Субдискретизация насыщенности: 4:2:0
Битовая глубина: 8 бит
Тип развёртки: Прогрессивная
Бит/(Пиксели*Кадры): 0.106
Размер потока: 3, 70 Гбайт (96%)
Библиотека кодирования: x264 core 161 r3048 b86ae3c
Настройки программы: cabac=1 / ref=4 / deblock=1:1:1 / analyse=0x3:0x133 / me=umh / subme=9 / psy=1 / psy_rd=0.40:1.00 / mixed_ref=1 / me_range=24 / chroma_me=1 / trellis=0 / 8x8dct=1 / cqm=0 / deadzone=21, 11 / fast_pskip=1 / chroma_qp_offset=-2 / threads=32 / lookahead_threads=2 / sliced_threads=0 / nr=0 / decimate=1 / interlaced=0 / bluray_compat=0 / constrained_intra=0 / bframes=8 / b_pyramid=1 / b_adapt=1 / b_bias=0 / direct=3 / weightb=1 / open_gop=0 / weightp=2 / keyint=72 / keyint_min=37 / scenecut=0 / intra_refresh=0 / rc_lookahead=30 / rc=2pass / mbtree=1 / bitrate=5000 / ratetol=1.0 / qcomp=0.80 / qpmin=1 / qpmax=69 / qpstep=4 / cplxblur=20.0 / qblur=0.5 / vbv_maxrate=7500 / vbv_bufsize=10000 / nal_hrd=none / filler=0 / ip_ratio=1.40 / aq=1:1.00
Default: Да
Forced: Нет
Цветовой диапазон: Limited
Основные цвета: BT.709
Коэффициенты матрицы: BT.709
Аудио
Идентификатор: 2
Формат: AC-3
Формат/Информация: Audio Coding 3
Коммерческое название: Dolby Digital
Идентификатор кодека: A_AC3
Продолжительность: 1 ч. 46 м.
Вид битрейта: Постоянный
Битрейт: 192 Кбит/сек
Каналы: 2 канала
Channel layout: L R
Частота: 48, 0 КГц
Частота кадров: 31, 250 кадров/сек (1536 SPF)
Метод сжатия: С потерями
Размер потока: 146 Мбайт (4%)
Service kind: Complete Main
Default: Да
Forced: Нет

Скриншоты

     
Other forum [Profile] [PM]
Display posts from previous:    
Reply to topic

The time now is: Today 07:27

All times are GMT + 3 Hours



You cannot post new topics in this forum
You cannot reply to topics in this forum
You cannot edit your posts in this forum
You cannot delete your posts in this forum
You cannot vote in polls in this forum
You cannot attach files in this forum
You cannot download files in this forum