Today is a free download without charge Download

Агент Ева / Ava (Тейт Тейлор) [2020 г., Боевик, триллер, драма, криминал, детектив, WEB-DL 1080p] DUB (Чистый звук)

Reply to topic
 
Author
Message

Theseus ®

Gender:

Longevity: 9 years 8 months

Posts: 2146

Торрент-статистика

Post 23-Aug-2020 22:40

[Quote]

Агент Ева / Ava- Год выхода: 2020
Страна: США
Жанр: Боевик, триллер, драма, криминал, детектив
Продолжительность: 01:37:09
Перевод: Дублированный (Чистый звук)
Субтитры: Отсутствуют-Режиссер: Тейт Тейлор-В ролях: Джессика Честейн, Джон Малкович, Джесс Вейкслер, Коммон, Джина Дэвис, Колин Фаррелл, Диана Сильверс, Йоан Гриффит, Джоан Чэнь, Janelle Feigley-О фильме: Она умна, красива и чрезвычайно опасна. Перемещаясь по миру словно тень, агент по имени Ева в одиночку выполняет самые сложные задания своего руководства. Когда внезапно очередная спецоперация идет не по плану, и Ева решает выйти из игры, один из влиятельных боссов секретной службы открывает на неё охоту.- -Качество: WEB-DL 1080p
Формат: MKV
Видео кодек: x.264
Аудио кодек: AC3
Видео: AVC, 1920x804 (2.40:1), 23.976 fps, 8 054 kb/s
Аудио: AC3, 48.0 kHz, 2 ch, 192 kb/s-Сэмпл-Присутствует баннер, звуковая реклама- -

MediaInfo

Код:
Общее
Уникальный идентификатор                 : 206205236290199230573171149647317392523 (0x9B21AF15C778CFBFBAF8E722315D5C8B)
Полное имя                               : Ava.2020.Line.WEB-DL.1080p.mkv
Формат                                   : Matroska
Версия формата                           : Version 4
Размер файла                             : 5,60 Гбайт
Продолжительность                        : 1 ч. 37 м.
Режим общего битрейта                    : Переменный
Общий поток                              : 8248 Кбит/сек
Дата кодирования                         : UTC 2020-08-23 18:43:48
Программа кодирования                    : mkvmerge v8.3.0 ('Over the Horizon') 64bit
Библиотека кодирования                   : libebml v1.3.1 + libmatroska v1.4.2
Видео
Идентификатор                            : 1
Формат                                   : AVC / AVC
Формат/Информация                        : Advanced Video Codec
Профиль формата                          : [email protected] / [email protected]
Настройки формата                        : CABAC / 4 Ref Frames / CABAC / 5 Ref Frames
Параметр CABAC формата                   : Да / Да
Параметр RefFrames формата               : 4 кадра / 5 кадров
Идентификатор кодека                     : V_MPEG4/ISO/AVC
Продолжительность                        : 1 ч. 37 м.
Вид битрейта                             : Переменный
Битрейт                                  : 8054 Кбит/сек
Номинальный битрейт                      : 9000 Кбит/сек / 9000 Кбит/сек
Максимальный битрейт                     : 9000 Кбит/сек
Ширина                                   : 1920 пикселей
Ширина оригинала                         : 1920 пикселей / 1920 пикселей
Высота                                   : 804 пикселя
Высота оригинала                         : 804 пикселя / 804 пикселя
Соотношение сторон                       : 2,40:1
Режим частоты кадров                     : Постоянный
Частота кадров                           : 23,976 (24000/1001) кадра/сек
Стандарт вещания                         : Component
Цветовое пространство                    : YUV
Субдискретизация насыщенности            : 4:2:0 / 4:2:0
Битовая глубина                          : 8 бит / 8 бит
Тип развёртки                            : Прогрессивная / Progressive
Бит/(Пиксели*Кадры)                      : 0.218
Размер потока                            : 5,47 Гбайт (98%)
Библиотека кодирования                   : x264 / x264 core 155 / core 155
Настройки программы                      : cabac=1 / ref=4 / deblock=1:0:0 / analyse=0x3:0x3 / me=dia / subme=1 / psy=1 / psy_rd=1.00:0.00 / mixed_ref=0 / me_range=16 / chroma_me=1 / trellis=0 / 8x8dct=1 / cqm=1 / deadzone=21,11 / fast_pskip=1 / chroma_qp_offset=0 / threads=25 / lookahead_threads=4 / sliced_threads=0 / slices=1 / nr=0 / decimate=1 / interlaced=0 / minigop=0 / stitchable=1 / constrained_intra=0 / bframes=2 / b_pyramid=0 / b_adapt=0 / b_bias=0 / direct=1 / weightb=1 / open_gop=1 / weightp=0 / keyint=240 / keyint_min=23 / scenecut=40 / intra_refresh=0 / rc_lookahead=0 / rc=cbr / mbtree=0 / bitrate=9000 / ratetol=1.0 / qcomp=0.60 / qpmin=1 / qpmax=69 / qpstep=4 / vbv_maxrate=9000 / vbv_bufsize=9000 / nal_hrd=vbr / filler=0 / ip_ratio=1.40 / pb_ratio=1.30 / aq=1:1.00 / cabac=1 / ref=4 / deblock=1:0:0 / analyse=0x3:0x3 / me=dia / subme=1 / psy=1 / psy_rd=1.00:0.00 / mixed_ref=0 / me_range=16 / chroma_me=1 / trellis=0 / 8x8dct=1 / cqm=1 / deadzone=21,11 / fast_pskip=1 / chroma_qp_offset=0 / threads=25 / lookahead_threads=4 / sliced_threads=0 / slices=1 / nr=0 / decimate=1 / interlaced=0 / minigop=0 / stitchable=1 / constrained_intra=0 / bframes=2 / b_pyramid=0 / b_adapt=0 / b_bias=0 / direct=1 / weightb=1 / open_gop=1 / weightp=0 / keyint=240 / keyint_min=23 / scenecut=40 / intra_refresh=0 / rc_lookahead=0 / rc=cbr / mbtree=0 / bitrate=9000 / ratetol=1.0 / qcomp=0.60 / qpmin=1 / qpmax=69 / qpstep=4 / vbv_maxrate=9000 / vbv_bufsize=9000 / nal_hrd=vbr / filler=0 / ip_ratio=1.40 / pb_ratio=1.30 / aq=1:1.00
Default                                  : Да
Forced                                   : Нет
Цветовой диапазон                        : Limited
Основные цвета                           : BT.709
Характеристики трансфера                 : BT.709
Коэффициенты матрицы                     : BT.709
Аудио
Идентификатор                            : 2
Формат                                   : AC-3
Формат/Информация                        : Audio Coding 3
Коммерческое название                    : Dolby Digital
Идентификатор кодека                     : A_AC3
Продолжительность                        : 1 ч. 37 м.
Вид битрейта                             : Постоянный
Битрейт                                  : 192 Кбит/сек
Каналы                                   : 2 канала
Channel layout                           : L R
Частота                                  : 48,0 КГц
Частота кадров                           : 31,250 кадров/сек (1536 SPF)
Битовая глубина                          : 16 бит
Метод сжатия                             : С потерями
Размер потока                            : 133 Мбайт (2%)
Заголовок                                : Line
Язык                                     : Russian
ServiceKind/String                       : Complete Main
Default                                  : Да
Forced                                   : Нет

Трейлер

-     - -

_________________
Other forum [Profile] [PM]

Dracula

Longevity: 7 years 4 months

Posts: 11170

Торрент-статистика

Post 20-Oct-2020 18:17 (after 1 month 27 days)

Топик был перенесен из форума Новинки (BD|HDTV|DVD) в форум Архив


БАНДИТ
 
Display posts from previous:    
Reply to topic

The time now is: Today 06:07

All times are GMT + 3 Hours



You cannot post new topics in this forum
You cannot reply to topics in this forum
You cannot edit your posts in this forum
You cannot delete your posts in this forum
You cannot vote in polls in this forum
You cannot attach files in this forum
You cannot download files in this forum