Today is a free download without charge Download

VA - Euro Disco - The Lost Legends Vol. 30 (2019) [FLAC|Lossless|tracks + .cue] <Euro-Disco>

Reply to topic
 
Author
Message

Soldat_5 ®

Longevity: 11 months 17 days

Posts: 148

Торрент-статистика

Post 05-Oct-2020 12:53

[Quote]

VA - Euro Disco - The Lost Legends Vol. 30 (2019) - Жанр: Euro-Disco
Издание: Disco Magic Melody - DMM CD 30 E
Источник: (релизёр:) andrew_kamsky
Продолжительность: 01:16:07
Кодек: FLAC
Битрейт: Lossless
Тип рипа: tracks + .cue
Треклист:
01. Spin - We Sacrifice (Dub Mix) [00:05:45]
02. Manige - Romeo Love [00:03:10]
03. Pierre Groscolas - She's A Lady (Mix Long Version) [00:05:31]
04. Tony Caso - All The Love In My Heart [00:05:09]
05. Blanc De Blanc - Get Ready [00:06:28]
06. Annie Anner - The Human Race [00:04:03]
07. Marco Riccardo - Love Comes Easy [00:03:56]
08. China Blue - Send Me Another Day [00:06:02]
09. Mad Matrix - The Sign [00:07:52]
10. Panarama - Doesn't Matter [00:04:21]
11. Starter - Victim [00:04:40]
12. Colour Code - I've Had Enough [00:06:20]
13. Sugar - Like A Roller Coaster [00:05:50]
14. Alan Lyford - Marjory [00:06:05]

Отчёт EAC&#58;

Exact Audio Copy V1.3 from 2. September 2016
EAC extraction logfile from 4. January 2020, 18:31
Various / Euro Disco - The Lost Legends Vol. 30
Used drive : PLEXTOR CD-ROM PX-54TA Adapter: 1 ID: 0
Read mode : Secure
Utilize accurate stream : Yes
Defeat audio cache : Yes
Make use of C2 pointers : No
Read offset correction : 12
Overread into Lead-In and Lead-Out : No
Fill up missing offset samples with silence : Yes
Delete leading and trailing silent blocks : No
Null samples used in CRC calculations : Yes
Used interface : Native Win32 interface for Win NT & 2000
Gap handling : Appended to previous track
Used output format : User Defined Encoder
Selected bitrate : 1024 kBit/s
Quality : High
Add ID3 tag : No
Command line compressor : C:\Program Files (x86)\Exact Audio Copy\Flac\flac-1.3.2-win\flac-1.3.2-win\win64\flac.exe
Additional command line options : -V -6 -T "COMMENT=ripped by Krevetka1972 special for new-team org" -T "ARTIST=%artist%" -T "TITLE=%title%" -T "ALBUM=%albumtitle%" -T "DATE=%year%" -T "TRACKNUMBER=%tracknr%" -T "GENRE=%genre%" -T "ALBUMARTIST=%albuminterpret%" %source% -o %dest%
TOC of the extracted CD
Track | Start | Length | Start sector | End sector
---------------------------------------------------------
1 | 0:00.00 | 5:47.65 | 0 | 26089
2 | 5:47.65 | 3:11.73 | 26090 | 40487
3 | 8:59.63 | 5:33.26 | 40488 | 65488
4 | 14:33.14 | 5:11.37 | 65489 | 88850
5 | 19:44.51 | 6:30.40 | 88851 | 118140
6 | 26:15.16 | 4:05.51 | 118141 | 136566
7 | 30:20.67 | 3:58.22 | 136567 | 154438
8 | 34:19.14 | 6:04.48 | 154439 | 181786
9 | 40:23.62 | 7:54.40 | 181787 | 217376
10 | 48:18.27 | 4:53.21 | 217377 | 239372
11 | 53:11.48 | 4:42.45 | 239373 | 260567
12 | 57:54.18 | 6:22.44 | 260568 | 289261
13 | 64:16.62 | 5:52.48 | 289262 | 315709
14 | 70:09.35 | 6:05.50 | 315710 | 343134
Track 1
Filename E:\Euro Disco - The Lost Legends\Various - 2018 - Euro Disco - The Lost Legends Vol. 30 (Disco Magic Melody # DMM CD 30 E)\01. Spin - We Sacrifice (Dub Mix).wav
Pre-gap length 0:00:02.00
Peak level 95.7 %
Extraction speed 1.6 X
Track quality 100.0 %
Test CRC DD4214DF
Copy CRC DD4214DF
Track not present in AccurateRip database
Copy OK
Track 2
Filename E:\Euro Disco - The Lost Legends\Various - 2018 - Euro Disco - The Lost Legends Vol. 30 (Disco Magic Melody # DMM CD 30 E)\02. Manige - Romeo Love.wav
Pre-gap length 0:00:02.00
Peak level 96.9 %
Extraction speed 1.9 X
Track quality 100.0 %
Test CRC 0F2AC5C9
Copy CRC 0F2AC5C9
Track not present in AccurateRip database
Copy OK
Track 3
Filename E:\Euro Disco - The Lost Legends\Various - 2018 - Euro Disco - The Lost Legends Vol. 30 (Disco Magic Melody # DMM CD 30 E)\03. Pierre Groscolas - She's A Lady (Mix Long Version).wav
Pre-gap length 0:00:02.00
Peak level 87.4 %
Extraction speed 3.2 X
Track quality 100.0 %
Test CRC B816D5BE
Copy CRC B816D5BE
Track not present in AccurateRip database
Copy OK
Track 4
Filename E:\Euro Disco - The Lost Legends\Various - 2018 - Euro Disco - The Lost Legends Vol. 30 (Disco Magic Melody # DMM CD 30 E)\04. Tony Caso - All The Love In My Heart.wav
Pre-gap length 0:00:02.00
Peak level 74.5 %
Extraction speed 4.1 X
Track quality 100.0 %
Test CRC F3313154
Copy CRC F3313154
Track not present in AccurateRip database
Copy OK
Track 5
Filename E:\Euro Disco - The Lost Legends\Various - 2018 - Euro Disco - The Lost Legends Vol. 30 (Disco Magic Melody # DMM CD 30 E)\05. Blanc De Blanc - Get Ready.wav
Pre-gap length 0:00:02.00
Peak level 96.9 %
Extraction speed 4.5 X
Track quality 100.0 %
Test CRC 9AA5BA24
Copy CRC 9AA5BA24
Track not present in AccurateRip database
Copy OK
Track 6
Filename E:\Euro Disco - The Lost Legends\Various - 2018 - Euro Disco - The Lost Legends Vol. 30 (Disco Magic Melody # DMM CD 30 E)\06. Annie Anner - The Human Race.wav
Pre-gap length 0:00:02.19
Peak level 67.9 %
Extraction speed 4.0 X
Track quality 99.9 %
Test CRC FCCF2366
Copy CRC FCCF2366
Track not present in AccurateRip database
Copy OK
Track 7
Filename E:\Euro Disco - The Lost Legends\Various - 2018 - Euro Disco - The Lost Legends Vol. 30 (Disco Magic Melody # DMM CD 30 E)\07. Marco Riccardo - Love Comes Easy.wav
Pre-gap length 0:00:02.17
Peak level 81.8 %
Extraction speed 4.7 X
Track quality 100.0 %
Test CRC F69A6339
Copy CRC F69A6339
Track not present in AccurateRip database
Copy OK
Track 8
Filename E:\Euro Disco - The Lost Legends\Various - 2018 - Euro Disco - The Lost Legends Vol. 30 (Disco Magic Melody # DMM CD 30 E)\08. China Blue - Send Me Another Day.wav
Pre-gap length 0:00:09.24
Peak level 82.3 %
Extraction speed 5.2 X
Track quality 100.0 %
Test CRC 5774FFAF
Copy CRC 5774FFAF
Track not present in AccurateRip database
Copy OK
Track 9
Filename E:\Euro Disco - The Lost Legends\Various - 2018 - Euro Disco - The Lost Legends Vol. 30 (Disco Magic Melody # DMM CD 30 E)\09. Mad Matrix - The Sign.wav
Pre-gap length 0:00:07.51
Peak level 89.0 %
Extraction speed 5.6 X
Track quality 100.0 %
Test CRC AEFC364F
Copy CRC AEFC364F
Track not present in AccurateRip database
Copy OK
Track 10
Filename E:\Euro Disco - The Lost Legends\Various - 2018 - Euro Disco - The Lost Legends Vol. 30 (Disco Magic Melody # DMM CD 30 E)\10. Panarama - Doesn't Matter.wav
Pre-gap length 0:01:58.03
Peak level 71.9 %
Extraction speed 5.5 X
Track quality 100.0 %
Test CRC E6C83197
Copy CRC E6C83197
Track not present in AccurateRip database
Copy OK
Track 11
Filename E:\Euro Disco - The Lost Legends\Various - 2018 - Euro Disco - The Lost Legends Vol. 30 (Disco Magic Melody # DMM CD 30 E)\11. Starter - Victim.wav
Pre-gap length 0:00:51.59
Peak level 91.6 %
Extraction speed 5.7 X
Track quality 100.0 %
Test CRC 1A863844
Copy CRC 1A863844
Track not present in AccurateRip database
Copy OK
Track 12
Filename E:\Euro Disco - The Lost Legends\Various - 2018 - Euro Disco - The Lost Legends Vol. 30 (Disco Magic Melody # DMM CD 30 E)\12. Colour Code - I've Had Enough.wav
Pre-gap length 0:02:19.22
Peak level 96.9 %
Extraction speed 6.1 X
Track quality 100.0 %
Test CRC B4D679B7
Copy CRC B4D679B7
Track not present in AccurateRip database
Copy OK
Track 13
Filename E:\Euro Disco - The Lost Legends\Various - 2018 - Euro Disco - The Lost Legends Vol. 30 (Disco Magic Melody # DMM CD 30 E)\13. Sugar - Like A Roller Coaster.wav
Pre-gap length 0:00:02.00
Peak level 76.7 %
Extraction speed 6.2 X
Track quality 100.0 %
Test CRC E1FFC480
Copy CRC E1FFC480
Track not present in AccurateRip database
Copy OK
Track 14
Filename E:\Euro Disco - The Lost Legends\Various - 2018 - Euro Disco - The Lost Legends Vol. 30 (Disco Magic Melody # DMM CD 30 E)\14. Alan Lyford - Marjory.wav
Pre-gap length 0:00:40.49
Peak level 67.4 %
Extraction speed 6.4 X
Track quality 100.0 %
Test CRC FB27F080
Copy CRC FB27F080
Track not present in AccurateRip database
Copy OK
None of the tracks are present in the AccurateRip database
No errors occurred
End of status report
---- AcoustID Plugin V1.2.0
Total fingerprints: 14
---- CUETools DB Plugin V2.1.6
[CTDB TOCID: ZKuPvW8w9OwE.9o_XCjuWNlLo9E-] disk not present in database
Submit result: ZKuPvW8w9OwE.9o_XCjuWNlLo9E- has been uploaded
==== Log checksum E13A0FEE40218E8F2DCFDE1B079AD603F4A855B2310AC32EF9AB17F6F12F8217 ====
Other forum [Profile] [PM]
Display posts from previous:    
Reply to topic

The time now is: Today 15:28

All times are GMT + 3 Hours



You cannot post new topics in this forum
You cannot reply to topics in this forum
You cannot edit your posts in this forum
You cannot delete your posts in this forum
You cannot vote in polls in this forum
You cannot attach files in this forum
You cannot download files in this forum