Today is a free download without charge Download

Бокс. Александр Усик - Дерек Чисора (31.10.2020) [2020, Бокс, IPTV 1080p]

Reply to topic
 
Author
Message

Theseus ®

Gender:

Longevity: 9 years 5 months

Posts: 2132

Торрент-статистика

Post 03-Nov-2020 20:38

[Quote]

Бокс. Александр Усик - Дерек Чисора - Год: 2020
Вид спорта: Бокс
Продолжительность: 01:22:41
Комментарий: П. Баранов
Язык комментариев: Русский
Канал: Беларусь 5 HD
Страна: Великобритания-Описание: Александр Усик — Дерек Чисора — рейтинговый профессиональный боксерский 12-раундовый поединок в тяжёлом весе за статус официального претендента на титул чемпиона мира по версии WBO. Поединок состоялся 31 октября 2020 года на Уэмбли Арене в Лондоне-Качество видео: IPTV 1080p
Формат: MKV
Видео кодек: x.264
Аудио кодек: AAC
Видео: AVC, 1920x1080 (16:9), 25.000 fps, 3 374 kb/s
Аудио: AAC, 48.0 kHz, 2 ch, 161 kb/s-

Участники

Александр Усик и Дерек Чисора

MediaInfo

Код:
Общее
Уникальный идентификатор                 : 238774746762931044477543309386379340307 (0xB3A257EE01535D018F3DEAF8DE1AAA13)
Полное имя                               : Dereck Chisora vs Oleksandr Usyk (31-10-2020) [RUS] 1080p.mkv
Формат                                   : Matroska
Версия формата                           : Version 4
Размер файла                             : 2,04 Гбайт
Продолжительность                        : 1 ч. 22 м.
Режим общего битрейта                    : Переменный
Общий поток                              : 3538 Кбит/сек
Дата кодирования                         : UTC 2020-11-03 11:12:07
Программа кодирования                    : mkvmerge v8.3.0 ('Over the Horizon') 64bit
Библиотека кодирования                   : libebml v1.3.1 + libmatroska v1.4.2
Видео
Идентификатор                            : 1
Формат                                   : AVC
Формат/Информация                        : Advanced Video Codec
Профиль формата                          : [email protected]
Настройки формата                        : CABAC / 1 Ref Frames
Параметр CABAC формата                   : Да
Параметр RefFrames формата               : 1 кадр
Параметр GOP формата                     : M=1, N=50
Идентификатор кодека                     : V_MPEG4/ISO/AVC
Продолжительность                        : 1 ч. 22 м.
Вид битрейта                             : Переменный
Битрейт                                  : 3374 Кбит/сек
Максимальный битрейт                     : 3500 Кбит/сек
Ширина                                   : 1920 пикселей
Высота                                   : 1080 пикселей
Соотношение сторон                       : 16:9
Режим частоты кадров                     : Постоянный
Частота кадров                           : 25,000 кадров/сек
Цветовое пространство                    : YUV
Субдискретизация насыщенности            : 4:2:0
Битовая глубина                          : 8 бит
Тип развёртки                            : Прогрессивная
Бит/(Пиксели*Кадры)                      : 0.065
Размер потока                            : 1,95 Гбайт (95%)
Default                                  : Да
Forced                                   : Нет
Аудио
Идентификатор                            : 2
Формат                                   : AAC LC
Формат/Информация                        : Advanced Audio Codec Low Complexity
Идентификатор кодека                     : A_AAC-2
Продолжительность                        : 1 ч. 22 м.
Битрейт                                  : 161 Кбит/сек
Каналы                                   : 2 канала
Channel layout                           : L R
Частота                                  : 48,0 КГц
Частота кадров                           : 46,875 кадров/сек (1024 SPF)
Метод сжатия                             : С потерями
Задержка видео                           : 12 мс.
Размер потока                            : 95,4 Мбайт (5%)
Язык                                     : Russian
Default                                  : Да
Forced                                   : Нет
-     - -

_________________
Other forum [Profile] [PM]

DED

Gender:

Longevity: 7 years 1 month

Posts: 4232

Location: СССР

Торрент-статистика

Post 03-Nov-2020 21:50 (after 1 hour 12 minutes)

[Quote]

Не знаю кто тут победил, но в любом случае Александр Усик ЗАМЕЧАТЕЛЬНЫЙ боец!!!
Я бы даже сказал - СУПЕР-боец!!!

_________________

==============================
IGNOSCITO SAEPE ALTERI, NUNQUAM TIBI
Other forum [Profile] [PM]
Display posts from previous:    
Reply to topic

The time now is: Today 13:06

All times are GMT + 3 Hours



You cannot post new topics in this forum
You cannot reply to topics in this forum
You cannot edit your posts in this forum
You cannot delete your posts in this forum
You cannot vote in polls in this forum
You cannot attach files in this forum
You cannot download files in this forum