Today is a free download without charge Download

Чудо-женщина: 1984 / Wonder Woman 1984 (Пэтти Дженкинс) [2020 г., фэнтези, боевик, приключения, фантастика, WEB-DL 1080p] [IMAX Edition] | MVO (DuoWave) (HamsterStudio)

Reply to topic
 
Author
Message

Theseus ®

Gender:

Longevity: 9 years 8 months

Posts: 2146

Торрент-статистика

Post 29-Dec-2020 22:23

[Quote]

Чудо-женщина: 1984 / Wonder Woman 1984-Год выхода: 2020
Страна: США, Великобритания, Испания
Жанр: фэнтези, боевик, приключения, фантастика
Продолжительность: 02:31:05
Перевод 1: Любительский многоголосый (DuoWave)
Перевод 2: Любительский многоголосый (HamsterStudio)
Субтитры: Русские (forced, full), английские (full, SDH)-Режиссер: Пэтти Дженкинс-В ролях: Галь Гадот, Крис Пайн, Кристен Уиг, Педро Паскаль, Робин Райт, Конни Нильсен, Лилли Аспелл, Амр Вакед, Кристоффер Полаха, Наташа Ротуэлл-О фильме: 1984 год. Диана всё ещё грустит по погибшему Стиву, борется с мелким криминалом и работает в музее Смитсоновского института. Однажды она знакомится с новой коллегой Барбарой, специалисткой широкого профиля, которой поручено изучить новые артефакты. Среди древних предметов оказывается загадочный кристалл, который исполняет желания. Так к Диане внезапно возвращается Стив, а застенчивая и неуклюжая Барбара обретает невероятную силу, сноровку и привлекательность. Но за волшебным кристаллом охотится бизнесмен Максвелл Лорд, и у него имеются очень коварные планы на этот артефакт.- -Качество: WEB-DL 1080p
Формат: MKV
Видео кодек: x.264
Аудио кодек: AC3, E-AC3
Видео: AVC, 1920x1040 (1.890), 23.976 fps, 10 Mb/s
Аудио 1: AC3, 48.0 kHz, 2 ch, 192 kb/s | RUS (MVO / DuoWave) |
Аудио 2: AC3, 48.0 kHz, 2 ch, 192 kb/s | RUS (MVO / HamsterStudio) |
Аудио 3: AC3, 48.0 kHz, 2 ch, 192 kb/s | UKR (DUB / Line) |
Аудио 4: E-AC3 with Dolby Atmos, 48.0 kHz, 6 ch, 768 kb/s | ENG | -Сэмпл | Рекламы нет-

MI

Код:
Общее
Уникальный идентификатор                 : 191675557113789936403955065138127049560 (0x90335E97E57B99D586729D342FD81358)
Полное имя                               : Wonder.Woman.1984.2020.IMAX.AMZN.WEB-DL.1080p.mkv
Формат                                   : Matroska
Версия формата                           : Version 4
Размер файла                             : 11,6 Гбайт
Продолжительность                        : 2 ч. 31 м.
Общий поток                              : 11,0 Мбит/сек
Название фильма                          : Wonder Woman 1984 (2020) from Theseus
Дата кодирования                         : UTC 2020-12-29 11:02:59
Программа кодирования                    : mkvmerge v8.3.0 ('Over the Horizon') 64bit
Библиотека кодирования                   : libebml v1.3.1 + libmatroska v1.4.2
Видео
Идентификатор                            : 1
Формат                                   : AVC
Формат/Информация                        : Advanced Video Codec
Профиль формата                          : H[email protected]
Настройки формата                        : CABAC / 4 Ref Frames
Параметр CABAC формата                   : Да
Параметр RefFrames формата               : 4 кадра
Идентификатор кодека                     : V_MPEG4/ISO/AVC
Продолжительность                        : 2 ч. 31 м.
Вид битрейта                             : Постоянный
Битрейт                                  : 10000 Кбит/сек
Ширина                                   : 1920 пикселей
Высота                                   : 1040 пикселей
Соотношение сторон                       : 1,890
Соотношение сторон в оригинале           : 1,85:1
Режим частоты кадров                     : Постоянный
Частота кадров                           : 23,976 (24000/1001) кадра/сек
Цветовое пространство                    : YUV
Субдискретизация насыщенности            : 4:2:0
Битовая глубина                          : 8 бит
Тип развёртки                            : Прогрессивная
Бит/(Пиксели*Кадры)                      : 0.209
Размер потока                            : 10,2 Гбайт (88%)
Язык                                     : English
Default                                  : Да
Forced                                   : Нет
Цветовой диапазон                        : Limited
Основные цвета                           : BT.709
Характеристики трансфера                 : BT.709
Коэффициенты матрицы                     : BT.709
Аудио #1
Идентификатор                            : 2
Формат                                   : AC-3
Формат/Информация                        : Audio Coding 3
Коммерческое название                    : Dolby Digital
Идентификатор кодека                     : A_AC3
Продолжительность                        : 2 ч. 31 м.
Вид битрейта                             : Постоянный
Битрейт                                  : 192 Кбит/сек
Каналы                                   : 2 канала
Channel layout                           : L R
Частота                                  : 48,0 КГц
Частота кадров                           : 31,250 кадров/сек (1536 SPF)
Битовая глубина                          : 16 бит
Метод сжатия                             : С потерями
Размер потока                            : 207 Мбайт (2%)
Заголовок                                : MVO (DuoWave)
Язык                                     : Russian
ServiceKind/String                       : Complete Main
Default                                  : Да
Forced                                   : Нет
Аудио #2
Идентификатор                            : 3
Формат                                   : AC-3
Формат/Информация                        : Audio Coding 3
Коммерческое название                    : Dolby Digital
Идентификатор кодека                     : A_AC3
Продолжительность                        : 2 ч. 31 м.
Вид битрейта                             : Постоянный
Битрейт                                  : 192 Кбит/сек
Каналы                                   : 2 канала
Channel layout                           : L R
Частота                                  : 48,0 КГц
Частота кадров                           : 31,250 кадров/сек (1536 SPF)
Битовая глубина                          : 16 бит
Метод сжатия                             : С потерями
Размер потока                            : 207 Мбайт (2%)
Заголовок                                : MVO (HamsterStudio)
Язык                                     : Russian
ServiceKind/String                       : Complete Main
Default                                  : Нет
Forced                                   : Нет
Аудио #3
Идентификатор                            : 4
Формат                                   : AC-3
Формат/Информация                        : Audio Coding 3
Коммерческое название                    : Dolby Digital
Идентификатор кодека                     : A_AC3
Продолжительность                        : 2 ч. 31 м.
Вид битрейта                             : Постоянный
Битрейт                                  : 192 Кбит/сек
Каналы                                   : 2 канала
Channel layout                           : L R
Частота                                  : 48,0 КГц
Частота кадров                           : 31,250 кадров/сек (1536 SPF)
Битовая глубина                          : 16 бит
Метод сжатия                             : С потерями
Размер потока                            : 207 Мбайт (2%)
Заголовок                                : DUB (Line)
Язык                                     : Ukrainian
ServiceKind/String                       : Complete Main
Default                                  : Нет
Forced                                   : Нет
Аудио #4
Идентификатор                            : 5
Формат                                   : E-AC-3 JOC
Формат/Информация                        : Enhanced AC-3 with Joint Object Coding
Коммерческое название                    : Dolby Digital Plus with Dolby Atmos
Идентификатор кодека                     : A_EAC3
Продолжительность                        : 2 ч. 31 м.
Вид битрейта                             : Постоянный
Битрейт                                  : 768 Кбит/сек
Каналы                                   : 6 каналов
Channel layout                           : L R C LFE Ls Rs
Частота                                  : 48,0 КГц
Частота кадров                           : 31,250 кадров/сек (1536 SPF)
Метод сжатия                             : С потерями
Задержка видео                           : 24 мс.
Размер потока                            : 830 Мбайт (7%)
Язык                                     : English
ServiceKind/String                       : Complete Main
Default                                  : Нет
Forced                                   : Нет
Complexity index                         : 16
Number of dynamic objects                : 15
Bed channel count                        : 1 канал
Bed channel configuration                : LFE
Текст #1
Идентификатор                            : 6
Формат                                   : UTF-8
Идентификатор кодека                     : S_TEXT/UTF8
Идентификатор кодека/Информация          : UTF-8 Plain Text
Продолжительность                        : 2 ч. 6 м.
Битрейт                                  : 0 бит/сек
ElementCount                             : 9
Размер потока                            : 603 байт (0%)
Заголовок                                : Forced
Язык                                     : Russian
Default                                  : Да
Forced                                   : Нет
Текст #2
Идентификатор                            : 7
Формат                                   : UTF-8
Идентификатор кодека                     : S_TEXT/UTF8
Идентификатор кодека/Информация          : UTF-8 Plain Text
Продолжительность                        : 2 ч. 26 м.
Битрейт                                  : 79 бит/сек
ElementCount                             : 1841
Размер потока                            : 85,5 Кбайт (0%)
Заголовок                                : Full
Язык                                     : Russian
Default                                  : Нет
Forced                                   : Нет
Текст #3
Идентификатор                            : 8
Формат                                   : UTF-8
Идентификатор кодека                     : S_TEXT/UTF8
Идентификатор кодека/Информация          : UTF-8 Plain Text
Продолжительность                        : 2 ч. 26 м.
Битрейт                                  : 46 бит/сек
ElementCount                             : 1862
Размер потока                            : 50,2 Кбайт (0%)
Заголовок                                : Full
Язык                                     : English
Default                                  : Нет
Forced                                   : Нет
Текст #4
Идентификатор                            : 9
Формат                                   : UTF-8
Идентификатор кодека                     : S_TEXT/UTF8
Идентификатор кодека/Информация          : UTF-8 Plain Text
Продолжительность                        : 2 ч. 26 м.
Битрейт                                  : 55 бит/сек
ElementCount                             : 2175
Размер потока                            : 59,6 Кбайт (0%)
Заголовок                                : SDH
Язык                                     : English
Default                                  : Нет
Forced                                   : Нет

Трейлер

-     - -

_________________
Other forum [Profile] [PM]

Dracula

Longevity: 7 years 4 months

Posts: 11170

Торрент-статистика

Post 30-Dec-2020 11:47 (after 13 hours)

Топик был перенесен из форума Новинки (BD|HDTV|DVD) в форум Архив


БАНДИТ
 
Display posts from previous:    
Reply to topic

The time now is: Today 06:42

All times are GMT + 3 Hours



You cannot post new topics in this forum
You cannot reply to topics in this forum
You cannot edit your posts in this forum
You cannot delete your posts in this forum
You cannot vote in polls in this forum
You cannot attach files in this forum
You cannot download files in this forum